<?xml version="1.0" standalone="no"?>
<!DOCTYPE svg PUBLIC "-//W3C//DTD SVG 1.1//EN" "http://www.w3.org/Graphics/SVG/1.1/DTD/svg11.dtd">
<svg xmlns="http://www.w3.org/2000/svg">
<defs >
<font id="Alef" horiz-adv-x="1158" ><font-face
    font-family="Alef"
    units-per-em="2048"
    panose-1="0 0 8 0 0 0 0 0 0 0"
    ascent="2067"
    descent="-722"
    alphabetic="0" />
<glyph unicode=" " glyph-name="space" horiz-adv-x="570" />
<glyph unicode="!" glyph-name="exclam" horiz-adv-x="711" d="M150 1351Q186 1405 240 1432T351 1460Q386 1460 418 1449T476 1414T516 1355T531 1273L490 422L271 388L231 1184L150 1351ZM371 262Q403 262 429 251T473 221T502 176T512 121Q512 92 501 67T471
22T426 -9T371 -20Q342 -20 317 -9T272 21T241 66T230 121Q230 152 241 178T272 222T317 251T371 262Z" />
<glyph unicode="&quot;" glyph-name="quotedbl" horiz-adv-x="941" d="M553 1402Q593 1431 639 1446T730 1462Q760 1462 787 1454T836 1428T869 1384T882 1323Q882 1281 870 1244T833 1162T771 1061T684 927H512L617 1216L553 1402ZM111 1400Q151 1429 197 1445T288
1461Q318 1461 345 1453T394 1427T427 1383T440 1322Q440 1280 428 1243T391 1161T329 1060T242 926H70L175 1215L111 1400Z" />
<glyph unicode="#" glyph-name="numbersign" horiz-adv-x="1291" d="M1037 956L959 743H1195L1149 618H917L847 432H1082L1038 305H801L723 94H593L663 305H465L385 94H247L327 305H96L140 432H371L442 618H201L250 743H488L566 956H695L617 743H828L906 956H1037ZM782
618H573L509 432H711L782 618Z" />
<glyph unicode="$" glyph-name="dollar" horiz-adv-x="1273" d="M734 1571V1457Q812 1449 903 1430T1081 1374L1010 1200Q946 1223 878 1239T735 1262V862Q769 853 814 841T908 809T1004 757T1088 677T1148 562T1171 404Q1171 329 1152 270T1101 167T1026 92T935
39T835 5T734 -14V-131H529V-22Q484 -19 431 -13T323 4T211 32T102 73L176 249Q253 220 340 199T529 174V650Q499 658 456 668T365 698T272 746T188 822T128 933T105 1087Q105 1179 143 1245T241 1355T378 1423T529 1457V1571H734ZM529 1250Q464 1233 427 1194T389
1088Q389 1050 398 1023T425 976T469 942T529 916V1250ZM734 199Q805 223 846 273T887 404Q887 445 877 475T847 527T799 566T734 595V199Z" />
<glyph unicode="%" glyph-name="percent" horiz-adv-x="1300" d="M388 1363Q433 1363 480 1354T565 1314T629 1226T654 1073Q654 978 629 921T566 832T480 790T388 780Q343 780 296 790T209 830T145 919T120 1073Q120 1169 145 1226T209 1314T295 1354T388 1363ZM388
1266Q354 1266 331 1252T293 1212T272 1151T265 1073Q265 1030 271 995T292 934T330 894T388 880Q421 880 444 894T483 933T504 993T511 1073Q511 1116 505 1151T483 1212T445 1252T388 1266ZM1114 1110V961L186 267V415L1114 1110ZM914 596Q959 596 1006 587T1091
547T1155 459T1180 306Q1180 211 1155 154T1092 65T1006 23T914 13Q869 13 822 23T735 63T671 152T646 306Q646 402 671 459T735 547T821 587T914 596ZM914 499Q880 499 857 485T819 445T798 384T791 306Q791 263 797 228T818 167T856 127T914 113Q947 113 970
127T1009 166T1030 226T1037 306Q1037 349 1031 384T1009 445T971 485T914 499Z" />
<glyph unicode="&amp;" glyph-name="ampersand" horiz-adv-x="1650" d="M1550 243Q1504 163 1467 111T1395 29T1324 -13T1245 -25Q1209 -25 1177 -20T1114 2T1048 46T973 118Q938 85 892 59T791 14T678 -14T558 -24Q442 -24 356 6T213 91T127 219T98 380Q98 448
122 515T197 646Q234 691 286 736T410 833Q375 881 347 921T299 1000T269 1077T258 1160Q258 1214 276 1265T332 1354Q360 1384 397 1404T478 1437T570 1454T668 1460Q760 1460 851 1447T1018 1417L946 1215Q920 1221 890 1228T829 1240T765 1248T703 1252Q670
1252 641 1247T590 1231T556 1200T543 1151Q543 1127 548 1105T567 1057T600 1002T649 935L1000 482Q1023 524 1041 577T1068 687H933V854H1481V687H1299Q1276 563 1237 463T1150 288Q1164 269 1179 250T1209 216T1238 192T1266 183Q1278 183 1290 191T1318 218T1354
269T1402 350L1550 243ZM533 672Q491 646 459 614T405 545T372 470T361 395Q361 352 376 314T422 247T501 201T614 184Q675 184 735 207T840 272L533 672Z" />
<glyph unicode="&apos;" glyph-name="quotesingle" horiz-adv-x="500" d="M111 1401Q151 1430 197 1445T288 1461Q318 1461 345 1453T394 1427T427 1383T440 1322Q440 1280 428 1243T391 1161T329 1060T242 926H70L175 1215L111 1401Z" />
<glyph unicode="(" glyph-name="parenleft" horiz-adv-x="830" d="M538 -209Q452 -144 383 -60T264 124T188 340T161 584Q161 712 188 827T264 1043T382 1228T538 1377L670 1323Q607 1233 562 1151T486 983T442 800T428 584Q428 465 442 369T486 186T561 17T670
-155L538 -209Z" />
<glyph unicode=")" glyph-name="parenright" horiz-adv-x="830" d="M293 1377Q378 1312 448 1228T567 1044T643 828T670 584Q670 456 643 341T567 125T448 -60T293 -209L161 -155Q224 -65 269 17T345 185T389 368T403 584Q403 703 389 799T345 982T270 1151T161
1323L293 1377Z" />
<glyph unicode="*" glyph-name="asterisk" horiz-adv-x="1099" d="M621 1459L633 1214L866 1276L910 1146L682 1060L816 858L705 778L552 968L399 778L289 858L422 1062L192 1148L236 1278L471 1214L483 1459H621Z" />
<glyph unicode="+" glyph-name="plus" horiz-adv-x="1216" d="M703 1020V657H1066V467H703V104H513V467H150V657H513V1020H703Z" />
<glyph unicode="," glyph-name="comma" horiz-adv-x="698" d="M185 169Q221 195 263 209T346 224Q374 224 399 217T443 193T473 154T484 98Q484 60 473 26T440 -49T383 -140T304 -262H148L243 0L185 169Z" />
<glyph unicode="-" glyph-name="hyphen" horiz-adv-x="1224" d="M1020 657V467H204V657H1020Z" />
<glyph unicode="." glyph-name="period" horiz-adv-x="682" d="M341 262Q373 262 399 251T443 221T472 176T482 121Q482 92 471 67T441 22T396 -9T341 -20Q312 -20 287 -9T242 21T211 66T200 121Q200 152 211 178T242 222T287 251T341 262Z" />
<glyph unicode="/" glyph-name="slash" horiz-adv-x="1349" d="M1239 1438L339 0H110L1010 1438H1239Z" />
<glyph unicode="0" glyph-name="zero" horiz-adv-x="1247" d="M624 1083Q738 1083 839 1040T1015 921T1133 745T1177 530Q1177 415 1134 314T1015 138T839 20T624 -24Q509 -24 408 19T232 138T114 314T70 530Q70 644 113 745T232 921T408 1039T624 1083ZM624 851Q560
851 504 826T405 758T339 656T314 530Q314 462 338 404T405 302T503 233T624 208Q687 208 743 233T842 301T908 403T933 530Q933 597 909 656T842 758T744 826T624 851Z" />
<glyph unicode="1" glyph-name="one" horiz-adv-x="859" d="M527 1092L635 1008V0H361V823L158 745L90 923L527 1092Z" />
<glyph unicode="2" glyph-name="two" horiz-adv-x="1073" d="M134 990Q227 1035 339 1059T560 1083Q643 1083 715 1068T840 1017T923 924T953 781Q953 699 931 644T866 549T759 478T610 410Q561 389 526 374T466 345T427 318T404 287T393 248T389 195H938V0H120V139Q120
236 145 306T217 427T331 516T482 587Q529 606 566 621T630 655T670 702T684 775Q684 810 672 833T639 870T590 889T530 895Q497 895 457 890T375 874T291 849T210 815L134 990Z" />
<glyph unicode="3" glyph-name="three" horiz-adv-x="1097" d="M187 1089Q224 1075 254 1067T320 1054Q356 1049 403 1048T525 1046H867V892L630 626Q703 624 772 602T890 528Q945 473 971 398T997 244Q997 149 965 75T876 -55T742 -151T574 -218Q506 -238 444
-249T323 -267T209 -275T100 -278V-76Q179 -71 256 -61T402 -32Q470 -13 529 13T631 74T698 153T723 252Q723 300 709 334T670 389T611 419T537 429Q497 429 453 421T364 397L289 546L546 841H421Q387 841 347 843T266 850T185 866T111 895L187 1089Z" />
<glyph unicode="4" glyph-name="four" horiz-adv-x="1251" d="M408 772Q439 832 458 872T489 947T511 1017T532 1101L790 1047Q785 1005 779 971T761 904T735 835T697 756L421 205H733V426H1001V205H1169V0H1001V-274H733V0H120L80 124L408 772Z" />
<glyph unicode="5" glyph-name="five" horiz-adv-x="1107" d="M540 1046Q614 1046 661 1047T745 1054Q781 1059 811 1067T878 1089L954 895Q919 877 880 867T799 851T718 843T644 841H457L443 597Q481 611 525 618T618 626Q694 626 766 603T890 528Q945 473 971
398T997 244Q997 149 965 75T876 -55T742 -151T574 -218Q506 -238 444 -249T323 -267T209 -275T100 -278V-76Q179 -71 256 -61T402 -32Q470 -13 529 13T631 74T698 153T723 252Q723 300 709 334T670 389T611 419T537 429Q487 429 432 417T320 381L173 487L206 1046H540Z"
/>
<glyph unicode="6" glyph-name="six" horiz-adv-x="1186" d="M977 1148Q960 1149 943 1149T909 1150Q809 1150 728 1134T586 1079T482 979T417 827Q468 845 532 856T666 867Q711 867 755 861T841 843T919 809T985 758Q1034 703 1061 622T1089 435Q1089 301 1046
213T933 72T775 -2T596 -24Q535 -24 475 -16T358 13T255 71T173 169T119 313T103 514Q106 629 123 728T172 920Q203 1009 248 1074T349 1184T467 1257T595 1301T724 1322T849 1328Q884 1328 916 1327T977 1324V1148ZM612 679Q487 679 391 628Q383 589 380 548T377
475Q377 412 388 356T424 257T492 189T597 164Q651 164 691 183T759 238T801 322T815 431Q815 493 806 540T774 619Q749 654 705 666T612 679Z" />
<glyph unicode="7" glyph-name="seven" horiz-adv-x="1092" d="M635 1046Q698 1046 742 1048T824 1055Q860 1060 893 1066T963 1082L1012 938Q916 798 849 689T736 489Q690 398 664 319T625 157Q619 116 615 78T609 -1T606 -88T605 -191V-265H331Q331 -143 334
-44T350 144T389 320T460 504Q495 579 542 660T653 841H90V1046H635Z" />
<glyph unicode="8" glyph-name="eight" horiz-adv-x="1206" d="M608 1314Q650 1314 698 1308T794 1288T886 1251T964 1193T1018 1109T1039 996Q1039 818 899 704Q946 680 984 650T1050 580T1091 489T1106 371Q1106 293 1084 233T1023 130T933 57T826 9T713 -16T603
-24Q548 -24 490 -17T375 8T269 55T182 129T122 235T100 378Q100 436 116 486T160 579T229 655T318 715Q288 736 263 762T219 821T191 898T180 996Q180 1060 200 1108T255 1192T334 1251T425 1289T520 1308T608 1314ZM608 1140Q570 1140 538 1132T483 1105T447
1059T434 992Q434 936 459 903T523 848T610 815T705 792Q729 813 744 838T769 889T781 942T785 992Q785 1031 772 1059T734 1105T678 1131T608 1140ZM502 599Q467 578 442 556T400 507T377 450T369 378Q369 268 430 209T603 150Q714 150 775 207T837 371Q837 438
807 477T728 538T620 573T502 599Z" />
<glyph unicode="9" glyph-name="nine" horiz-adv-x="1186" d="M212 -89Q229 -90 246 -90T280 -91Q380 -91 461 -75T603 -20T707 80T772 232Q721 214 657 203T523 192Q478 192 434 198T348 216T270 250T204 301Q155 356 128 437T100 624Q100 713 119 782T174 902T256
987T357 1043T472 1074T593 1083Q654 1083 714 1075T831 1046T934 988T1016 890T1070 745T1086 545Q1083 430 1066 331T1017 139Q986 49 940 -16T837 -126T718 -200T590 -243T462 -263T341 -269Q304 -269 272 -268T212 -265V-89ZM592 895Q538 895 498 876T430 821T388
736T374 628Q374 566 383 519T415 440Q440 405 484 393T577 380Q702 380 798 431Q806 470 809 511T812 584Q812 647 801 703T765 802T697 870T592 895Z" />
<glyph unicode=":" glyph-name="colon" horiz-adv-x="670" d="M335 887Q368 887 395 876T442 844T472 796T483 739Q483 709 472 682T440 635T392 603T335 591Q305 591 278 602T231 634T199 682T187 739Q187 772 199 799T231 845T278 876T335 887ZM335 276Q368
276 395 265T442 233T472 185T483 128Q483 98 472 71T440 24T392 -8T335 -20Q305 -20 278 -9T231 23T199 71T187 128Q187 161 199 188T231 234T278 265T335 276Z" />
<glyph unicode=";" glyph-name="semicolon" horiz-adv-x="724" d="M393 887Q426 887 453 876T500 844T530 796T541 739Q541 709 530 682T498 635T450 603T393 591Q363 591 336 602T289 634T257 682T245 739Q245 772 257 799T289 845T336 876T393 887ZM241 169Q277
195 319 209T402 224Q430 224 455 217T499 193T529 154T540 98Q540 60 529 26T496 -49T439 -140T360 -262H204L299 0L241 169Z" />
<glyph unicode="&lt;" glyph-name="less" horiz-adv-x="1127" d="M1027 1049V795L394 518L1027 238V-20L100 439V595L1027 1049Z" />
<glyph unicode="=" glyph-name="equal" horiz-adv-x="1216" d="M1066 847V657H150V847H1066ZM1066 467V277H150V467H1066Z" />
<glyph unicode="&gt;" glyph-name="greater" horiz-adv-x="1127" d="M100 1049L1027 595V439L100 -20V238L733 518L100 795V1049Z" />
<glyph unicode="?" glyph-name="question" horiz-adv-x="1196" d="M120 1363Q226 1411 339 1436T559 1461Q666 1461 750 1439T894 1371T984 1258T1016 1098Q1016 1012 988 950T905 838T769 748T581 661V422L342 382L282 749Q363 784 429 810T546 860T635 905T697
954T732 1013T744 1091Q744 1135 729 1166T687 1216T623 1244T540 1253Q501 1253 458 1247T370 1230T281 1203T195 1169L120 1363ZM461 262Q493 262 519 251T563 221T592 176T602 121Q602 92 591 67T561 22T516 -9T461 -20Q432 -20 407 -9T362 21T331 66T320 121Q320
152 331 178T362 222T407 251T461 262Z" />
<glyph unicode="@" glyph-name="at" horiz-adv-x="1742" d="M870 -219Q765 -219 668 -193T487 -120T335 -7T218 140T143 314T116 507Q116 607 142 700T217 873T334 1020T487 1134T667 1207T870 1233Q975 1233 1072 1207T1253 1134T1405 1021T1522 874T1597 700T1624
507Q1624 412 1594 340T1512 217T1388 142T1232 116Q1200 116 1174 116T1122 118T1072 121T1018 126Q1015 143 1012 163T1006 205Q1004 225 1003 245T1001 286H991Q970 238 946 206T896 154T841 127T785 119Q749 119 713 128T645 163T589 231T553 343Q548 372 546
401T543 463Q543 581 569 662T645 793T764 865T920 890Q965 890 1033 881T1189 847L1178 588Q1177 563 1176 530T1173 460T1171 389T1170 326Q1170 321 1170 313T1170 297T1171 281T1172 271Q1176 270 1185 270T1203 269T1220 268T1233 268Q1331 268 1386 325T1442
507Q1442 621 1398 721T1276 896T1095 1013T870 1056Q750 1056 646 1013T464 896T343 722T298 507Q298 393 342 293T464 118T645 1T870 -42H928V-219H870ZM1006 741Q989 744 971 747T934 750Q864 750 823 725T760 659T732 567T725 462Q725 433 727 398T736 333T759
283T803 262Q832 262 855 275T899 312Q926 343 949 389T994 491L1006 741Z" />
<glyph unicode="A" glyph-name="A" horiz-adv-x="1454" d="M865 1438L1408 0H1126L962 442H488L324 0H42L585 1438H865ZM725 1141L562 643H888L725 1141Z" />
<glyph unicode="B" glyph-name="B" horiz-adv-x="1348" d="M719 1438Q813 1438 897 1420T1043 1361T1142 1258T1179 1106Q1179 1044 1167 995T1131 908T1074 840T999 790V780Q1046 769 1091 741T1173 669T1231 567T1254 437Q1254 317 1215 234T1108 99T945 24T741
0H183V1438H719ZM625 874Q700 874 753 884T839 916T889 973T905 1058Q905 1109 889 1144T840 1201T753 1233T625 1243H457V874H625ZM661 195Q819 195 899 251T980 437Q980 567 900 623T661 679H457V195H661Z" />
<glyph unicode="C" glyph-name="C" horiz-adv-x="1289" d="M1207 40Q1118 11 1012 -6T795 -24Q608 -24 479 19T268 152T151 377T115 697Q115 889 150 1032T263 1270T461 1412T756 1460Q817 1460 876 1454T989 1438T1089 1415T1172 1388L1106 1187Q1035 1213 955
1232T785 1252Q678 1252 604 1220T485 1123T419 959T399 727Q399 585 421 483T492 314T620 216T814 184Q901 184 988 200T1151 241L1207 40Z" />
<glyph unicode="D" glyph-name="D" horiz-adv-x="1424" d="M571 1438Q689 1438 789 1426T973 1382Q1072 1345 1139 1284T1246 1138T1303 950T1320 723Q1320 601 1303 496T1244 307T1137 160T973 59Q889 27 789 14T571 0H181V1438H571ZM501 203Q666 203 770 227T933
310T1014 467T1036 716Q1036 866 1015 966T938 1125T789 1210T551 1235H461V203H501Z" />
<glyph unicode="E" glyph-name="E" horiz-adv-x="1191" d="M1042 1438V1233H461V907H872V702H461V205H1063V0H182V1438H1042Z" />
<glyph unicode="F" glyph-name="F" horiz-adv-x="1122" d="M1042 1438V1233H461V907H872V702H461V0H182V1438H1042Z" />
<glyph unicode="G" glyph-name="G" horiz-adv-x="1445" d="M1303 70Q1259 48 1203 31T1083 1T950 -17T812 -24Q637 -24 506 12T288 132T158 354T115 699Q115 914 160 1060T289 1295T492 1424T760 1463Q823 1463 887 1457T1015 1437T1136 1405T1246 1360L1169 1165Q1068
1213 970 1234T783 1255Q683 1255 611 1224T491 1128T422 964T399 729Q399 586 422 484T494 314T620 216T805 184Q859 184 915 192T1030 214V561H801V764H1303V70Z" />
<glyph unicode="H" glyph-name="H" horiz-adv-x="1558" d="M1376 1438V0H1097V701H461V0H182V1438H461V906H1097V1438H1376Z" />
<glyph unicode="I" glyph-name="I" horiz-adv-x="687" d="M483 1438V0H204V1438H483Z" />
<glyph unicode="J" glyph-name="J" horiz-adv-x="796" d="M625 1438V429Q625 300 615 202T571 28Q553 -12 526 -51T459 -127T364 -201T236 -273L124 -119Q177 -72 218 -33T289 57Q317 107 331 176T346 350V1438H625Z" />
<glyph unicode="K" glyph-name="K" horiz-adv-x="1310" d="M990 1460L1170 1310L684 734L1270 0H918L463 615V0H184V1438H463V836L990 1460Z" />
<glyph unicode="L" glyph-name="L" horiz-adv-x="1133" d="M475 1438V205H1036V0H196V1438H475Z" />
<glyph unicode="M" glyph-name="M" horiz-adv-x="1868" d="M1631 1438L1795 0H1521L1403 1070H1397L1088 -5H780L471 1070H465L347 0H73L237 1438H603L934 285L1265 1438H1631Z" />
<glyph unicode="N" glyph-name="N" horiz-adv-x="1574" d="M1396 1438V0H1087L458 1075V0H179V1438H488L1117 363V1438H1396Z" />
<glyph unicode="O" glyph-name="O" horiz-adv-x="1542" d="M771 1460Q951 1460 1075 1406T1276 1253T1388 1019T1422 718Q1422 554 1388 418T1277 183T1075 31T771 -24Q594 -24 470 29T269 179T156 413T120 718Q120 886 155 1023T268 1257T470 1407T771 1460ZM771
1255Q666 1255 596 1221T483 1120T422 952T404 718Q404 585 422 485T482 317T595 215T771 181Q875 181 945 214T1058 315T1119 483T1138 718Q1138 852 1120 953T1059 1121T946 1221T771 1255Z" />
<glyph unicode="P" glyph-name="P" horiz-adv-x="1295" d="M738 1438Q843 1438 925 1410T1065 1326T1152 1190T1182 1004Q1182 890 1145 805T1039 662T872 576T653 547Q597 547 548 550T460 558V0H181V1438H738ZM460 749Q492 744 523 742T585 739Q662 739 720
752T818 795T878 873T898 992Q898 1062 883 1110T835 1189T750 1232T624 1246H460V749Z" />
<glyph unicode="Q" glyph-name="Q" horiz-adv-x="1542" d="M771 1460Q951 1460 1075 1406T1276 1253T1388 1019T1422 718Q1422 588 1401 476T1334 272T1213 116T1033 14Q1079 -22 1116 -50T1190 -102T1268 -142T1364 -173Q1358 -200 1353 -223T1340 -267T1324
-311T1302 -359Q1248 -346 1208 -333T1131 -303T1059 -263T978 -207T875 -129T737 -23Q569 -18 452 37T261 189T154 420T120 718Q120 886 155 1023T268 1257T470 1407T771 1460ZM771 1255Q666 1255 596 1221T483 1120T422 952T404 718Q404 585 422 485T482 317T595
215T771 181Q875 181 945 214T1058 315T1119 483T1138 718Q1138 852 1120 953T1059 1121T946 1221T771 1255Z" />
<glyph unicode="R" glyph-name="R" horiz-adv-x="1323" d="M711 1438Q808 1438 890 1414T1032 1340T1125 1216T1159 1041Q1159 960 1132 893T1056 777T940 696T792 655L791 652Q831 629 869 588T942 497T1010 397T1070 303L1268 0H953Q918 58 875 132T788 281T706
418T643 518Q620 551 601 574T561 611T519 631T468 638H460V0H181V1438H711ZM604 830Q669 830 719 840T804 875T857 940T875 1038Q875 1096 857 1136T805 1200T720 1235T604 1246H460V830H604Z" />
<glyph unicode="S" glyph-name="S" horiz-adv-x="1271" d="M176 249Q259 217 353 196T559 174Q631 174 691 187T794 228T862 299T887 404Q887 470 861 509T786 573T670 615T519 653Q426 677 350 708T219 788T135 909T105 1087Q105 1158 128 1214T192 1311T284
1382T394 1429T512 1455T626 1463Q664 1463 717 1459T831 1445T956 1417T1081 1374L1010 1200Q930 1229 844 1247T662 1265Q602 1265 552 1256T466 1225T409 1170T389 1088Q389 1026 413 991T484 934T596 897T747 859Q839 835 916 803T1050 719T1139 591T1171 404Q1171
306 1140 236T1059 119T945 43T815 0T687 -19T578 -24Q532 -23 475 -18T354 -2T227 27T102 73L176 249Z" />
<glyph unicode="T" glyph-name="T" horiz-adv-x="1303" d="M1213 1438V1233H793V0H514V1233H90V1438H1213Z" />
<glyph unicode="U" glyph-name="U" horiz-adv-x="1532" d="M1366 1438V632Q1366 476 1334 354T1231 148T1045 21T765 -23Q597 -23 483 22T298 152T197 358T166 632V1438H450V598Q450 503 466 427T520 297T618 214T765 185Q854 185 915 214T1013 297T1066 427T1082
598V1438H1366Z" />
<glyph unicode="V" glyph-name="V" horiz-adv-x="1508" d="M1395 1438L884 -2H625L113 1438H400L755 309L1108 1438H1395Z" />
<glyph unicode="W" glyph-name="W" horiz-adv-x="1868" d="M1795 1437L1631 0H1265L934 1152L603 0H237L73 1437H347L465 358H467L777 1437H1091L1401 358H1403L1521 1437H1795Z" />
<glyph unicode="X" glyph-name="X" horiz-adv-x="1456" d="M357 1463L742 937L1090 1438H1384L893 731L1343 114L1084 -24L717 482L385 0H91L567 688L98 1325L357 1463Z" />
<glyph unicode="Y" glyph-name="Y" horiz-adv-x="1400" d="M1335 1438L840 648V0H560V648L65 1438H369L700 835L1031 1438H1335Z" />
<glyph unicode="Z" glyph-name="Z" horiz-adv-x="1291" d="M1137 1438V1271L479 205H1143V0H147V161L807 1233H170V1438H1137Z" />
<glyph unicode="[" glyph-name="bracketleft" horiz-adv-x="821" d="M641 1570V1378H463V60H641V-132H200V1570H641Z" />
<glyph unicode="\" glyph-name="backslash" horiz-adv-x="1219" d="M354 1438L1064 0H865L155 1438H354Z" />
<glyph unicode="]" glyph-name="bracketright" horiz-adv-x="821" d="M621 1570V-132H180V60H358V1378H180V1570H621Z" />
<glyph unicode="^" glyph-name="asciicircum" horiz-adv-x="839" d="M502 1114L813 427H636L419 916L202 427H26L335 1114H502Z" />
<glyph unicode="_" glyph-name="underscore" horiz-adv-x="1164" d="M1014 200V0H150V200H1014Z" />
<glyph unicode="`" glyph-name="grave" horiz-adv-x="575" d="M204 1181Q159 1252 125 1303T69 1394T35 1468T24 1541Q24 1573 35 1596T65 1636T109 1659T162 1667Q202 1667 244 1653T323 1612L265 1443L360 1181H204Z" />
<glyph unicode="a" glyph-name="a" horiz-adv-x="1141" d="M187 989Q224 1004 271 1017T372 1040T483 1057T600 1063Q683 1063 755 1050T876 1007Q924 977 951 926T978 796V390Q978 320 979 266T983 159Q985 140 987 125T991 95T997 64T1006 29Q944 15 883 2T758
-23Q747 5 741 34T729 102H714Q679 66 644 42T571 3T492 -18T406 -24Q337 -24 278 -8T176 43T108 129T83 253Q83 313 95 360T131 444T186 509T257 558Q335 600 431 615T627 631H713V761Q713 798 702 819T671 852T625 866T569 870Q488 870 406 850T248 799L187 989ZM713
484H693Q622 483 558 474T444 441T366 381T336 286Q336 223 372 189T475 155Q506 155 539 163T604 187T664 226T713 279V484Z" />
<glyph unicode="b" glyph-name="b" horiz-adv-x="1235" d="M448 1440V906H453Q482 943 515 972T586 1023T670 1055T769 1066Q874 1066 946 1025T1062 915T1126 755T1146 563Q1146 427 1115 319T1014 136T831 20T551 -21Q449 -21 359 -12T177 11V1440H448ZM448
198Q489 189 528 184T603 179Q661 179 710 194T796 244T852 337T872 482Q872 566 865 636T837 758T777 837T674 866Q634 866 603 852T544 812T494 751T448 674V198Z" />
<glyph unicode="c" glyph-name="c" horiz-adv-x="1063" d="M981 39Q940 24 891 12T792 -8T692 -20T602 -24Q457 -24 357 10T196 110T107 275T80 500Q80 633 114 738T218 915T390 1025T631 1063Q711 1063 790 1051T941 1017L874 819Q814 839 758 851T643 863Q566
863 512 838T422 767T371 658T354 520Q354 346 414 261T615 176Q701 176 773 194T918 237L981 39Z" />
<glyph unicode="d" glyph-name="d" horiz-adv-x="1225" d="M1058 1440V339V296Q1058 218 1063 156T1085 29Q1053 20 1023 13T964 -1T904 -13T841 -24Q833 -3 828 16T818 57T810 105T805 166H794Q678 -24 466 -24Q361 -24 289 17T173 127T109 288T89 482Q89 626
127 734T236 916T403 1026T619 1063Q662 1063 702 1059T784 1049V1440H1058ZM787 843Q707 863 638 863Q579 863 529 847T441 795T384 702T363 563Q363 478 369 407T397 285T457 205T561 176Q608 176 643 195T708 248Q730 272 749 302T787 368V843Z" />
<glyph unicode="e" glyph-name="e" horiz-adv-x="1202" d="M1029 47Q988 30 940 17T838 -5T731 -19T624 -24Q361 -24 227 102T92 490Q92 606 119 710T206 892T365 1017T607 1063Q857 1063 980 931T1103 526V447H364Q366 379 380 327T426 240T512 186T645 167Q715
167 796 184T965 235L1029 47ZM829 625Q822 872 607 872Q496 872 439 808T368 625H829Z" />
<glyph unicode="f" glyph-name="f" horiz-adv-x="1016" d="M277 1078Q277 1183 294 1259T353 1383T464 1455T638 1479Q719 1479 814 1466T1016 1431L973 1241Q883 1258 818 1268T702 1279Q653 1279 623 1271T577 1239T556 1175T551 1069V1040H885V840H551V200H885V0H103V200H277V840H103V1040H277V1078Z"
/>
<glyph unicode="g" glyph-name="g" horiz-adv-x="1232" d="M837 1041Q885 1041 919 1042T984 1047T1049 1059T1131 1080Q1146 1034 1162 985T1192 886Q1159 874 1132 866T1079 853T1029 845T976 841Q995 798 1002 757T1009 669Q1009 573 980 502T897 380Q864 350
822 330T734 298T641 280T549 275Q468 275 401 287Q384 239 384 211Q384 192 391 179T416 155Q442 141 478 137T559 133Q572 133 592 133T635 133T677 134T713 134Q793 134 858 120T969 73T1041 -12T1067 -141Q1067 -228 1025 -287T912 -384T752 -437T566 -454Q497
-454 429 -447T296 -427Q246 -417 202 -405T119 -378Q132 -347 157 -299T214 -196Q316 -232 408 -249T576 -266Q623 -266 664 -260T735 -240T782 -203T800 -143Q800 -115 788 -99T755 -73T706 -62T644 -59Q630 -59 615 -59T585 -60H553Q507 -60 462 -59T374 -50T296
-30T234 7T192 66T176 152Q176 201 195 251T243 352Q216 370 190 399T143 467T110 557T97 669Q97 763 126 835T210 959Q242 989 282 1009T366 1041T457 1058T549 1063Q606 1063 656 1057T744 1041H837ZM553 878Q465 878 414 825T363 669Q363 563 414 512T553 460Q641
460 692 513T743 669Q743 773 691 825T553 878Z" />
<glyph unicode="h" glyph-name="h" horiz-adv-x="1259" d="M447 1440V862H454Q485 908 518 945T591 1008T681 1049T792 1063Q911 1063 983 1016T1091 871Q1110 819 1118 754T1127 608V0H853V687Q853 768 815 815T706 863Q666 863 628 843T556 793T494 727T447
658V0H172V1440H447Z" />
<glyph unicode="i" glyph-name="i" horiz-adv-x="637" d="M319 1547Q353 1547 383 1534T436 1499T472 1446T485 1381Q485 1346 472 1316T437 1263T384 1227T319 1214Q284 1214 254 1227T201 1263T165 1316T152 1381Q152 1415 165 1445T201 1498T254 1534T319 1547ZM455
1040V0H181V1040H455Z" />
<glyph unicode="j" glyph-name="j" horiz-adv-x="760" d="M419 1547Q453 1547 483 1534T536 1499T572 1446T585 1381Q585 1346 572 1316T537 1263T484 1227T419 1214Q384 1214 354 1227T301 1263T265 1316T252 1381Q252 1415 265 1445T301 1498T354 1534T419 1547ZM556
1040V144Q556 73 551 16T532 -92T497 -186T440 -274Q415 -306 379 -346T287 -442L109 -304L149 -253Q180 -213 204 -176T246 -96T272 2T282 131V1040H556Z" />
<glyph unicode="k" glyph-name="k" horiz-adv-x="1138" d="M441 1440V679L858 1063L1010 898L640 558L1118 0H784L441 415V0H167V1440H441Z" />
<glyph unicode="l" glyph-name="l" horiz-adv-x="513" d="M384 408Q384 325 385 269T391 171Q393 149 395 133T399 101T404 70T413 35Q347 15 281 1T146 -24Q131 21 121 71T110 182V1440H384V408Z" />
<glyph unicode="m" glyph-name="m" horiz-adv-x="1894" d="M1109 817Q1142 881 1177 927T1252 1004T1340 1048T1448 1063Q1573 1063 1644 1005T1746 834Q1771 740 1771 608V0H1497V686Q1497 725 1491 754T1472 805Q1455 836 1427 849T1360 863Q1323 863 1289 844T1225
794T1168 727T1121 655Q1122 644 1122 633T1122 610V0H848V686Q848 725 842 754T823 805Q806 836 778 849T711 863Q675 863 642 844T579 794T523 727T476 655V0H202V641Q202 699 201 749T197 844T188 929T172 1007Q237 1024 301 1037T432 1063Q439 1042 445 1022T455
978T462 926T468 862H481Q513 910 545 947T615 1010T697 1049T799 1063Q928 1063 1000 1000T1101 817H1109Z" />
<glyph unicode="n" glyph-name="n" horiz-adv-x="1247" d="M448 862Q481 912 516 949T592 1012T681 1050T789 1063Q855 1063 906 1049T994 1007T1056 939T1097 847Q1111 796 1117 737T1124 608V0H850V687Q850 773 811 818T703 863Q665 863 629 845T558 798T495
731T443 656V0H169V641Q169 722 168 776T162 873Q160 894 158 910T154 941T148 971T139 1007Q204 1024 268 1037T399 1063Q406 1042 412 1022T422 978T429 926T435 862H448Z" />
<glyph unicode="o" glyph-name="o" horiz-adv-x="1213" d="M609 1063Q740 1063 836 1022T994 909T1087 737T1118 520Q1118 403 1088 303T995 131T836 17T609 -24Q478 -24 382 17T224 130T131 303T100 520Q100 637 130 736T223 908T382 1022T609 1063ZM609 867Q537
867 491 840T419 766T384 656T374 520Q374 447 383 384T419 273T491 199T609 172Q681 172 727 199T799 273T834 383T844 520Q844 592 835 655T799 766T727 840T609 867Z" />
<glyph unicode="p" glyph-name="p" horiz-adv-x="1225" d="M431 873Q547 1063 759 1063Q864 1063 936 1022T1052 912T1116 751T1136 557Q1136 413 1098 305T989 123T822 13T606 -24Q563 -24 523 -20T441 -10V-401H168V700Q168 747 168 788T164 866T156 938T140
1010Q204 1028 261 1040T384 1063Q391 1042 397 1023T407 982T415 934T420 873H431ZM438 196Q518 176 587 176Q646 176 696 192T783 244T841 337T862 476Q862 561 855 632T827 754T767 834T664 863Q617 863 582 844T517 791Q495 767 476 737T438 671V196Z" />
<glyph unicode="q" glyph-name="q" horiz-adv-x="1246" d="M793 136Q735 62 660 19T477 -24Q372 -24 300 17T184 127T120 287T100 479Q100 615 131 723T232 906T415 1022T695 1063Q797 1063 887 1054T1069 1031V-398H798V136H793ZM798 844Q757 853 718 858T643
863Q584 863 535 848T450 798T394 705T374 560Q374 476 380 406T408 284T468 205T572 176Q612 176 643 190T702 230T752 291T798 368V844Z" />
<glyph unicode="r" glyph-name="r" horiz-adv-x="950" d="M455 862Q491 915 522 949Q552 982 585 1003T651 1038T719 1057T786 1063Q814 1063 840 1060T890 1051Q887 1023 882 992T871 928T858 865T842 807Q785 818 743 825T668 833Q637 833 612 825T561 795T510
740T450 653V0H176V641Q176 699 175 749T171 844T162 929T146 1007Q211 1024 275 1038T406 1063Q413 1042 419 1022T429 978T436 926T442 862H455Z" />
<glyph unicode="s" glyph-name="s" horiz-adv-x="1055" d="M536 1062Q632 1062 724 1045T885 1000Q871 960 853 919T815 841Q764 858 697 870T563 882Q525 882 491 877T431 859T390 828T375 780Q375 741 394 719T446 682T522 659T612 639Q685 622 748 596T858
530T930 431T955 290Q953 202 914 142T810 45T663 -8T494 -24Q437 -24 380 -18T271 -1T174 26T95 61Q112 100 133 142T174 220Q202 208 238 197T315 177T398 163T482 157Q524 157 562 164T628 186T673 227T690 290Q690 332 671 357T618 397T542 421T453 439Q383
453 320 479T210 546T136 645T110 783Q111 861 148 914T244 1000T379 1047T536 1062Z" />
<glyph unicode="t" glyph-name="t" horiz-adv-x="961" d="M531 1278V1040H881V840H531V341Q531 292 535 260T552 210T585 184T639 176Q671 176 713 183T814 203Q820 185 827 161T842 112T857 63T870 21Q842 11 805 3T726 -12T643 -21T564 -24Q529 -24 495 -21T431
-11T374 9T329 40Q285 83 271 158T257 351V840H107V1040H257V1278H531Z" />
<glyph unicode="u" glyph-name="u" horiz-adv-x="1258" d="M1100 1040V398Q1100 317 1101 263T1107 166Q1109 145 1111 129T1115 98T1121 67T1130 32Q1065 15 1001 2T870 -24Q862 -3 857 17T847 61T840 113T834 177H821Q788 127 753 90T677 27T588 -11T480 -24Q355
-24 284 26T180 170Q161 224 153 289T145 431V1040H419V352Q419 266 458 221T566 176Q604 176 640 194T711 241T774 307T826 383V1040H1100Z" />
<glyph unicode="v" glyph-name="v" horiz-adv-x="1122" d="M1072 1040L726 -10H396L50 1040H336L561 187L786 1040H1072Z" />
<glyph unicode="w" glyph-name="w" horiz-adv-x="1577" d="M1086 194Q1114 261 1140 321T1187 439T1220 559T1232 692Q1232 728 1228 761T1216 830T1195 908T1164 1006Q1199 1017 1231 1026T1294 1043T1356 1058T1422 1072Q1445 1024 1460 989T1485 921Q1496 887
1501 853T1507 780Q1507 714 1493 646T1455 507Q1431 437 1399 368T1333 232T1263 103T1197 -14H877L783 350L631 -14H315L45 1041H312L524 194L713 635L607 1041H879L1086 194Z" />
<glyph unicode="x" glyph-name="x" horiz-adv-x="1259" d="M302 1063L625 690L901 1041H1179L769 524L1104 129L905 -24L608 319L358 0H80L465 486L103 910L302 1063Z" />
<glyph unicode="y" glyph-name="y" horiz-adv-x="1286" d="M1113 1040V8Q1113 -109 1076 -190T970 -323T806 -397T595 -420Q506 -420 415 -405T245 -358Q266 -308 288 -260T333 -164Q405 -187 479 -203T622 -220Q642 -220 665 -219T713 -211T760 -193T800 -159T829
-105T841 -26V177H832Q799 127 764 90T687 27T597 -11T488 -24Q390 -24 326 7T223 96Q185 156 169 240T153 431V1040H427V352Q427 266 467 221T577 176Q615 176 651 194T722 241T785 307T837 383V1040H1113Z" />
<glyph unicode="z" glyph-name="z" horiz-adv-x="1091" d="M402 840Q355 840 319 841T250 847T182 861T103 886Q117 935 133 984T164 1080Q212 1067 246 1059T311 1047T376 1042T458 1041H966V890L471 200H975V0H129V151L623 840H402Z" />
<glyph unicode="{" glyph-name="braceleft" horiz-adv-x="795" d="M633 1564V1391Q570 1391 534 1381T478 1347Q458 1324 452 1291T446 1215V920Q446 853 425 808T370 722Q405 680 425 635T446 524V229Q446 186 452 153T478 97Q498 74 534 64T633 53V-120H533Q436
-120 372 -100T270 -44Q231 -9 215 37T199 138V524Q199 584 172 630T102 722Q147 770 173 815T199 920V1306Q199 1360 215 1406T270 1488Q308 1523 372 1543T533 1564H633Z" />
<glyph unicode="|" glyph-name="bar" horiz-adv-x="695" d="M465 1571V-131H230V1571H465Z" />
<glyph unicode="}" glyph-name="braceright" horiz-adv-x="795" d="M262 1564Q359 1564 423 1544T525 1488Q564 1453 580 1407T596 1306V920Q596 860 623 814T693 722Q648 674 622 629T596 524V138Q596 84 580 38T525 -44Q487 -79 423 -99T262 -120H162V53Q225
53 261 63T317 97Q337 120 343 153T349 229V524Q349 591 370 636T425 722Q390 764 370 809T349 920V1215Q349 1258 343 1291T317 1347Q297 1370 261 1380T162 1391V1564H262Z" />
<glyph unicode="~" glyph-name="asciitilde" horiz-adv-x="1145" d="M121 568Q182 640 248 669T375 699Q448 699 507 685T617 655T717 625T816 611Q858 611 899 629T988 696L1078 560Q1022 487 960 458T837 429H824Q746 429 683 442T568 472T470 503T383 517Q341
517 300 499T211 432L121 568Z" />
<glyph unicode="&#xa0;" glyph-name="uni00A0" horiz-adv-x="570" />
<glyph unicode="&#xa1;" glyph-name="exclamdown" horiz-adv-x="641" d="M290 1062Q319 1062 344 1051T389 1021T420 976T431 921Q431 890 420 864T389 820T344 791T290 780Q258 780 232 791T188 821T159 866T149 921Q149 950 160 975T190 1020T235 1051T290 1062ZM511
-309Q475 -363 421 -390T310 -418Q275 -418 243 -407T185 -372T145 -314T130 -231L171 620L390 654L430 -142L511 -309Z" />
<glyph unicode="&#xa2;" glyph-name="cent" horiz-adv-x="1106" d="M903 1340L842 1079Q879 1073 914 1065T984 1046L919 859Q887 870 857 878T798 891L628 168Q680 168 725 173T811 188T890 210T968 235L1026 43Q977 25 922 12T812 -9T708 -20T621 -24Q610 -24
601 -24T583 -23L537 -220H315L369 11Q288 37 233 82T142 191T92 336T76 516Q76 665 116 775T236 959Q373 1086 624 1095L681 1340H903ZM576 893Q537 883 499 861T430 798T382 694T363 538Q363 347 427 259L576 893Z" />
<glyph unicode="&#xa3;" glyph-name="sterling" horiz-adv-x="1140" d="M294 1064Q294 1161 309 1234T362 1359Q391 1397 432 1417T517 1447T605 1458T682 1460Q759 1460 847 1449T1038 1417L1005 1215Q920 1233 851 1244T730 1256Q682 1256 649 1245T599 1208Q580
1180 577 1138T573 1038V926H916V721H573V205H1124V0H294V721H120V926H294V1064Z" />
<glyph unicode="&#xa5;" glyph-name="yen" horiz-adv-x="1430" d="M1350 1438L941 786H1118V616H855V472H1118V302H855V0H575V302H312V472H575V616H312V786H489L80 1438H384L715 835L1046 1438H1350Z" />
<glyph unicode="&#xa6;" glyph-name="brokenbar" horiz-adv-x="695" d="M465 1571V901H230V1571H465ZM465 539V-131H230V539H465Z" />
<glyph unicode="&#xa7;" glyph-name="section" horiz-adv-x="1050" d="M534 1482Q635 1482 722 1467T885 1419Q871 1379 855 1341T819 1265Q780 1275 748 1282T685 1294T624 1301T558 1304Q523 1304 490 1300T432 1284T391 1252T375 1202Q375 1163 394 1140T446
1103T522 1079T612 1058Q685 1041 748 1015T858 949T930 850T955 709Q953 641 933 593T879 509Q916 470 936 416T955 290Q954 224 934 175T880 91T802 34T707 -1T604 -19T499 -24Q384 -24 282 -4T95 61Q112 100 131 137T171 211Q210 197 246 187T319 169T396 158T487
154Q534 154 571 160T635 181T676 222T690 290Q690 332 671 357T618 397T542 421T453 439Q383 453 320 479T209 546T134 645T110 783Q112 843 136 889T203 970Q160 1009 135 1062T110 1187V1202Q113 1273 147 1326T238 1413T371 1465T534 1482ZM429 863Q409 853
392 834T375 783Q375 744 394 721T446 684T522 660T612 639Q626 636 639 633T665 625Q690 656 690 709Q690 752 670 777T615 817Q595 826 567 833T511 846T461 856T429 863Z" />
<glyph unicode="&#xa8;" glyph-name="dieresis" horiz-adv-x="986" d="M254 1456Q282 1456 307 1445T351 1415T381 1371T392 1318Q392 1289 381 1264T352 1219T308 1189T254 1178Q225 1178 199 1189T154 1219T123 1263T112 1318Q112 1346 123 1371T153 1415T199
1445T254 1456ZM736 1456Q764 1456 789 1445T833 1415T863 1371T874 1318Q874 1289 863 1264T834 1219T790 1189T736 1178Q707 1178 681 1189T636 1219T605 1263T594 1318Q594 1346 605 1371T635 1415T681 1445T736 1456Z" />
<glyph unicode="&#xa9;" glyph-name="copyright" horiz-adv-x="1649" d="M823 1233Q974 1233 1106 1176T1338 1020T1494 789T1551 505Q1551 405 1525 312T1452 139T1338 -8T1191 -122T1017 -196T823 -222Q723 -222 630 -196T457 -123T310 -9T196 138T122 312T96
505Q96 606 122 699T195 872T309 1019T456 1133T630 1207T823 1233ZM824 1069Q707 1069 605 1025T426 904T305 725T260 505Q260 389 304 287T425 108T604 -13T824 -58Q940 -58 1042 -14T1221 107T1342 286T1387 505Q1387 622 1343 724T1222 903T1043 1024T824 1069ZM1097
185Q1069 174 1036 166T968 152T899 143T835 140Q733 140 663 163T550 232T488 343T469 496Q469 689 568 784T856 880Q911 880 965 871T1069 848L1027 724Q982 737 944 745T863 754Q839 754 820 751T780 739Q719 718 690 660T660 512Q660 412 684 356T761 282Q781
274 800 270T843 266Q904 266 955 280T1058 311L1097 185Z" />
<glyph unicode="&#xab;" glyph-name="guillemotleft" horiz-adv-x="1360" d="M613 959L713 860L373 518L714 174L613 75L170 518L613 959ZM1089 959L1189 860L849 518L1190 174L1089 75L646 518L1089 959Z" />
<glyph unicode="&#xac;" glyph-name="logicalnot" horiz-adv-x="1286" d="M1101 655V154H901V465H185V655H1101Z" />
<glyph unicode="&#xad;" glyph-name="uni00AD" horiz-adv-x="1224" d="M1020 657V467H204V657H1020Z" />
<glyph unicode="&#xae;" glyph-name="registered" horiz-adv-x="1649" d="M823 1233Q974 1233 1106 1176T1338 1020T1494 789T1551 505Q1551 405 1525 312T1452 139T1338 -8T1191 -122T1017 -196T823 -222Q723 -222 630 -196T457 -123T310 -9T196 138T122 312T96
505Q96 606 122 699T195 872T309 1019T456 1133T630 1207T823 1233ZM824 1069Q707 1069 605 1025T426 904T305 725T260 505Q260 389 304 287T425 108T604 -13T824 -58Q940 -58 1042 -14T1221 107T1342 286T1387 505Q1387 622 1343 724T1222 903T1043 1024T824 1069ZM875
872Q927 872 972 861T1052 825T1105 764T1124 676Q1124 630 1109 595T1066 534T1003 493T924 474Q940 463 956 450T992 414Q1002 402 1013 387T1046 344T1100 271T1186 155H977Q909 254 872 314T812 406T775 448T741 460H740V155H552V872H875ZM808 578Q873 578
904 596T936 666Q936 718 904 735T808 753H740V578H808Z" />
<glyph unicode="&#xaf;" glyph-name="overscore" horiz-adv-x="623" d="M614 1408V1237H9V1408H614Z" />
<glyph unicode="&#xb0;" glyph-name="degree" horiz-adv-x="799" d="M399 1518Q462 1518 517 1495T612 1432T676 1336T699 1218Q699 1155 676 1101T613 1006T517 942T399 919Q336 919 282 942T187 1005T123 1100T100 1218Q100 1281 123 1336T186 1431T281 1495T399
1518ZM399 1368Q367 1368 340 1357T293 1325T261 1278T249 1218Q249 1186 260 1159T292 1112T340 1080T399 1068Q431 1068 458 1079T506 1111T537 1159T549 1218Q549 1250 538 1277T506 1325T459 1356T399 1368Z" />
<glyph unicode="&#xb1;" glyph-name="plusminus" horiz-adv-x="1218" d="M704 1021V658H1067V468H704V105H514V468H151V658H514V1021H704ZM1067 -84V-274H151V-84H1067Z" />
<glyph unicode="&#xb4;" glyph-name="acute" horiz-adv-x="575" d="M247 1612Q283 1638 325 1652T408 1667Q436 1667 461 1660T505 1636T535 1597T546 1541Q546 1503 535 1469T502 1394T445 1303T366 1181H210L305 1443L247 1612Z" />
<glyph unicode="&#xb6;" glyph-name="paragraph" horiz-adv-x="600" />
<glyph unicode="&#xb7;" glyph-name="middot" horiz-adv-x="582" d="M291 733Q323 733 349 722T393 692T422 647T432 592Q432 563 421 538T391 493T346 462T291 451Q262 451 237 462T192 492T161 537T150 592Q150 623 161 649T192 693T237 722T291 733Z" />
<glyph unicode="&#xb8;" glyph-name="cedilla" horiz-adv-x="756" d="M421 0L331 -113Q411 -139 444 -174T478 -262Q478 -304 461 -335T415 -386T344 -417T255 -427Q210 -427 164 -418T71 -394L125 -293Q165 -313 198 -324T258 -335Q290 -335 307 -319T324 -269Q324
-232 289 -210T183 -164L283 0H421Z" />
<glyph unicode="&#xbb;" glyph-name="guillemotright" horiz-adv-x="1360" d="M271 959L714 518L271 75L170 174L511 518L171 860L271 959ZM747 959L1190 518L747 75L646 174L987 518L647 860L747 959Z" />
<glyph unicode="&#xbf;" glyph-name="questiondown" horiz-adv-x="1061" d="M665 1062Q694 1062 719 1051T764 1021T795 976T806 921Q806 890 795 864T764 820T719 791T665 780Q633 780 607 791T563 821T534 866T524 921Q524 950 535 975T565 1020T610 1051T665
1062ZM844 293Q722 240 635 206T491 137T409 60T382 -49Q382 -97 397 -128T439 -178T503 -203T586 -211Q661 -211 748 -190T916 -134Q927 -185 935 -237T951 -344Q857 -381 759 -400T567 -419Q460 -419 376 -398T232 -333T142 -221T110 -56Q110 30 138 92T221 204T357
294T545 381V620L784 660L844 293Z" />
<glyph unicode="&#xc0;" glyph-name="Agrave" horiz-adv-x="1454" d="M649 1578Q604 1649 570 1700T514 1791T480 1865T469 1938Q469 1970 480 1993T510 2033T554 2056T607 2064Q647 2064 689 2050T768 2009L710 1840L805 1578H649ZM865 1438L1408 0H1126L962
442H488L324 0H42L585 1438H865ZM725 1141L562 643H888L725 1141Z" />
<glyph unicode="&#xc1;" glyph-name="Aacute" horiz-adv-x="1454" d="M693 2009Q729 2035 771 2049T854 2064Q882 2064 907 2057T951 2033T981 1994T992 1938Q992 1900 981 1866T948 1791T891 1700T812 1578H656L751 1840L693 2009ZM865 1438L1408 0H1126L962
442H488L324 0H42L585 1438H865ZM725 1141L562 643H888L725 1141Z" />
<glyph unicode="&#xc2;" glyph-name="Acircumflex" horiz-adv-x="1454" d="M727 1919L1058 1665L983 1578L727 1689L471 1578L396 1665L727 1919ZM865 1438L1408 0H1126L962 442H488L324 0H42L585 1438H865ZM725 1141L562 643H888L725 1141Z" />
<glyph unicode="&#xc3;" glyph-name="Atilde" horiz-adv-x="1454" d="M1056 1805Q1052 1765 1036 1725T995 1653T935 1600T858 1580Q823 1580 790 1591T724 1615T661 1639T600 1650Q563 1650 545 1629T517 1570H398Q402 1610 418 1650T459 1722T519 1774T596 1795Q631
1795 664 1784T730 1760T793 1736T854 1725Q891 1725 909 1746T937 1805H1056ZM865 1438L1408 0H1126L962 442H488L324 0H42L585 1438H865ZM725 1141L562 643H888L725 1141Z" />
<glyph unicode="&#xc4;" glyph-name="Adieresis" horiz-adv-x="1454" d="M488 1853Q516 1853 541 1842T585 1812T615 1768T626 1715Q626 1686 615 1661T586 1616T542 1586T488 1575Q459 1575 433 1586T388 1616T357 1660T346 1715Q346 1743 357 1768T387 1812T433
1842T488 1853ZM970 1853Q998 1853 1023 1842T1067 1812T1097 1768T1108 1715Q1108 1686 1097 1661T1068 1616T1024 1586T970 1575Q941 1575 915 1586T870 1616T839 1660T828 1715Q828 1743 839 1768T869 1812T915 1842T970 1853ZM865 1438L1408 0H1126L962 442H488L324
0H42L585 1438H865ZM725 1141L562 643H888L725 1141Z" />
<glyph unicode="&#xc5;" glyph-name="Aring" horiz-adv-x="1454" d="M727 1957Q768 1957 803 1942T865 1901T907 1839T922 1762Q922 1721 907 1686T866 1624T804 1582T727 1567Q686 1567 651 1582T589 1623T547 1685T532 1762Q532 1803 547 1838T588 1900T650
1942T727 1957ZM727 1845Q692 1845 668 1821T644 1762Q644 1727 668 1703T727 1679Q762 1679 786 1703T810 1762Q810 1797 786 1821T727 1845ZM865 1438L1408 0H1126L962 442H488L324 0H42L585 1438H865ZM725 1141L562 643H888L725 1141Z" />
<glyph unicode="&#xc6;" glyph-name="AE" horiz-adv-x="1879" d="M1730 1438V1230H1149V906H1560V698H1149V208H1751V0H870V442H550L318 0H0L794 1438H1730ZM870 1050L655 642H870V1050Z" />
<glyph unicode="&#xc7;" glyph-name="Ccedilla" horiz-adv-x="1289" d="M781 -113Q861 -139 894 -174T928 -262Q928 -304 911 -335T865 -386T794 -417T705 -427Q660 -427 614 -418T521 -394L575 -293Q615 -313 648 -324T708 -335Q740 -335 757 -319T774 -269Q774
-232 739 -210T633 -164L720 -22Q554 -13 439 35T252 172T148 392T115 697Q115 889 150 1032T263 1270T461 1412T756 1460Q817 1460 876 1454T989 1438T1089 1415T1172 1388L1106 1187Q1035 1213 955 1232T785 1252Q678 1252 604 1220T485 1123T419 959T399 727Q399
585 421 483T492 314T620 216T814 184Q901 184 988 200T1151 241L1207 40Q1130 14 1040 -2T853 -23L781 -113Z" />
<glyph unicode="&#xc8;" glyph-name="Egrave" horiz-adv-x="1191" d="M540 1571Q495 1642 461 1693T405 1784T371 1858T360 1931Q360 1963 371 1986T401 2026T445 2049T498 2057Q538 2057 580 2043T659 2002L601 1833L696 1571H540ZM1042 1438V1233H461V907H872V702H461V205H1063V0H182V1438H1042Z"
/>
<glyph unicode="&#xc9;" glyph-name="Eacute" horiz-adv-x="1191" d="M584 2002Q620 2028 662 2042T745 2057Q773 2057 798 2050T842 2026T872 1987T883 1931Q883 1893 872 1859T839 1784T782 1693T703 1571H547L642 1833L584 2002ZM1042 1438V1233H461V907H872V702H461V205H1063V0H182V1438H1042Z"
/>
<glyph unicode="&#xca;" glyph-name="Ecircumflex" horiz-adv-x="1191" d="M618 1912L949 1658L874 1571L618 1682L362 1571L287 1658L618 1912ZM1042 1438V1233H461V907H872V702H461V205H1063V0H182V1438H1042Z" />
<glyph unicode="&#xcb;" glyph-name="Edieresis" horiz-adv-x="1191" d="M379 1846Q407 1846 432 1835T476 1805T506 1761T517 1708Q517 1679 506 1654T477 1609T433 1579T379 1568Q350 1568 324 1579T279 1609T248 1653T237 1708Q237 1736 248 1761T278 1805T324
1835T379 1846ZM861 1846Q889 1846 914 1835T958 1805T988 1761T999 1708Q999 1679 988 1654T959 1609T915 1579T861 1568Q832 1568 806 1579T761 1609T730 1653T719 1708Q719 1736 730 1761T760 1805T806 1835T861 1846ZM1042 1438V1233H461V907H872V702H461V205H1063V0H182V1438H1042Z"
/>
<glyph unicode="&#xcc;" glyph-name="Igrave" horiz-adv-x="687" d="M266 1578Q221 1649 187 1700T131 1791T97 1865T86 1938Q86 1970 97 1993T127 2033T171 2056T224 2064Q264 2064 306 2050T385 2009L327 1840L422 1578H266ZM483 1438V0H204V1438H483Z" />
<glyph unicode="&#xcd;" glyph-name="Iacute" horiz-adv-x="687" d="M310 2009Q346 2035 388 2049T471 2064Q499 2064 524 2057T568 2033T598 1994T609 1938Q609 1900 598 1866T565 1791T508 1700T429 1578H273L368 1840L310 2009ZM483 1438V0H204V1438H483Z" />
<glyph unicode="&#xce;" glyph-name="Icircumflex" horiz-adv-x="687" d="M344 1919L675 1665L600 1578L344 1689L88 1578L13 1665L344 1919ZM483 1438V0H204V1438H483Z" />
<glyph unicode="&#xcf;" glyph-name="Idieresis" horiz-adv-x="687" d="M105 1853Q133 1853 158 1842T202 1812T232 1768T243 1715Q243 1686 232 1661T203 1616T159 1586T105 1575Q76 1575 50 1586T5 1616T-26 1660T-37 1715Q-37 1743 -26 1768T4 1812T50 1842T105
1853ZM587 1853Q615 1853 640 1842T684 1812T714 1768T725 1715Q725 1686 714 1661T685 1616T641 1586T587 1575Q558 1575 532 1586T487 1616T456 1660T445 1715Q445 1743 456 1768T486 1812T532 1842T587 1853ZM483 1438V0H204V1438H483Z" />
<glyph unicode="&#xd0;" glyph-name="Eth" horiz-adv-x="1424" d="M571 1438Q689 1438 789 1426T973 1382Q1072 1345 1139 1284T1246 1138T1303 950T1320 723Q1320 601 1303 496T1244 307T1137 160T973 59Q889 27 789 14T571 0H181V633H-60V823H181V1438H571ZM501
203Q666 203 770 227T933 310T1014 467T1036 716Q1036 866 1015 966T938 1125T789 1210T551 1235H461V823H756V633H461V203H501Z" />
<glyph unicode="&#xd1;" glyph-name="Ntilde" horiz-adv-x="1574" d="M1116 1805Q1112 1765 1096 1725T1055 1653T995 1600T918 1580Q883 1580 850 1591T784 1615T721 1639T660 1650Q623 1650 605 1629T577 1570H458Q462 1610 478 1650T519 1722T579 1774T656
1795Q691 1795 724 1784T790 1760T853 1736T914 1725Q951 1725 969 1746T997 1805H1116ZM1396 1438V0H1087L458 1075V0H179V1438H488L1117 363V1438H1396Z" />
<glyph unicode="&#xd2;" glyph-name="Ograve" horiz-adv-x="1542" d="M693 1578Q648 1649 614 1700T558 1791T524 1865T513 1938Q513 1970 524 1993T554 2033T598 2056T651 2064Q691 2064 733 2050T812 2009L754 1840L849 1578H693ZM771 1460Q951 1460 1075 1406T1276
1253T1388 1019T1422 718Q1422 554 1388 418T1277 183T1075 31T771 -24Q594 -24 470 29T269 179T156 413T120 718Q120 886 155 1023T268 1257T470 1407T771 1460ZM771 1255Q666 1255 596 1221T483 1120T422 952T404 718Q404 585 422 485T482 317T595 215T771 181Q875
181 945 214T1058 315T1119 483T1138 718Q1138 852 1120 953T1059 1121T946 1221T771 1255Z" />
<glyph unicode="&#xd3;" glyph-name="Oacute" horiz-adv-x="1542" d="M737 2009Q773 2035 815 2049T898 2064Q926 2064 951 2057T995 2033T1025 1994T1036 1938Q1036 1900 1025 1866T992 1791T935 1700T856 1578H700L795 1840L737 2009ZM771 1460Q951 1460 1075
1406T1276 1253T1388 1019T1422 718Q1422 554 1388 418T1277 183T1075 31T771 -24Q594 -24 470 29T269 179T156 413T120 718Q120 886 155 1023T268 1257T470 1407T771 1460ZM771 1255Q666 1255 596 1221T483 1120T422 952T404 718Q404 585 422 485T482 317T595
215T771 181Q875 181 945 214T1058 315T1119 483T1138 718Q1138 852 1120 953T1059 1121T946 1221T771 1255Z" />
<glyph unicode="&#xd4;" glyph-name="Ocircumflex" horiz-adv-x="1542" d="M771 1919L1102 1665L1027 1578L771 1689L515 1578L440 1665L771 1919ZM771 1460Q951 1460 1075 1406T1276 1253T1388 1019T1422 718Q1422 554 1388 418T1277 183T1075 31T771 -24Q594
-24 470 29T269 179T156 413T120 718Q120 886 155 1023T268 1257T470 1407T771 1460ZM771 1255Q666 1255 596 1221T483 1120T422 952T404 718Q404 585 422 485T482 317T595 215T771 181Q875 181 945 214T1058 315T1119 483T1138 718Q1138 852 1120 953T1059 1121T946
1221T771 1255Z" />
<glyph unicode="&#xd5;" glyph-name="Otilde" horiz-adv-x="1542" d="M1100 1805Q1096 1765 1080 1725T1039 1653T979 1600T902 1580Q867 1580 834 1591T768 1615T705 1639T644 1650Q607 1650 589 1629T561 1570H442Q446 1610 462 1650T503 1722T563 1774T640
1795Q675 1795 708 1784T774 1760T837 1736T898 1725Q935 1725 953 1746T981 1805H1100ZM771 1460Q951 1460 1075 1406T1276 1253T1388 1019T1422 718Q1422 554 1388 418T1277 183T1075 31T771 -24Q594 -24 470 29T269 179T156 413T120 718Q120 886 155 1023T268
1257T470 1407T771 1460ZM771 1255Q666 1255 596 1221T483 1120T422 952T404 718Q404 585 422 485T482 317T595 215T771 181Q875 181 945 214T1058 315T1119 483T1138 718Q1138 852 1120 953T1059 1121T946 1221T771 1255Z" />
<glyph unicode="&#xd6;" glyph-name="Odieresis" horiz-adv-x="1542" d="M532 1853Q560 1853 585 1842T629 1812T659 1768T670 1715Q670 1686 659 1661T630 1616T586 1586T532 1575Q503 1575 477 1586T432 1616T401 1660T390 1715Q390 1743 401 1768T431 1812T477
1842T532 1853ZM1014 1853Q1042 1853 1067 1842T1111 1812T1141 1768T1152 1715Q1152 1686 1141 1661T1112 1616T1068 1586T1014 1575Q985 1575 959 1586T914 1616T883 1660T872 1715Q872 1743 883 1768T913 1812T959 1842T1014 1853ZM771 1460Q951 1460 1075 1406T1276
1253T1388 1019T1422 718Q1422 554 1388 418T1277 183T1075 31T771 -24Q594 -24 470 29T269 179T156 413T120 718Q120 886 155 1023T268 1257T470 1407T771 1460ZM771 1255Q666 1255 596 1221T483 1120T422 952T404 718Q404 585 422 485T482 317T595 215T771 181Q875
181 945 214T1058 315T1119 483T1138 718Q1138 852 1120 953T1059 1121T946 1221T771 1255Z" />
<glyph unicode="&#xd7;" glyph-name="multiply" horiz-adv-x="1082" d="M798 953L932 819L675 562L932 305L798 171L541 428L284 171L150 305L407 562L150 819L284 953L541 696L798 953Z" />
<glyph unicode="&#xd8;" glyph-name="Oslash" horiz-adv-x="1542" d="M1243 1291Q1338 1193 1380 1046T1422 718Q1422 554 1388 418T1277 183T1075 31T771 -24Q587 -24 457 35L435 0H206L297 146Q204 243 162 389T120 718Q120 886 155 1023T268 1257T470 1407T771
1460Q865 1460 942 1446T1083 1402L1106 1438H1335L1243 1291ZM964 1212Q890 1255 771 1255Q666 1255 596 1221T483 1120T422 952T404 718Q404 615 414 533T448 387L964 1212ZM576 225Q653 181 771 181Q875 181 945 214T1058 315T1119 483T1138 718Q1138 821 1128
904T1093 1051L576 225Z" />
<glyph unicode="&#xd9;" glyph-name="Ugrave" horiz-adv-x="1532" d="M688 1578Q643 1649 609 1700T553 1791T519 1865T508 1938Q508 1970 519 1993T549 2033T593 2056T646 2064Q686 2064 728 2050T807 2009L749 1840L844 1578H688ZM1366 1438V632Q1366 476 1334
354T1231 148T1045 21T765 -23Q597 -23 483 22T298 152T197 358T166 632V1438H450V598Q450 503 466 427T520 297T618 214T765 185Q854 185 915 214T1013 297T1066 427T1082 598V1438H1366Z" />
<glyph unicode="&#xda;" glyph-name="Uacute" horiz-adv-x="1532" d="M732 2009Q768 2035 810 2049T893 2064Q921 2064 946 2057T990 2033T1020 1994T1031 1938Q1031 1900 1020 1866T987 1791T930 1700T851 1578H695L790 1840L732 2009ZM1366 1438V632Q1366 476
1334 354T1231 148T1045 21T765 -23Q597 -23 483 22T298 152T197 358T166 632V1438H450V598Q450 503 466 427T520 297T618 214T765 185Q854 185 915 214T1013 297T1066 427T1082 598V1438H1366Z" />
<glyph unicode="&#xdb;" glyph-name="Ucircumflex" horiz-adv-x="1532" d="M766 1919L1097 1665L1022 1578L766 1689L510 1578L435 1665L766 1919ZM1366 1438V632Q1366 476 1334 354T1231 148T1045 21T765 -23Q597 -23 483 22T298 152T197 358T166 632V1438H450V598Q450
503 466 427T520 297T618 214T765 185Q854 185 915 214T1013 297T1066 427T1082 598V1438H1366Z" />
<glyph unicode="&#xdc;" glyph-name="Udieresis" horiz-adv-x="1532" d="M527 1853Q555 1853 580 1842T624 1812T654 1768T665 1715Q665 1686 654 1661T625 1616T581 1586T527 1575Q498 1575 472 1586T427 1616T396 1660T385 1715Q385 1743 396 1768T426 1812T472
1842T527 1853ZM1009 1853Q1037 1853 1062 1842T1106 1812T1136 1768T1147 1715Q1147 1686 1136 1661T1107 1616T1063 1586T1009 1575Q980 1575 954 1586T909 1616T878 1660T867 1715Q867 1743 878 1768T908 1812T954 1842T1009 1853ZM1366 1438V632Q1366 476 1334
354T1231 148T1045 21T765 -23Q597 -23 483 22T298 152T197 358T166 632V1438H450V598Q450 503 466 427T520 297T618 214T765 185Q854 185 915 214T1013 297T1066 427T1082 598V1438H1366Z" />
<glyph unicode="&#xdd;" glyph-name="Yacute" horiz-adv-x="1400" d="M666 2009Q702 2035 744 2049T827 2064Q855 2064 880 2057T924 2033T954 1994T965 1938Q965 1900 954 1866T921 1791T864 1700T785 1578H629L724 1840L666 2009ZM1335 1438L840 648V0H560V648L65
1438H369L700 835L1031 1438H1335Z" />
<glyph unicode="&#xde;" glyph-name="Thorn" horiz-adv-x="1295" d="M460 1438V1191H738Q843 1191 925 1163T1065 1079T1152 943T1182 757Q1182 643 1145 558T1039 415T872 329T653 300Q597 300 548 303T460 311V0H181V1438H460ZM460 502Q492 497 523 495T585
492Q662 492 720 505T818 548T878 626T898 745Q898 815 883 863T835 942T750 985T624 999H460V502Z" />
<glyph unicode="&#xdf;" glyph-name="germandbls" horiz-adv-x="1320" d="M186 1048Q186 1162 223 1240T324 1368T476 1438T664 1460Q764 1460 850 1439T999 1374T1097 1262T1133 1101Q1133 1003 1093 928T973 782Q1027 763 1071 731T1146 654T1193 556T1210 437Q1210
304 1166 215T1050 73T892 -2T717 -25Q681 -25 646 -22T579 -12L638 182Q651 180 663 180T690 180Q735 180 778 190T856 226T912 300T934 423Q934 500 901 546T817 619T705 657T589 675L635 853Q660 851 689 848T740 840Q803 887 832 944T862 1080Q862 1165 809
1210T661 1255Q569 1255 514 1205T459 1045V1H186V1048Z" />
<glyph unicode="&#xe0;" glyph-name="agrave" horiz-adv-x="1141" d="M518 1191Q473 1262 439 1313T383 1404T349 1478T338 1551Q338 1583 349 1606T379 1646T423 1669T476 1677Q516 1677 558 1663T637 1622L579 1453L674 1191H518ZM187 989Q224 1004 271 1017T372
1040T483 1057T600 1063Q683 1063 755 1050T876 1007Q924 977 951 926T978 796V390Q978 320 979 266T983 159Q985 140 987 125T991 95T997 64T1006 29Q944 15 883 2T758 -23Q747 5 741 34T729 102H714Q679 66 644 42T571 3T492 -18T406 -24Q337 -24 278 -8T176
43T108 129T83 253Q83 313 95 360T131 444T186 509T257 558Q335 600 431 615T627 631H713V761Q713 798 702 819T671 852T625 866T569 870Q488 870 406 850T248 799L187 989ZM713 484H693Q622 483 558 474T444 441T366 381T336 286Q336 223 372 189T475 155Q506
155 539 163T604 187T664 226T713 279V484Z" />
<glyph unicode="&#xe1;" glyph-name="aacute" horiz-adv-x="1141" d="M562 1622Q598 1648 640 1662T723 1677Q751 1677 776 1670T820 1646T850 1607T861 1551Q861 1513 850 1479T817 1404T760 1313T681 1191H525L620 1453L562 1622ZM187 989Q224 1004 271 1017T372
1040T483 1057T600 1063Q683 1063 755 1050T876 1007Q924 977 951 926T978 796V390Q978 320 979 266T983 159Q985 140 987 125T991 95T997 64T1006 29Q944 15 883 2T758 -23Q747 5 741 34T729 102H714Q679 66 644 42T571 3T492 -18T406 -24Q337 -24 278 -8T176
43T108 129T83 253Q83 313 95 360T131 444T186 509T257 558Q335 600 431 615T627 631H713V761Q713 798 702 819T671 852T625 866T569 870Q488 870 406 850T248 799L187 989ZM713 484H693Q622 483 558 474T444 441T366 381T336 286Q336 223 372 189T475 155Q506
155 539 163T604 187T664 226T713 279V484Z" />
<glyph unicode="&#xe2;" glyph-name="acircumflex" horiz-adv-x="1141" d="M596 1532L927 1278L852 1191L596 1302L340 1191L265 1278L596 1532ZM187 989Q224 1004 271 1017T372 1040T483 1057T600 1063Q683 1063 755 1050T876 1007Q924 977 951 926T978 796V390Q978
320 979 266T983 159Q985 140 987 125T991 95T997 64T1006 29Q944 15 883 2T758 -23Q747 5 741 34T729 102H714Q679 66 644 42T571 3T492 -18T406 -24Q337 -24 278 -8T176 43T108 129T83 253Q83 313 95 360T131 444T186 509T257 558Q335 600 431 615T627 631H713V761Q713
798 702 819T671 852T625 866T569 870Q488 870 406 850T248 799L187 989ZM713 484H693Q622 483 558 474T444 441T366 381T336 286Q336 223 372 189T475 155Q506 155 539 163T604 187T664 226T713 279V484Z" />
<glyph unicode="&#xe3;" glyph-name="atilde" horiz-adv-x="1141" d="M925 1418Q921 1378 905 1338T864 1266T804 1213T727 1193Q692 1193 659 1204T593 1228T530 1252T469 1263Q432 1263 414 1242T386 1183H267Q271 1223 287 1263T328 1335T388 1387T465 1408Q500
1408 533 1397T599 1373T662 1349T723 1338Q760 1338 778 1359T806 1418H925ZM187 989Q224 1004 271 1017T372 1040T483 1057T600 1063Q683 1063 755 1050T876 1007Q924 977 951 926T978 796V390Q978 320 979 266T983 159Q985 140 987 125T991 95T997 64T1006 29Q944
15 883 2T758 -23Q747 5 741 34T729 102H714Q679 66 644 42T571 3T492 -18T406 -24Q337 -24 278 -8T176 43T108 129T83 253Q83 313 95 360T131 444T186 509T257 558Q335 600 431 615T627 631H713V761Q713 798 702 819T671 852T625 866T569 870Q488 870 406 850T248
799L187 989ZM713 484H693Q622 483 558 474T444 441T366 381T336 286Q336 223 372 189T475 155Q506 155 539 163T604 187T664 226T713 279V484Z" />
<glyph unicode="&#xe4;" glyph-name="adieresis" horiz-adv-x="1141" d="M357 1466Q385 1466 410 1455T454 1425T484 1381T495 1328Q495 1299 484 1274T455 1229T411 1199T357 1188Q328 1188 302 1199T257 1229T226 1273T215 1328Q215 1356 226 1381T256 1425T302
1455T357 1466ZM839 1466Q867 1466 892 1455T936 1425T966 1381T977 1328Q977 1299 966 1274T937 1229T893 1199T839 1188Q810 1188 784 1199T739 1229T708 1273T697 1328Q697 1356 708 1381T738 1425T784 1455T839 1466ZM187 989Q224 1004 271 1017T372 1040T483
1057T600 1063Q683 1063 755 1050T876 1007Q924 977 951 926T978 796V390Q978 320 979 266T983 159Q985 140 987 125T991 95T997 64T1006 29Q944 15 883 2T758 -23Q747 5 741 34T729 102H714Q679 66 644 42T571 3T492 -18T406 -24Q337 -24 278 -8T176 43T108 129T83
253Q83 313 95 360T131 444T186 509T257 558Q335 600 431 615T627 631H713V761Q713 798 702 819T671 852T625 866T569 870Q488 870 406 850T248 799L187 989ZM713 484H693Q622 483 558 474T444 441T366 381T336 286Q336 223 372 189T475 155Q506 155 539 163T604
187T664 226T713 279V484Z" />
<glyph unicode="&#xe5;" glyph-name="aring" horiz-adv-x="1141" d="M596 1570Q637 1570 672 1555T734 1514T776 1452T791 1375Q791 1334 776 1299T735 1237T673 1195T596 1180Q555 1180 520 1195T458 1236T416 1298T401 1375Q401 1416 416 1451T457 1513T519
1555T596 1570ZM596 1458Q561 1458 537 1434T513 1375Q513 1340 537 1316T596 1292Q631 1292 655 1316T679 1375Q679 1410 655 1434T596 1458ZM187 989Q224 1004 271 1017T372 1040T483 1057T600 1063Q683 1063 755 1050T876 1007Q924 977 951 926T978 796V390Q978
320 979 266T983 159Q985 140 987 125T991 95T997 64T1006 29Q944 15 883 2T758 -23Q747 5 741 34T729 102H714Q679 66 644 42T571 3T492 -18T406 -24Q337 -24 278 -8T176 43T108 129T83 253Q83 313 95 360T131 444T186 509T257 558Q335 600 431 615T627 631H713V761Q713
798 702 819T671 852T625 866T569 870Q488 870 406 850T248 799L187 989ZM713 484H693Q622 483 558 474T444 441T366 381T336 286Q336 223 372 189T475 155Q506 155 539 163T604 187T664 226T713 279V484Z" />
<glyph unicode="&#xe6;" glyph-name="ae" horiz-adv-x="1816" d="M187 989Q224 1004 271 1017T372 1040T483 1057T600 1063Q708 1063 786 1044T910 981Q966 1020 1039 1041T1206 1063Q1336 1063 1432 1032T1591 935T1685 768T1716 526V447H979Q981 378 995 326T1040
239T1125 185T1258 167Q1328 167 1409 184T1578 235L1642 47Q1601 30 1553 17T1451 -5T1344 -19T1237 -24Q1081 -24 971 19T795 154Q743 92 694 57T596 3T501 -19T406 -24Q337 -24 278 -8T176 43T108 129T83 253Q83 313 95 360T131 444T186 509T257 558Q335 600
431 615T627 631H713V761Q713 798 702 819T671 852T625 866T569 870Q488 870 406 850T248 799L187 989ZM1442 625Q1435 872 1220 872Q1109 872 1052 808T981 625H1442ZM693 484Q622 483 558 474T444 441T366 381T336 286Q336 223 372 189T475 155Q515 155 551 166T620
196T679 240T729 294Q718 336 712 383T705 484H693Z" />
<glyph unicode="&#xe7;" glyph-name="ccedilla" horiz-adv-x="1063" d="M589 -113Q669 -139 702 -174T736 -262Q736 -304 719 -335T673 -386T602 -417T513 -427Q468 -427 422 -418T329 -394L383 -293Q423 -313 456 -324T516 -335Q548 -335 565 -319T582 -269Q582
-232 547 -210T441 -164L528 -22Q404 -13 319 25T180 129T104 288T80 500Q80 633 114 738T218 915T390 1025T631 1063Q711 1063 790 1051T941 1017L874 819Q814 839 758 851T643 863Q566 863 512 838T422 767T371 658T354 520Q354 346 414 261T615 176Q701 176
773 194T918 237L981 39Q947 26 907 16T826 -2T742 -15T661 -22L589 -113Z" />
<glyph unicode="&#xe8;" glyph-name="egrave" horiz-adv-x="1202" d="M529 1181Q484 1252 450 1303T394 1394T360 1468T349 1541Q349 1573 360 1596T390 1636T434 1659T487 1667Q527 1667 569 1653T648 1612L590 1443L685 1181H529ZM1029 47Q988 30 940 17T838
-5T731 -19T624 -24Q361 -24 227 102T92 490Q92 606 119 710T206 892T365 1017T607 1063Q857 1063 980 931T1103 526V447H364Q366 379 380 327T426 240T512 186T645 167Q715 167 796 184T965 235L1029 47ZM829 625Q822 872 607 872Q496 872 439 808T368 625H829Z"
/>
<glyph unicode="&#xe9;" glyph-name="eacute" horiz-adv-x="1202" d="M573 1612Q609 1638 651 1652T734 1667Q762 1667 787 1660T831 1636T861 1597T872 1541Q872 1503 861 1469T828 1394T771 1303T692 1181H536L631 1443L573 1612ZM1029 47Q988 30 940 17T838
-5T731 -19T624 -24Q361 -24 227 102T92 490Q92 606 119 710T206 892T365 1017T607 1063Q857 1063 980 931T1103 526V447H364Q366 379 380 327T426 240T512 186T645 167Q715 167 796 184T965 235L1029 47ZM829 625Q822 872 607 872Q496 872 439 808T368 625H829Z"
/>
<glyph unicode="&#xea;" glyph-name="ecircumflex" horiz-adv-x="1202" d="M607 1522L938 1268L863 1181L607 1292L351 1181L276 1268L607 1522ZM1029 47Q988 30 940 17T838 -5T731 -19T624 -24Q361 -24 227 102T92 490Q92 606 119 710T206 892T365 1017T607 1063Q857
1063 980 931T1103 526V447H364Q366 379 380 327T426 240T512 186T645 167Q715 167 796 184T965 235L1029 47ZM829 625Q822 872 607 872Q496 872 439 808T368 625H829Z" />
<glyph unicode="&#xeb;" glyph-name="edieresis" horiz-adv-x="1202" d="M368 1456Q396 1456 421 1445T465 1415T495 1371T506 1318Q506 1289 495 1264T466 1219T422 1189T368 1178Q339 1178 313 1189T268 1219T237 1263T226 1318Q226 1346 237 1371T267 1415T313
1445T368 1456ZM850 1456Q878 1456 903 1445T947 1415T977 1371T988 1318Q988 1289 977 1264T948 1219T904 1189T850 1178Q821 1178 795 1189T750 1219T719 1263T708 1318Q708 1346 719 1371T749 1415T795 1445T850 1456ZM1029 47Q988 30 940 17T838 -5T731 -19T624
-24Q361 -24 227 102T92 490Q92 606 119 710T206 892T365 1017T607 1063Q857 1063 980 931T1103 526V447H364Q366 379 380 327T426 240T512 186T645 167Q715 167 796 184T965 235L1029 47ZM829 625Q822 872 607 872Q496 872 439 808T368 625H829Z" />
<glyph unicode="&#xec;" glyph-name="igrave" horiz-adv-x="637" d="M241 1181Q196 1252 162 1303T106 1394T72 1468T61 1541Q61 1573 72 1596T102 1636T146 1659T199 1667Q239 1667 281 1653T360 1612L302 1443L397 1181H241ZM456 1040V0H181V1040H456Z" />
<glyph unicode="&#xed;" glyph-name="iacute" horiz-adv-x="635" d="M269 1622Q305 1648 347 1662T430 1677Q458 1677 483 1670T527 1646T557 1607T568 1551Q568 1513 557 1479T524 1404T467 1313T388 1191H232L327 1453L269 1622ZM456 1040V0H181V1040H456Z" />
<glyph unicode="&#xee;" glyph-name="icircumflex" horiz-adv-x="665" d="M332 1532L663 1278L588 1191L332 1302L76 1191L1 1278L332 1532ZM486 1040V0H211V1040H486Z" />
<glyph unicode="&#xef;" glyph-name="idieresis" horiz-adv-x="637" d="M80 1456Q108 1456 133 1445T177 1415T207 1371T218 1318Q218 1289 207 1264T178 1219T134 1189T80 1178Q51 1178 25 1189T-20 1219T-51 1263T-62 1318Q-62 1346 -51 1371T-21 1415T25 1445T80
1456ZM562 1456Q590 1456 615 1445T659 1415T689 1371T700 1318Q700 1289 689 1264T660 1219T616 1189T562 1178Q533 1178 507 1189T462 1219T431 1263T420 1318Q420 1346 431 1371T461 1415T507 1445T562 1456ZM456 1040V0H181V1040H456Z" />
<glyph unicode="&#xf0;" glyph-name="eth" horiz-adv-x="1238" d="M877 1635V1405L810 1351Q900 1300 964 1222T1069 1045T1129 826T1148 571Q1148 428 1114 317T1012 129T844 14T611 -26Q494 -26 398 5T234 98T128 255T90 477Q90 732 230 849Q263 877 302 896T383
927T471 944T561 949Q641 949 713 935T834 900Q810 1006 764 1083T639 1212L375 997V1230L448 1288Q352 1309 228 1312L252 1468Q300 1466 349 1463T444 1454T534 1441T613 1423L877 1635ZM597 767Q531 767 489 744T422 681T387 589T377 476Q377 407 391 351T433
254T503 192T604 170Q663 170 705 192T776 249T822 327T848 415T859 498T862 564Q862 593 860 622T855 680Q792 722 728 744T597 767Z" />
<glyph unicode="&#xf1;" glyph-name="ntilde" horiz-adv-x="1247" d="M953 1408Q949 1368 933 1328T892 1256T832 1203T755 1183Q720 1183 687 1194T621 1218T558 1242T497 1253Q460 1253 442 1232T414 1173H295Q299 1213 315 1253T356 1325T416 1377T493 1398Q528
1398 561 1387T627 1363T690 1339T751 1328Q788 1328 806 1349T834 1408H953ZM448 862Q481 912 516 949T592 1012T681 1050T789 1063Q855 1063 906 1049T994 1007T1056 939T1097 847Q1111 796 1117 737T1124 608V0H850V687Q850 773 811 818T703 863Q665 863 629
845T558 798T495 731T443 656V0H169V641Q169 722 168 776T162 873Q160 894 158 910T154 941T148 971T139 1007Q204 1024 268 1037T399 1063Q406 1042 412 1022T422 978T429 926T435 862H448Z" />
<glyph unicode="&#xf2;" glyph-name="ograve" horiz-adv-x="1213" d="M529 1181Q484 1252 450 1303T394 1394T360 1468T349 1541Q349 1573 360 1596T390 1636T434 1659T487 1667Q527 1667 569 1653T648 1612L590 1443L685 1181H529ZM609 1063Q740 1063 836 1022T994
909T1087 737T1118 520Q1118 403 1088 303T995 131T836 17T609 -24Q478 -24 382 17T224 130T131 303T100 520Q100 637 130 736T223 908T382 1022T609 1063ZM609 867Q537 867 491 840T419 766T384 656T374 520Q374 447 383 384T419 273T491 199T609 172Q681 172
727 199T799 273T834 383T844 520Q844 592 835 655T799 766T727 840T609 867Z" />
<glyph unicode="&#xf3;" glyph-name="oacute" horiz-adv-x="1213" d="M573 1612Q609 1638 651 1652T734 1667Q762 1667 787 1660T831 1636T861 1597T872 1541Q872 1503 861 1469T828 1394T771 1303T692 1181H536L631 1443L573 1612ZM609 1063Q740 1063 836 1022T994
909T1087 737T1118 520Q1118 403 1088 303T995 131T836 17T609 -24Q478 -24 382 17T224 130T131 303T100 520Q100 637 130 736T223 908T382 1022T609 1063ZM609 867Q537 867 491 840T419 766T384 656T374 520Q374 447 383 384T419 273T491 199T609 172Q681 172
727 199T799 273T834 383T844 520Q844 592 835 655T799 766T727 840T609 867Z" />
<glyph unicode="&#xf4;" glyph-name="ocircumflex" horiz-adv-x="1213" d="M607 1522L938 1268L863 1181L607 1292L351 1181L276 1268L607 1522ZM609 1063Q740 1063 836 1022T994 909T1087 737T1118 520Q1118 403 1088 303T995 131T836 17T609 -24Q478 -24 382
17T224 130T131 303T100 520Q100 637 130 736T223 908T382 1022T609 1063ZM609 867Q537 867 491 840T419 766T384 656T374 520Q374 447 383 384T419 273T491 199T609 172Q681 172 727 199T799 273T834 383T844 520Q844 592 835 655T799 766T727 840T609 867Z" />
<glyph unicode="&#xf5;" glyph-name="otilde" horiz-adv-x="1213" d="M936 1408Q932 1368 916 1328T875 1256T815 1203T738 1183Q703 1183 670 1194T604 1218T541 1242T480 1253Q443 1253 425 1232T397 1173H278Q282 1213 298 1253T339 1325T399 1377T476 1398Q511
1398 544 1387T610 1363T673 1339T734 1328Q771 1328 789 1349T817 1408H936ZM609 1063Q740 1063 836 1022T994 909T1087 737T1118 520Q1118 403 1088 303T995 131T836 17T609 -24Q478 -24 382 17T224 130T131 303T100 520Q100 637 130 736T223 908T382 1022T609
1063ZM609 867Q537 867 491 840T419 766T384 656T374 520Q374 447 383 384T419 273T491 199T609 172Q681 172 727 199T799 273T834 383T844 520Q844 592 835 655T799 766T727 840T609 867Z" />
<glyph unicode="&#xf6;" glyph-name="odieresis" horiz-adv-x="1213" d="M368 1456Q396 1456 421 1445T465 1415T495 1371T506 1318Q506 1289 495 1264T466 1219T422 1189T368 1178Q339 1178 313 1189T268 1219T237 1263T226 1318Q226 1346 237 1371T267 1415T313
1445T368 1456ZM850 1456Q878 1456 903 1445T947 1415T977 1371T988 1318Q988 1289 977 1264T948 1219T904 1189T850 1178Q821 1178 795 1189T750 1219T719 1263T708 1318Q708 1346 719 1371T749 1415T795 1445T850 1456ZM609 1063Q740 1063 836 1022T994 909T1087
737T1118 520Q1118 403 1088 303T995 131T836 17T609 -24Q478 -24 382 17T224 130T131 303T100 520Q100 637 130 736T223 908T382 1022T609 1063ZM609 867Q537 867 491 840T419 766T384 656T374 520Q374 447 383 384T419 273T491 199T609 172Q681 172 727 199T799
273T834 383T844 520Q844 592 835 655T799 766T727 840T609 867Z" />
<glyph unicode="&#xf7;" glyph-name="divide" horiz-adv-x="1216" d="M608 1076Q640 1076 666 1065T710 1035T739 990T749 935Q749 906 738 881T708 836T663 805T608 794Q579 794 554 805T509 835T478 880T467 935Q467 966 478 992T509 1036T554 1065T608 1076ZM1066
657V467H150V657H1066ZM608 330Q640 330 666 319T710 289T739 244T749 189Q749 160 738 135T708 90T663 59T608 48Q579 48 554 59T509 89T478 134T467 189Q467 220 478 246T509 290T554 319T608 330Z" />
<glyph unicode="&#xf8;" glyph-name="oslash" horiz-adv-x="1213" d="M976 928Q1048 854 1083 750T1118 520Q1118 403 1088 303T995 131T836 17T609 -24Q549 -24 498 -16T401 9L271 -199H42L238 115Q168 188 134 291T100 520Q100 637 130 736T223 908T382 1022T609
1063Q722 1063 812 1031L942 1239H1171L976 928ZM700 852Q661 867 609 867Q537 867 491 840T419 766T384 656T374 520Q374 475 377 434T389 356L700 852ZM513 188Q556 172 609 172Q681 172 727 199T799 273T834 383T844 520Q844 567 841 609T827 690L513 188Z"
/>
<glyph unicode="&#xf9;" glyph-name="ugrave" horiz-adv-x="1258" d="M545 1181Q500 1252 466 1303T410 1394T376 1468T365 1541Q365 1573 376 1596T406 1636T450 1659T503 1667Q543 1667 585 1653T664 1612L606 1443L701 1181H545ZM1100 1040V398Q1100 317 1101
263T1107 166Q1109 145 1111 129T1115 98T1121 67T1130 32Q1065 15 1001 2T870 -24Q862 -3 857 17T847 61T840 113T834 177H821Q788 127 753 90T677 27T588 -11T480 -24Q355 -24 284 26T180 170Q161 224 153 289T145 431V1040H419V352Q419 266 458 221T566 176Q604
176 640 194T711 241T774 307T826 383V1040H1100Z" />
<glyph unicode="&#xfa;" glyph-name="uacute" horiz-adv-x="1258" d="M589 1612Q625 1638 667 1652T750 1667Q778 1667 803 1660T847 1636T877 1597T888 1541Q888 1503 877 1469T844 1394T787 1303T708 1181H552L647 1443L589 1612ZM1100 1040V398Q1100 317 1101
263T1107 166Q1109 145 1111 129T1115 98T1121 67T1130 32Q1065 15 1001 2T870 -24Q862 -3 857 17T847 61T840 113T834 177H821Q788 127 753 90T677 27T588 -11T480 -24Q355 -24 284 26T180 170Q161 224 153 289T145 431V1040H419V352Q419 266 458 221T566 176Q604
176 640 194T711 241T774 307T826 383V1040H1100Z" />
<glyph unicode="&#xfb;" glyph-name="ucircumflex" horiz-adv-x="1258" d="M623 1522L954 1268L879 1181L623 1292L367 1181L292 1268L623 1522ZM1100 1040V398Q1100 317 1101 263T1107 166Q1109 145 1111 129T1115 98T1121 67T1130 32Q1065 15 1001 2T870 -24Q862
-3 857 17T847 61T840 113T834 177H821Q788 127 753 90T677 27T588 -11T480 -24Q355 -24 284 26T180 170Q161 224 153 289T145 431V1040H419V352Q419 266 458 221T566 176Q604 176 640 194T711 241T774 307T826 383V1040H1100Z" />
<glyph unicode="&#xfc;" glyph-name="udieresis" horiz-adv-x="1258" d="M384 1456Q412 1456 437 1445T481 1415T511 1371T522 1318Q522 1289 511 1264T482 1219T438 1189T384 1178Q355 1178 329 1189T284 1219T253 1263T242 1318Q242 1346 253 1371T283 1415T329
1445T384 1456ZM866 1456Q894 1456 919 1445T963 1415T993 1371T1004 1318Q1004 1289 993 1264T964 1219T920 1189T866 1178Q837 1178 811 1189T766 1219T735 1263T724 1318Q724 1346 735 1371T765 1415T811 1445T866 1456ZM1100 1040V398Q1100 317 1101 263T1107
166Q1109 145 1111 129T1115 98T1121 67T1130 32Q1065 15 1001 2T870 -24Q862 -3 857 17T847 61T840 113T834 177H821Q788 127 753 90T677 27T588 -11T480 -24Q355 -24 284 26T180 170Q161 224 153 289T145 431V1040H419V352Q419 266 458 221T566 176Q604 176 640
194T711 241T774 307T826 383V1040H1100Z" />
<glyph unicode="&#xfd;" glyph-name="yacute" horiz-adv-x="1286" d="M605 1612Q641 1638 683 1652T766 1667Q794 1667 819 1660T863 1636T893 1597T904 1541Q904 1503 893 1469T860 1394T803 1303T724 1181H568L663 1443L605 1612ZM1113 1040V8Q1113 -109 1076
-190T970 -323T806 -397T595 -420Q506 -420 415 -405T245 -358Q266 -308 288 -260T333 -164Q405 -187 479 -203T622 -220Q642 -220 665 -219T713 -211T760 -193T800 -159T829 -105T841 -26V177H832Q799 127 764 90T687 27T597 -11T488 -24Q390 -24 326 7T223 96Q185
156 169 240T153 431V1040H427V352Q427 266 467 221T577 176Q615 176 651 194T722 241T785 307T837 383V1040H1113Z" />
<glyph unicode="&#xfe;" glyph-name="thorn" horiz-adv-x="1196" d="M411 1440V893H414Q528 1063 729 1063Q834 1063 906 1022T1022 912T1086 751T1106 557Q1106 422 1075 315T974 132T791 17T511 -24Q459 -24 411 -21V-400H138V1440H411ZM411 194Q454 186 499
181T595 176Q647 176 690 194T765 250T814 344T832 476Q832 561 825 632T797 754T737 834T634 863Q595 863 564 849T506 811T456 752T411 677V194Z" />
<glyph unicode="&#xff;" glyph-name="ydieresis" horiz-adv-x="1286" d="M400 1456Q428 1456 453 1445T497 1415T527 1371T538 1318Q538 1289 527 1264T498 1219T454 1189T400 1178Q371 1178 345 1189T300 1219T269 1263T258 1318Q258 1346 269 1371T299 1415T345
1445T400 1456ZM882 1456Q910 1456 935 1445T979 1415T1009 1371T1020 1318Q1020 1289 1009 1264T980 1219T936 1189T882 1178Q853 1178 827 1189T782 1219T751 1263T740 1318Q740 1346 751 1371T781 1415T827 1445T882 1456ZM1113 1040V8Q1113 -109 1076 -190T970
-323T806 -397T595 -420Q506 -420 415 -405T245 -358Q266 -308 288 -260T333 -164Q405 -187 479 -203T622 -220Q642 -220 665 -219T713 -211T760 -193T800 -159T829 -105T841 -26V177H832Q799 127 764 90T687 27T597 -11T488 -24Q390 -24 326 7T223 96Q185 156
169 240T153 431V1040H427V352Q427 266 467 221T577 176Q615 176 651 194T722 241T785 307T837 383V1040H1113Z" />
<glyph unicode="&#x2013;" glyph-name="endash" horiz-adv-x="1284" d="M1120 467H164V657H1120V467Z" />
<glyph unicode="&#x2014;" glyph-name="emdash" horiz-adv-x="1346" d="M1305 469H41V659H1305V469Z" />
<glyph unicode="&#x2018;" glyph-name="quoteleft" horiz-adv-x="500" d="M389 986Q349 957 303 942T212 926Q182 926 155 934T106 960T73 1003T60 1065Q60 1107 72 1144T109 1226T171 1327T258 1461H430L325 1172L389 986Z" />
<glyph unicode="&#x2019;" glyph-name="quoteright" horiz-adv-x="500" d="M111 1401Q151 1430 197 1445T288 1461Q318 1461 345 1453T394 1427T427 1383T440 1322Q440 1280 428 1243T391 1161T329 1060T242 926H70L175 1215L111 1401Z" />
<glyph unicode="&#x201a;" glyph-name="quotesinglbase" horiz-adv-x="500" d="M111 427Q151 456 197 471T288 487Q318 487 345 479T394 453T427 409T440 348Q440 306 428 269T391 187T329 86T242 -48H70L175 241L111 427Z" />
<glyph unicode="&#x201c;" glyph-name="quotedblleft" horiz-adv-x="942" d="M831 988Q791 959 745 943T654 927Q624 927 597 935T548 961T515 1004T502 1066Q502 1108 514 1145T551 1227T613 1328T700 1462H872L767 1173L831 988ZM389 986Q349 957 303 942T212
926Q182 926 155 934T106 960T73 1003T60 1065Q60 1107 72 1144T109 1226T171 1327T258 1461H430L325 1172L389 986Z" />
<glyph unicode="&#x201d;" glyph-name="quotedblright" horiz-adv-x="941" d="M553 1402Q593 1431 639 1446T730 1462Q760 1462 787 1454T836 1428T869 1384T882 1323Q882 1281 870 1244T833 1162T771 1061T684 927H512L617 1216L553 1402ZM111 1400Q151 1429
197 1445T288 1461Q318 1461 345 1453T394 1427T427 1383T440 1322Q440 1280 428 1243T391 1161T329 1060T242 926H70L175 1215L111 1400Z" />
<glyph unicode="&#x201e;" glyph-name="quotedblbase" horiz-adv-x="946" d="M553 427Q593 456 639 471T730 487Q760 487 787 479T836 453T869 409T882 348Q882 306 870 269T833 187T771 86T684 -48H512L617 241L553 427ZM111 425Q151 454 197 470T288 486Q318
486 345 478T394 452T427 408T440 347Q440 305 428 268T391 186T329 85T242 -49H70L175 240L111 425Z" />
<glyph unicode="&#x2022;" glyph-name="bullet" horiz-adv-x="642" d="M321 789Q366 789 402 774T464 731T504 668T518 592Q518 551 503 516T460 453T397 411T321 395Q280 395 245 410T182 453T140 515T124 592Q124 635 140 671T183 734T246 774T321 789Z" />
<glyph unicode="&#x2039;" glyph-name="guilsinglleft" horiz-adv-x="994" d="M653 999L793 860L453 518L794 174L652 35L170 518L653 999Z" />
<glyph unicode="&#x203a;" glyph-name="guilsinglright" horiz-adv-x="994" d="M341 999L824 518L342 35L200 174L541 518L201 860L341 999Z" />
</font>
</defs>
</svg>
