<?xml version="1.0" standalone="no"?>
<!DOCTYPE svg PUBLIC "-//W3C//DTD SVG 1.1//EN" "http://www.w3.org/Graphics/SVG/1.1/DTD/svg11.dtd">
<svg xmlns="http://www.w3.org/2000/svg">
<defs >
<font id="Alef" horiz-adv-x="1093" ><font-face
    font-family="Alef"
    units-per-em="2048"
    panose-1="0 0 5 0 0 0 0 0 0 0"
    ascent="2067"
    descent="-722"
    alphabetic="0" />
<glyph unicode=" " glyph-name="space" horiz-adv-x="580" />
<glyph unicode="!" glyph-name="exclam" horiz-adv-x="645" d="M150 1363Q185 1417 224 1438T305 1460Q339 1460 363 1446T402 1409T424 1353T431 1285L390 422L271 388L231 1196L150 1363ZM323 224Q348 224 370 215T409 189T435 150T445 102Q445 78 436 56T410
17T371 -10T323 -20Q299 -20 277 -11T237 15T210 54T200 102Q200 127 210 149T236 188T275 214T323 224Z" />
<glyph unicode="&quot;" glyph-name="quotedbl" horiz-adv-x="923" d="M126 1409Q168 1439 198 1450T260 1461Q315 1461 348 1440T396 1386T408 1309T387 1222Q375 1194 356 1155T314 1075T269 995T230 926H96L183 1215L126 1409ZM527 1409Q569 1439 599 1450T660
1461Q714 1461 747 1440T795 1385T808 1308T788 1222Q776 1194 756 1155T714 1075T669 995T630 926H496L583 1215L527 1409Z" />
<glyph unicode="#" glyph-name="numbersign" horiz-adv-x="1291" d="M913 946H1023L945 733H1181L1142 628H910L833 422H1068L1031 315H794L716 104H607L677 315H458L378 104H261L341 315H110L147 422H378L456 628H216L257 733H495L573 946H681L603 733H835L913
946ZM718 422L796 628H566L495 422H718Z" />
<glyph unicode="$" glyph-name="dollar" horiz-adv-x="1170" d="M654 1302V827Q730 806 784 785T891 729T977 653T1030 547T1050 404Q1050 223 944 117T654 -16V-131H509V-24Q307 -20 120 61L181 206Q349 137 509 130V687Q435 707 383 728T281 782T202 855T152
954T130 1088Q130 1242 233 1341T509 1457V1571H654V1456Q818 1441 969 1374L908 1229Q764 1290 654 1302ZM509 868V1301Q419 1287 364 1235T309 1088Q309 995 356 949T509 868ZM654 646V143Q757 167 814 234T871 404Q871 505 818 557T654 646Z" />
<glyph unicode="%" glyph-name="percent" horiz-adv-x="1217" d="M354 1326Q397 1326 437 1313T508 1267Q539 1235 558 1175T578 1031Q578 975 570 938T546 869Q530 837 509 816T463 781Q438 768 411 763T354 758Q310 758 270 770T198 815Q167 847 148 902T128
1041Q128 1125 147 1180T198 1267Q230 1300 270 1313T354 1326ZM354 1245Q322 1245 298 1234T257 1196Q241 1170 232 1132T223 1041Q223 987 232 950T257 886Q273 861 297 849T354 837Q384 837 408 849T449 886Q465 912 474 949T483 1041Q483 1094 474 1132T449
1196Q433 1222 409 1233T354 1245ZM1059 1065V940L158 266V391L1059 1065ZM865 581Q908 581 948 568T1019 522Q1050 490 1069 435T1089 296Q1089 240 1081 198T1057 124Q1041 92 1020 71T974 36Q949 23 922 18T865 13Q821 13 781 25T709 70Q678 102 659 157T639
296Q639 380 658 435T709 522Q741 555 781 568T865 581ZM865 500Q833 500 809 489T768 451Q752 425 743 387T734 296Q734 242 743 205T768 141Q784 116 808 104T865 92Q895 92 919 104T960 141Q976 167 985 204T994 296Q994 349 985 387T960 451Q944 477 920 488T865
500Z" />
<glyph unicode="&amp;" glyph-name="ampersand" horiz-adv-x="1505" d="M1352 298L1450 223Q1425 174 1409 146T1367 82T1316 26T1258 -8T1185 -22Q1117 -22 1062 9T933 131Q755 -24 519 -24Q462 -24 409 -14Q263 12 182 109T100 351Q100 421 115 476T171 586T265
690T410 813Q319 932 289 1000T259 1138Q259 1277 349 1368T607 1460Q737 1460 918 1417L877 1282Q866 1284 827 1293T776 1304T737 1310T691 1316T650 1318Q540 1318 492 1269T443 1141Q443 1099 466 1049T549 915L959 386Q1035 507 1060 657H929V794H1377V657H1195Q1151
425 1050 268Q1104 196 1135 164T1194 132Q1229 132 1264 170T1352 298ZM840 252L496 701Q392 625 336 549T279 374Q279 267 349 201T535 135Q605 135 686 164T840 252Z" />
<glyph unicode="&apos;" glyph-name="quotesingle" horiz-adv-x="557" d="M145 1409Q187 1439 217 1450T278 1461Q332 1461 365 1440T413 1385T426 1308T405 1222Q394 1194 374 1155T332 1075T287 995T248 926H114L201 1215L145 1409Z" />
<glyph unicode="(" glyph-name="parenleft" horiz-adv-x="781" d="M620 1323Q557 1233 512 1151T436 983T392 800T378 584Q378 465 392 369T436 186T511 17T620 -155L568 -209Q482 -144 413 -60T294 124T218 340T191 584Q191 712 218 827T294 1043T412 1228T568
1377L620 1323Z" />
<glyph unicode=")" glyph-name="parenright" horiz-adv-x="781" d="M161 -155Q224 -65 269 17T345 185T389 368T403 584Q403 703 389 799T345 982T270 1151T161 1323L213 1377Q298 1312 368 1228T487 1044T563 828T590 584Q590 456 563 341T487 125T368 -60T213
-209L161 -155Z" />
<glyph unicode="*" glyph-name="asterisk" horiz-adv-x="1099" d="M502 1439H602L614 1188L853 1252L885 1158L651 1070L789 863L709 805L552 1000L395 805L316 863L452 1072L217 1160L249 1254L490 1188L502 1439Z" />
<glyph unicode="+" glyph-name="plus" horiz-adv-x="1130" d="M979 608V471H633V126H496V471H151V608H497V954H634V608H979Z" />
<glyph unicode="," glyph-name="comma" horiz-adv-x="698" d="M205 177Q243 204 270 214T326 224Q375 224 405 205T448 155T460 85T442 7Q431 -19 413 -54T375 -126T335 -200T299 -262H177L256 0L205 177Z" />
<glyph unicode="-" glyph-name="hyphen" horiz-adv-x="1164" d="M204 632H960V484H204V632Z" />
<glyph unicode="." glyph-name="period" horiz-adv-x="645" d="M323 224Q348 224 370 215T410 189Q445 154 445 102Q445 51 410 16Q393 -1 371 -10T323 -20Q298 -20 276 -11T237 16Q220 33 211 55T201 102Q201 127 210 149T237 189Q272 224 323 224Z" />
<glyph unicode="/" glyph-name="slash" horiz-adv-x="1147" d="M849 1438H1008L298 0H139L849 1438Z" />
<glyph unicode="0" glyph-name="zero" horiz-adv-x="1247" d="M624 1081Q738 1081 836 1038T1005 919T1116 743T1157 528Q1157 413 1117 312T1005 136T836 18T624 -26Q509 -26 412 17T243 136T131 312T90 528Q90 642 130 743T242 919T411 1037T624 1081ZM624 923Q546
923 480 893T366 809T291 683T264 528Q264 445 291 373T366 247T480 163T624 132Q702 132 768 162T881 246T956 372T983 528Q983 611 956 683T882 808T768 892T624 923Z" />
<glyph unicode="1" glyph-name="one" horiz-adv-x="759" d="M90 923L448 1083L535 1039V0H361V874L151 785L90 923Z" />
<glyph unicode="2" glyph-name="two" horiz-adv-x="953" d="M310 1083T501 1083Q575 1083 636 1067T747 1015T825 921T853 782Q853 717 838 668Q810 580 714 521Q666 491 505 421Q503 420 500 419T495 417T490 414Q432 389 416 381T363 348T316 301T294 240T282
150H833V0H110V140Q110 216 128 276T174 379T252 457T352 518T477 573Q534 596 563 610T623 647T666 702T679 776Q679 861 626 900T484 939Q341 939 183 862L129 991Q310 1083 501 1083Z" />
<glyph unicode="3" glyph-name="three" horiz-adv-x="977" d="M554 901H396Q307 901 253 909Q173 921 108 946L165 1089Q235 1062 298 1054Q362 1046 503 1046H767V932L513 618Q589 624 652 605T757 550T830 463T873 358T887 244Q887 -93 464 -218Q292 -269 90
-275V-120Q276 -108 392 -76Q542 -34 627 44T713 252Q713 364 652 423T484 482Q412 482 327 451L279 546L554 901Z" />
<glyph unicode="4" glyph-name="four" horiz-adv-x="1129" d="M515 1083L680 1047Q665 912 587 756L283 150H703V426H871V150H1059V0H871V-274H703V0H110L70 124L398 772Q454 883 475 935T515 1083Z" />
<glyph unicode="5" glyph-name="five" horiz-adv-x="977" d="M90 -275V-121Q276 -109 392 -77Q542 -35 627 43T713 252Q713 364 649 425Q589 482 482 482Q369 482 250 426L163 486L196 1046H430Q571 1046 635 1054Q698 1062 768 1089L825 946Q760 921 680 909Q626
901 537 901H350L332 592Q425 621 518 621Q690 621 780 528Q833 475 860 400T887 244Q887 -93 464 -218Q292 -269 90 -275Z" />
<glyph unicode="6" glyph-name="six" horiz-adv-x="1065" d="M868 1324V1188Q619 1199 479 1098T299 773Q363 816 443 841T594 867Q772 867 876 758Q980 641 980 435Q980 345 954 265T875 119T736 15T538 -24Q384 -24 282 44T135 230T94 514Q100 737 163 920Q204
1037 276 1121T442 1250T642 1313T868 1324ZM280 607Q268 548 268 475Q268 399 282 337T326 225T410 148T538 120Q667 120 736 204T806 431Q806 587 737 658Q673 723 559 723Q494 723 419 691T280 607Z" />
<glyph unicode="7" glyph-name="seven" horiz-adv-x="992" d="M90 1046H535Q650 1046 724 1055Q794 1064 863 1082L912 938Q718 655 636 489Q550 319 525 157Q505 29 505 -191V-265H331Q331 10 353 167T460 504Q523 640 688 896H90V1046Z" />
<glyph unicode="8" glyph-name="eight" horiz-adv-x="1064" d="M778 704Q825 680 863 650T929 580T970 489T985 371Q985 277 951 204T855 80T712 3T532 -24Q435 -24 352 2T209 80T114 207T79 378Q79 436 95 486T139 579T208 655T297 715Q267 736 241 762T196 821T165
898T154 996Q154 1073 185 1132T269 1231T391 1293T537 1314Q615 1314 685 1293T808 1232T892 1132T923 996Q923 907 885 834T778 704ZM537 1173Q490 1173 449 1162T378 1128T331 1071T313 992Q313 924 347 883T432 818T542 780T654 753Q685 781 706 808T740 863T758
923T764 992Q764 1038 746 1072T696 1128T624 1162T537 1173ZM532 117Q598 117 651 135T740 186T796 266T816 371Q816 422 799 460T751 525T681 570T597 602T507 626T418 646Q334 598 291 532T248 378Q248 317 267 269T323 187T413 135T532 117Z" />
<glyph unicode="9" glyph-name="nine" horiz-adv-x="1065" d="M201 -265V-129Q450 -140 590 -39T770 286Q706 243 626 218T475 192Q297 192 193 301Q89 418 89 624Q89 714 115 794T194 940T333 1044T531 1083Q685 1083 787 1015T934 829T975 545Q969 322 906 139Q865
22 793 -62T627 -191T427 -254T201 -265ZM789 452Q801 511 801 584Q801 660 787 722T743 834T659 911T531 939Q402 939 333 855T263 628Q263 472 332 401Q396 336 510 336Q575 336 650 368T789 452Z" />
<glyph unicode=":" glyph-name="colon" horiz-adv-x="670" d="M335 887Q363 887 387 877T430 848Q448 830 458 806T469 753Q469 726 459 702T430 659Q412 640 388 630T335 619Q307 619 283 629T240 659Q222 677 212 701T201 753Q201 781 211 805T240 848Q258 866
282 876T335 887ZM335 248Q363 248 387 238T430 209Q448 191 458 167T469 114Q469 87 459 63T430 20Q412 1 388 -9T335 -20Q307 -20 283 -10T240 20Q222 38 212 62T201 114Q201 142 211 166T240 209Q258 227 282 237T335 248Z" />
<glyph unicode=";" glyph-name="semicolon" horiz-adv-x="724" d="M393 887Q421 887 445 877T488 848Q506 830 516 806T527 753Q527 726 517 702T488 659Q470 640 446 630T393 619Q365 619 341 629T298 659Q280 677 270 701T259 753Q259 781 269 805T298 848Q316
866 340 876T393 887ZM260 177Q298 204 325 214T381 224Q430 224 460 205T503 155T515 85T497 7Q486 -19 468 -54T430 -126T390 -200T354 -262H232L311 0L260 177Z" />
<glyph unicode="&lt;" glyph-name="less" horiz-adv-x="957" d="M892 238V97L65 459V575L892 935V795L249 518L892 238Z" />
<glyph unicode="=" glyph-name="equal" horiz-adv-x="1130" d="M151 665V802H979V665H151ZM151 282V419H979V282H151Z" />
<glyph unicode="&gt;" glyph-name="greater" horiz-adv-x="959" d="M894 459L67 97V238L710 518L67 795V935L894 575V459Z" />
<glyph unicode="?" glyph-name="question" horiz-adv-x="1096" d="M120 1363Q178 1392 238 1413T362 1446Q398 1452 436 1456T512 1460Q562 1460 610 1453T707 1427Q801 1389 858 1308T916 1098Q916 1003 885 938T798 823T661 737T481 661V422L342 382L282 732Q388
778 472 814T614 889T704 979T736 1107Q736 1164 714 1204T654 1268Q623 1288 585 1296T505 1304Q418 1304 333 1277T178 1213L120 1363ZM410 224Q435 224 457 215T496 189T522 150T532 102Q532 78 523 56T497 17T458 -10T410 -20Q386 -20 364 -11T324 15T297 54T287
102Q287 127 297 149T323 188T362 214T410 224Z" />
<glyph unicode="@" glyph-name="at" horiz-adv-x="1700" d="M849 -212Q749 -212 657 -186T485 -114T340 -1T227 145T155 318T129 510Q129 610 154 702T227 874T339 1021T485 1133T657 1206T849 1232Q948 1232 1040 1206T1212 1133T1359 1020T1472 874T1545 701T1571
510Q1571 312 1468 214T1151 116Q1118 116 1082 118T1007 126Q999 156 995 178Q993 186 993 194T991 210Q990 217 990 230T990 262Q990 297 990 324T991 370L981 372Q966 319 944 274T891 194T821 140T734 120Q688 120 654 138T595 188T555 259T532 343Q527 372
525 401T522 463Q522 540 540 616T600 754T712 853T886 891Q993 891 1135 857L1124 588Q1123 563 1122 523T1120 440T1117 356T1116 286Q1116 275 1116 266T1117 251Q1117 246 1117 241T1118 231Q1138 228 1155 228T1191 227Q1255 227 1303 248T1383 306T1431 396T1447
510Q1447 592 1426 668T1365 810T1271 932T1150 1026T1007 1086T849 1108Q767 1108 691 1087T549 1026T427 932T333 811T273 668T251 510Q251 428 272 352T333 210T427 88T548 -6T691 -66T849 -88H877V-212H849ZM1005 771Q980 775 955 778T903 781Q824 781 774
752T695 677T655 574T644 462Q644 400 653 351Q662 303 684 270T751 237Q776 237 800 249T842 283Q867 310 890 345T932 419T967 496T993 568L1005 771Z" />
<glyph unicode="A" glyph-name="A" horiz-adv-x="1369" d="M1158 0L969 489H400L211 0H20L590 1438H779L1349 0H1158ZM459 643H910L684 1228L459 643Z" />
<glyph unicode="B" glyph-name="B" horiz-adv-x="1297" d="M631 1438Q733 1438 822 1423T979 1368T1085 1262T1124 1091Q1124 1029 1110 981T1071 896T1008 833T926 788V786Q981 772 1031 743T1120 669T1180 563T1203 423Q1203 310 1163 230T1053 99T887 24T680
0H178V1438H631ZM628 847Q700 847 757 859T853 899T914 975T936 1093Q936 1153 911 1192T843 1253Q800 1275 744 1283T628 1292H366V847H628ZM680 146Q750 146 811 164T918 217T989 304T1015 424Q1015 492 989 543T918 630T812 683T680 701H366V146H680Z" />
<glyph unicode="C" glyph-name="C" horiz-adv-x="1239" d="M1157 41Q1064 12 961 -6T733 -24Q427 -24 271 159T115 698Q115 1076 271 1268T733 1460Q849 1460 941 1440T1120 1388L1068 1240Q1027 1255 987 1267T907 1287T823 1299T733 1303Q622 1303 542 1264T410
1149T333 965T308 718Q308 576 333 467T410 284T542 171T733 133Q835 133 927 150T1110 195L1157 41Z" />
<glyph unicode="D" glyph-name="D" horiz-adv-x="1376" d="M182 0V1438H486Q609 1438 714 1426T908 1382Q996 1351 1062 1300T1177 1168Q1224 1088 1248 978T1272 719Q1272 570 1248 460T1177 270Q1129 190 1063 139T908 56Q820 25 715 13T486 0H182ZM517 154Q670
154 776 184T951 284Q1018 353 1048 459T1079 719Q1079 872 1049 978T951 1154Q883 1223 777 1253T517 1284H370V154H517Z" />
<glyph unicode="E" glyph-name="E" horiz-adv-x="1131" d="M182 1438H980V1284H370V887H802V733H370V154H1003V0H182V1438Z" />
<glyph unicode="F" glyph-name="F" horiz-adv-x="1050" d="M182 1438H980V1284H370V887H802V733H370V0H182V1438Z" />
<glyph unicode="G" glyph-name="G" horiz-adv-x="1399" d="M1257 77Q1138 28 1011 2T763 -24Q607 -24 487 20T284 154T160 380T117 702Q117 903 160 1047T287 1282T491 1417T769 1460Q866 1460 973 1441T1193 1385L1140 1235Q1039 1269 951 1286T772 1303Q656
1303 569 1269T425 1164T339 983T310 721Q310 571 336 460T418 277T558 169T759 133Q841 133 924 150T1076 190V588H835V739H1257V77Z" />
<glyph unicode="H" glyph-name="H" horiz-adv-x="1512" d="M1142 1438H1330V0H1142V713H370V0H182V1438H370V867H1142V1438Z" />
<glyph unicode="I" glyph-name="I" horiz-adv-x="596" d="M204 1438H392V0H204V1438Z" />
<glyph unicode="J" glyph-name="J" horiz-adv-x="716" d="M357 1438H545V429Q545 288 533 194T488 28Q415 -130 198 -227L124 -119Q224 -35 255 0Q280 28 297 57Q357 158 357 350V1438Z" />
<glyph unicode="K" glyph-name="K" horiz-adv-x="1313" d="M1014 1460L1141 1358L589 704L1189 0H963L372 694V0H184V1438H372V698L1014 1460Z" />
<glyph unicode="L" glyph-name="L" horiz-adv-x="1042" d="M195 1438H383V154H972V0H195V1438Z" />
<glyph unicode="M" glyph-name="M" horiz-adv-x="1894" d="M1347 1437H1626L1799 0H1616L1466 1210H1456L1059 0H835L438 1210H428L278 0H95L268 1437H547L947 192L1347 1437Z" />
<glyph unicode="N" glyph-name="N" horiz-adv-x="1529" d="M1351 -10H1131L366 1192V0H178V1438H398L1163 236V1438H1351V-10Z" />
<glyph unicode="O" glyph-name="O" horiz-adv-x="1482" d="M1372 719Q1372 358 1209 167T741 -24Q439 -24 275 166T110 719Q110 1080 275 1270T741 1460Q1046 1460 1209 1269T1372 719ZM1179 719Q1179 997 1070 1150T740 1303Q519 1303 411 1149T303 719Q303 584
328 478T406 294T543 175T740 133Q960 133 1069 286T1179 719Z" />
<glyph unicode="P" glyph-name="P" horiz-adv-x="1219" d="M635 1438Q734 1438 820 1417T969 1347T1069 1220T1106 1030Q1106 905 1064 826T951 701T785 638T585 621Q528 621 474 625T371 634V0H185V1438H635ZM371 784Q419 778 471 775T577 771Q653 771 716 780T825
818T895 897T920 1030Q920 1105 899 1154T841 1234T751 1276T635 1288H371V784Z" />
<glyph unicode="Q" glyph-name="Q" horiz-adv-x="1502" d="M748 1460Q901 1460 1018 1412T1216 1269T1337 1036T1379 719Q1379 429 1275 250T973 8Q1022 -28 1057 -55T1127 -102T1201 -139T1299 -172Q1287 -214 1272 -252T1238 -329Q1200 -319 1167 -307T1101
-280T1034 -242T957 -190T864 -119T748 -24Q599 -24 482 23T283 164T160 397T117 719Q117 901 159 1039T283 1271T481 1412T748 1460ZM747 1303Q633 1303 550 1262T414 1144T336 959T310 719Q310 586 335 478T414 293T550 175T747 133Q859 133 942 173T1079 290T1159
474T1186 719Q1186 854 1160 962T1079 1146T942 1262T747 1303Z" />
<glyph unicode="R" glyph-name="R" horiz-adv-x="1275" d="M635 1438Q730 1438 814 1416T964 1346Q1030 1297 1067 1222T1105 1045Q1105 943 1068 868T964 744Q913 706 851 685T717 656L716 654Q745 635 780 601T853 519Q891 472 931 418T1012 303L1220 0H1000L774
350Q713 446 669 505T584 598Q545 632 504 644T409 656H371V0H185V1438H635ZM635 802Q698 802 750 816T839 859T898 935T919 1045Q919 1109 898 1155T840 1230T750 1274T635 1288H371V802H635Z" />
<glyph unicode="S" glyph-name="S" horiz-adv-x="1196" d="M175 209Q216 193 261 179T354 155T450 139T544 133Q623 133 687 151T797 203T868 288T893 404Q893 469 870 510T802 580T692 627T544 668Q452 692 375 721T241 798T152 914T120 1088Q120 1173 154 1242T250
1359T399 1434T591 1460Q642 1460 695 1454T800 1436T902 1409T996 1374L936 1226Q900 1240 863 1254T783 1279T694 1296T591 1303Q536 1303 486 1291T398 1254T336 1187T313 1088Q313 1023 336 982T404 912T514 865T662 824Q754 800 831 771T965 694T1054 577T1086
404Q1086 295 1046 215T933 81T761 2T544 -24Q323 -24 115 61L175 209Z" />
<glyph unicode="T" glyph-name="T" horiz-adv-x="1237" d="M80 1438H1157V1284H715V0H527V1284H80V1438Z" />
<glyph unicode="U" glyph-name="U" horiz-adv-x="1486" d="M1128 1438H1316V607Q1316 293 1175 135T742 -24Q170 -24 170 607V1438H358V606Q358 496 377 413T439 265T558 167T742 133Q830 133 897 155T1008 218T1078 318T1117 448T1128 606V1438Z" />
<glyph unicode="V" glyph-name="V" horiz-adv-x="1468" d="M1158 1438H1355L818 -2H651L113 1438H310L735 229L1158 1438Z" />
<glyph unicode="W" glyph-name="W" horiz-adv-x="1850" d="M1777 1437L1604 0H1325L925 1245L525 0H246L73 1437H256L406 227H416L813 1437H1037L1434 227H1444L1594 1437H1777Z" />
<glyph unicode="X" glyph-name="X" horiz-adv-x="1415" d="M118 1358L264 1463L699 855L1086 1438H1305L810 712L1266 85L1115 -23L700 561L327 0H110L589 704L118 1358Z" />
<glyph unicode="Y" glyph-name="Y" horiz-adv-x="1357" d="M1078 1438H1292L772 648V0H585V648L65 1438H279L678 802L1078 1438Z" />
<glyph unicode="Z" glyph-name="Z" horiz-adv-x="1234" d="M171 1438H1081V1304L380 154H1087V0H147V132L850 1284H171V1438Z" />
<glyph unicode="[" glyph-name="bracketleft" horiz-adv-x="711" d="M200 1570H531V1438H363V0H531V-132H200V1570Z" />
<glyph unicode="\" glyph-name="backslash" horiz-adv-x="1139" d="M845 0L135 1438H294L1004 0H845Z" />
<glyph unicode="]" glyph-name="bracketright" horiz-adv-x="711" d="M180 1570H511V-132H180V0H348V1438H180V1570Z" />
<glyph unicode="^" glyph-name="asciicircum" horiz-adv-x="772" d="M335 1114H442L753 427H636L389 984L142 427H26L335 1114Z" />
<glyph unicode="_" glyph-name="underscore" horiz-adv-x="1083" d="M160 145H924V0H160V145Z" />
<glyph unicode="`" glyph-name="grave" horiz-adv-x="575" d="M447 1181H325Q210 1383 182 1450Q163 1504 164 1552T200 1634T298 1667Q354 1667 419 1620L368 1443L447 1181Z" />
<glyph unicode="a" glyph-name="a" horiz-adv-x="1041" d="M229 856L185 996Q353 1063 537 1063Q698 1063 783 1009Q880 947 880 798V389Q880 307 882 221Q883 170 892 115Q900 63 913 16L749 -20Q726 47 720 130L700 132Q576 -24 384 -24Q244 -24 159 53T74 272Q74
377 120 444T252 557Q386 630 627 630Q659 630 713 628V780Q713 852 669 884T531 916Q394 916 229 856ZM713 292V502Q686 504 634 504Q546 504 472 489Q362 467 302 420T241 283Q241 123 415 123Q505 123 583 171Q647 211 713 292Z" />
<glyph unicode="b" glyph-name="b" horiz-adv-x="1105" d="M176 1440H348V841L369 839Q416 943 480 997Q554 1063 659 1063Q842 1063 939 909Q1026 766 1026 540Q1026 265 895 116Q770 -24 525 -24Q391 -24 176 8V1440ZM338 614V142Q430 123 525 123Q687 123 768
218Q852 316 852 509Q852 684 814 779Q764 904 644 904Q539 904 459 816Q403 756 338 614Z" />
<glyph unicode="c" glyph-name="c" horiz-adv-x="973" d="M895 37Q817 10 729 -7T561 -24Q441 -24 353 11T208 113T122 277T94 500Q94 636 128 741T228 917T388 1026T603 1063Q664 1063 727 1051T855 1019L812 879Q760 896 716 906T622 916Q452 916 360 818T268
520Q268 427 281 354T329 229T423 150T575 123Q635 123 704 138T852 177L895 37Z" />
<glyph unicode="d" glyph-name="d" horiz-adv-x="1123" d="M776 1440H948V393Q948 217 953 162Q958 94 976 16L810 -21Q793 35 785 92Q775 162 774 200H759Q707 92 644 41Q568 -24 456 -24Q358 -24 287 18T177 137T119 304T100 505Q100 629 125 728T204 903T346
1021T555 1063Q649 1063 776 1038V1440ZM776 421V886Q663 916 568 916Q487 916 429 887T337 804T289 684T274 536Q274 480 276 438T285 346T306 261T341 196T395 151T473 135Q579 135 657 220Q713 282 776 421Z" />
<glyph unicode="e" glyph-name="e" horiz-adv-x="1102" d="M946 58Q835 14 738 -5T563 -24Q445 -24 357 13T211 119T123 281T93 490Q93 560 103 630T135 763T192 882T279 977T398 1040T553 1063Q776 1063 889 924T1002 524V469H270Q270 385 288 321T343 212T438
144T575 121Q619 121 662 127T747 144T825 168T896 193L946 58ZM829 607Q821 769 752 843T553 918Q424 918 357 844T275 607H829Z" />
<glyph unicode="f" glyph-name="f" horiz-adv-x="916" d="M277 1040V1153Q277 1227 291 1281T340 1381T442 1450T609 1474Q738 1474 916 1431L885 1290Q717 1325 629 1325Q586 1325 557 1321T507 1303T476 1274T460 1229T453 1172T451 1097V1040H785V895H451V145H785V0H103V145H277V895H103V1040H277Z"
/>
<glyph unicode="g" glyph-name="g" horiz-adv-x="1118" d="M762 1040Q805 1040 837 1041T900 1045T960 1056T1032 1076Q1045 1038 1057 1004T1083 934Q1051 922 1024 915T971 904T918 898T861 895Q889 850 904 794T919 672Q919 576 890 505T807 383Q753 333 678
308T508 282Q460 282 417 287T335 307Q326 283 320 258T313 211T322 170T350 140Q360 134 371 131T397 125T435 121T488 119Q518 118 558 118T653 118Q809 118 889 53T969 -151Q969 -207 951 -250T902 -326T827 -379T734 -414T630 -433T520 -439Q465 -439 410 -433T301
-418Q248 -409 202 -398T119 -375Q133 -341 150 -307T188 -243Q251 -261 338 -278T531 -295Q579 -295 625 -289T709 -267T770 -223T793 -151Q793 -105 777 -80T732 -43T666 -29T586 -27H455Q396 -27 344 -18T253 12T192 69T169 155Q169 204 187 256T234 363Q168
411 133 490T97 672Q97 766 126 838T210 962Q264 1013 339 1038T508 1063Q596 1063 670 1040H762ZM508 925Q445 925 400 906T327 854T285 774T271 672Q271 616 284 570T327 491T400 439T508 420Q571 420 616 438T689 490T731 570T745 672Q745 727 732 773T690 853T616
906T508 925Z" />
<glyph unicode="h" glyph-name="h" horiz-adv-x="1159" d="M175 1440H347V813Q414 927 499 991Q596 1063 692 1063Q836 1063 916 991Q985 929 1011 804Q1031 709 1031 548V0H859V596Q859 657 856 696T842 779T809 847T749 888T655 904Q560 904 472 814Q416 757
347 640V0H175V1440Z" />
<glyph unicode="i" glyph-name="i" horiz-adv-x="543" d="M269 1443Q315 1443 349 1411Q382 1376 382 1329Q382 1281 349 1248Q315 1214 269 1214Q221 1214 187 1248Q153 1280 153 1329Q153 1377 187 1411Q221 1443 269 1443ZM181 1040H353V0H181V1040Z" />
<glyph unicode="j" glyph-name="j" horiz-adv-x="660" d="M370 1443Q416 1443 450 1411Q483 1376 483 1329Q483 1281 450 1248Q416 1214 370 1214Q322 1214 288 1248Q254 1280 254 1329Q254 1377 288 1411Q322 1443 370 1443ZM283 1040H455V144Q455 -39 418 -134Q383
-225 271 -349L214 -412L99 -317Q181 -218 208 -172Q209 -170 231 -129Q283 -21 283 131V1040Z" />
<glyph unicode="k" glyph-name="k" horiz-adv-x="1038" d="M169 1440H341V574L809 1063L922 953L517 536L1028 0H814L341 500V0H169V1440Z" />
<glyph unicode="l" glyph-name="l" horiz-adv-x="475" d="M312 404Q312 322 314 267T319 169Q322 127 328 93T345 18Q303 7 261 -2T177 -19Q157 46 149 100T140 206V1438H312V404Z" />
<glyph unicode="m" glyph-name="m" horiz-adv-x="1741" d="M168 0V643Q168 797 161 875Q157 936 135 1024L299 1061Q318 1001 326 945Q330 924 336 836H357Q408 938 485 996Q568 1063 674 1063Q734 1063 790 1042T884 981Q941 925 965 815H977Q1037 931 1118 993Q1205
1063 1313 1063Q1444 1063 1514 990Q1575 929 1600 804Q1618 713 1618 550V0H1446V598Q1446 677 1437 728Q1423 807 1387 851Q1342 904 1261 904Q1169 904 1091 816Q1044 763 979 652Q981 635 981 602V0H809V598Q809 725 784 793Q742 904 625 904Q535 904 454 814Q407
762 340 641V0H168Z" />
<glyph unicode="n" glyph-name="n" horiz-adv-x="1147" d="M135 1022L301 1059Q320 999 328 943Q332 916 338 836H359Q414 937 495 997Q584 1063 683 1063Q832 1063 910 991Q977 930 1003 804Q1020 718 1020 548V0H848V596Q848 745 819 809Q776 904 646 904Q554
904 466 816Q407 757 340 643V0H168V640Q168 775 161 873Q157 934 135 1022Z" />
<glyph unicode="o" glyph-name="o" horiz-adv-x="1113" d="M555 1063Q604 1063 657 1056T761 1027Q812 1005 857 968T938 870Q973 809 993 724T1013 520Q1013 402 993 317T938 171Q903 110 858 72T761 13Q710 -9 657 -16T555 -24Q507 -24 455 -17T351 13Q300 34
255 72T175 171Q140 231 120 316T100 520Q100 638 120 723T175 870Q210 930 255 967T351 1027Q402 1048 454 1055T555 1063ZM555 922Q498 922 448 904T359 841Q320 795 297 718T274 520Q274 400 297 323T359 200Q397 154 447 137T555 119Q613 119 664 136T755 200Q794
245 816 322T839 520Q839 641 817 718T755 841Q716 886 665 904T555 922Z" />
<glyph unicode="p" glyph-name="p" horiz-adv-x="1114" d="M338 -400H166V648Q166 822 161 877Q156 945 138 1023L304 1060Q321 1004 329 947Q339 877 340 839H355Q407 947 470 998Q546 1063 658 1063Q756 1063 827 1021T937 902T995 735T1014 534Q1014 410 989
311T910 136T768 18T559 -24Q465 -24 338 1V-400ZM338 618V153Q451 123 546 123Q627 123 685 152T777 235T825 355T840 503Q840 559 838 601T829 693T808 778T773 843T719 888T641 904Q535 904 457 819Q401 757 338 618Z" />
<glyph unicode="q" glyph-name="q" horiz-adv-x="1125" d="M950 -400H778V198L757 200Q710 96 646 42Q572 -24 467 -24Q284 -24 187 130Q100 272 100 499Q100 774 231 923Q356 1063 601 1063Q735 1063 950 1031V-400ZM788 425V897Q696 916 601 916Q439 916 358
821Q274 723 274 530Q274 355 312 260Q362 135 482 135Q587 135 667 223Q723 283 788 425Z" />
<glyph unicode="r" glyph-name="r" horiz-adv-x="833" d="M355 799Q386 861 421 911T500 996Q539 1030 586 1046T693 1063Q713 1063 739 1061T790 1054Q786 1004 781 960T766 871Q716 880 675 884T596 882Q552 874 520 853T460 796T406 711T349 597V0H177V641Q177
704 176 752T170 843T156 929T132 1024Q174 1035 214 1044T297 1061Q311 1021 319 990T333 930T340 870T346 799H355Z" />
<glyph unicode="s" glyph-name="s" horiz-adv-x="955" d="M477 1063Q559 1063 641 1046T795 999Q781 967 766 936T733 875Q708 885 678 895T614 912T545 923T475 928Q438 928 404 921T343 896T300 852T284 783Q284 741 302 713T351 665T423 633T512 609Q585 591
648 569T757 510T829 421T855 290Q855 208 823 149T735 52T605 -5T447 -24Q403 -24 357 -19T265 -3T175 23T92 56Q106 88 121 118T154 179Q187 165 224 153T300 131T377 117T450 111Q494 111 535 121T609 152T661 208T681 290Q681 335 663 364T613 412T541 444T453
468Q383 485 321 507T212 564T138 652T110 783Q110 856 140 909T220 996T337 1046T477 1063Z" />
<glyph unicode="t" glyph-name="t" horiz-adv-x="861" d="M260 1278H432V1040H782V895H432V298Q432 238 435 207T453 157Q479 121 558 121Q602 121 643 130Q685 139 720 150Q748 89 771 16Q653 -24 533 -24Q446 -24 394 -5T311 59Q280 105 270 169T260 346V895H110V1040H260V1278Z"
/>
<glyph unicode="u" glyph-name="u" horiz-adv-x="1158" d="M1028 18L862 -19Q843 41 835 97Q831 123 825 203H804Q749 102 668 42Q579 -24 480 -24Q331 -24 253 48Q186 109 160 235Q143 321 143 491V1040H315V443Q315 294 344 230Q387 135 517 135Q609 135 697
223Q756 282 823 396V1040H995V398Q995 265 1002 167Q1006 106 1028 18Z" />
<glyph unicode="v" glyph-name="v" horiz-adv-x="1022" d="M972 1040L626 0H396L50 1040H236L511 132L786 1040H972Z" />
<glyph unicode="w" glyph-name="w" horiz-adv-x="1491" d="M1112 0H883L758 483L557 0H331L65 1041H237L456 125L698 725L617 1041H789L1014 125Q1122 375 1165 501Q1217 654 1217 764Q1217 860 1170 1023Q1261 1046 1335 1060Q1377 957 1388 838Q1391 808 1391
777Q1391 613 1299 395Q1274 337 1243 271T1169 117T1112 0Z" />
<glyph unicode="x" glyph-name="x" horiz-adv-x="1128" d="M102 964L229 1063L557 646L837 1040H1035L658 517L1007 75L881 -24L563 380L292 1H93L461 508L102 964Z" />
<glyph unicode="y" glyph-name="y" horiz-adv-x="1186" d="M1010 1040V-23Q1010 -122 978 -194T888 -313T751 -382T579 -405Q495 -405 410 -391T248 -350Q261 -315 275 -282T303 -216Q327 -224 360 -233T431 -249T508 -261T585 -266Q643 -266 690 -251T770 -204T820
-128T838 -23V203H819Q793 156 759 115T684 42T596 -6T495 -24Q422 -24 368 -8T276 41T213 122T175 235Q164 292 161 357T158 491V1040H330V443Q330 378 336 322T362 224T423 159T532 135Q583 135 628 159T711 222T780 306T838 396V1040H1010Z" />
<glyph unicode="z" glyph-name="z" horiz-adv-x="991" d="M400 895Q359 895 325 896T260 900T196 912T125 934Q138 970 150 1004T176 1076Q216 1063 247 1056T308 1046T370 1041T446 1040H866V920L344 145H875V0H129V121L650 895H400Z" />
<glyph unicode="{" glyph-name="braceleft" horiz-adv-x="711" d="M215 920V1306Q215 1424 286 1488Q368 1564 549 1564V1441Q432 1441 394 1397Q362 1360 362 1265V920Q362 852 336 797Q317 759 286 722Q318 684 336 648Q362 593 362 526V167Q362 69 394 35Q433
-9 549 -9V-132Q368 -132 286 -56Q215 8 215 126V526Q215 590 166 664Q143 698 118 722Q169 771 200 843Q215 879 215 920Z" />
<glyph unicode="|" glyph-name="bar" horiz-adv-x="615" d="M230 1571H385V-131H230V1571Z" />
<glyph unicode="}" glyph-name="braceright" horiz-adv-x="711" d="M178 1441V1564Q358 1564 442 1488Q512 1423 512 1306V920Q512 852 560 780Q583 745 609 722Q557 673 527 602Q512 566 512 526V126Q512 9 442 -56Q358 -132 178 -132V-9Q295 -9 334 35Q365 68
365 167V526Q365 594 392 648Q409 684 441 722Q410 759 392 797Q365 851 365 920V1265Q365 1361 334 1397Q296 1441 178 1441Z" />
<glyph unicode="~" glyph-name="asciitilde" horiz-adv-x="1145" d="M176 456L132 548Q268 653 372 653Q432 653 510 625T658 568T764 540Q862 540 969 629L1013 538Q877 433 773 433Q713 433 636 461T490 517T381 545Q281 545 176 456Z" />
<glyph unicode="&#xa0;" glyph-name="uni00A0" horiz-adv-x="580" />
<glyph unicode="&#xa1;" glyph-name="exclamdown" horiz-adv-x="595" d="M272 1063Q296 1063 318 1054T358 1028T385 989T395 941Q395 916 385 894T359 855T320 829T272 819Q247 819 225 828T186 854T160 893T150 941Q150 965 159 987T185 1026T224 1053T272 1063ZM445
-320Q410 -374 371 -395T290 -417Q256 -417 232 -406T193 -375T171 -328T164 -269L205 621L324 655L364 -153L445 -320Z" />
<glyph unicode="&#xa2;" glyph-name="cent" horiz-adv-x="973" d="M852 177L895 37Q719 -24 561 -24Q513 -24 471 -18L424 -220H309L362 8Q270 44 209 115Q94 249 94 500Q94 780 244 930Q378 1063 603 1063H610L664 1295H779L722 1051Q782 1040 855 1019L812 879Q741
903 689 911L505 128Q542 123 575 123Q673 123 852 177ZM399 163L575 914Q446 900 367 818Q268 716 268 520Q268 322 327 232Q354 190 399 163Z" />
<glyph unicode="&#xa3;" glyph-name="sterling" horiz-adv-x="1144" d="M294 895V1064Q294 1270 362 1359Q439 1460 631 1460Q760 1460 938 1417L907 1278Q755 1311 664 1311Q534 1311 499 1258Q482 1233 478 1196T473 1088V895H816V741H473V154H1024V0H294V741H120V895H294Z"
/>
<glyph unicode="&#xa5;" glyph-name="yen" horiz-adv-x="1299" d="M1234 1438L811 763H994V617H739V439H994V293H739V0H560V293H305V439H560V617H305V763H488L65 1438H269L649 802L1030 1438H1234Z" />
<glyph unicode="&#xa6;" glyph-name="brokenbar" horiz-adv-x="600" d="M230 1571H385V901H230V1571ZM230 539H385V-131H230V539Z" />
<glyph unicode="&#xa7;" glyph-name="section" horiz-adv-x="963" d="M803 1376L741 1252Q614 1305 483 1305Q394 1305 339 1271T283 1160Q283 1127 296 1101T329 1059T383 1028T446 1005T520 986Q585 971 632 956T725 915T799 857T845 776T863 667Q863 517 752
435Q863 358 863 205Q863 100 807 28T661 -77T455 -109Q270 -109 100 -29L162 94Q318 26 458 26Q562 26 630 70T698 205Q698 240 685 267T651 312T598 344T534 366T461 383Q385 398 328 420T221 479T145 570T118 698Q118 847 246 922Q118 1005 118 1160Q118 1298
223 1369T485 1440Q653 1440 803 1376ZM283 698Q283 665 296 639T329 597T383 566T446 543T520 524Q560 515 583 508Q698 551 698 667Q698 701 686 728T654 772T602 804T541 826T471 843Q283 837 283 698Z" />
<glyph unicode="&#xa8;" glyph-name="dieresis" horiz-adv-x="986" d="M273 1418Q297 1418 319 1409T357 1383Q373 1367 382 1345T392 1299Q392 1273 383 1251T357 1213Q341 1197 319 1188T273 1178Q247 1178 225 1187T186 1213Q150 1246 150 1299Q150 1323 159
1345T186 1383Q203 1399 225 1408T273 1418ZM715 1418Q740 1418 762 1409T801 1383Q818 1367 827 1345T836 1299Q836 1246 801 1213Q784 1197 762 1188T715 1178Q691 1178 670 1187T631 1213Q614 1229 604 1251T594 1299Q594 1323 604 1345T631 1383Q648 1399 669
1408T715 1418Z" />
<glyph unicode="&#xa9;" glyph-name="copyright" horiz-adv-x="1649" d="M824 1229Q922 1229 1013 1203T1185 1131T1330 1018T1443 873T1516 702T1542 512Q1542 414 1516 323T1443 152T1331 7T1185 -106T1014 -178T824 -204Q726 -204 635 -179T464 -107T318 5T206
149T133 321T107 512Q107 610 133 701T205 872T318 1018T463 1130T634 1203T824 1229ZM824 1113Q698 1113 588 1066T397 938T269 747T222 512Q222 430 243 353T303 209T397 87T518 -9T662 -71T824 -93Q908 -93 985 -71T1130 -9T1251 86T1345 209T1405 353T1427
512Q1427 636 1380 745T1252 936T1060 1065T824 1113ZM1012 776Q974 791 936 801T854 811Q788 811 740 787T661 722Q631 682 618 628T604 513Q604 445 614 390T650 294Q683 246 736 228T850 209Q897 209 944 218T1034 241L1066 145Q1019 131 961 120T839 109Q751
109 682 130T561 209Q517 258 495 329T472 494Q472 604 500 682T576 811Q625 863 692 887T842 911Q898 911 949 901T1055 870L1012 776Z" />
<glyph unicode="&#xab;" glyph-name="guillemotleft" horiz-adv-x="1360" d="M170 518L613 959L713 860L373 518L714 174L613 75L170 518ZM646 518L1089 959L1189 860L849 518L1190 174L1089 75L646 518Z" />
<glyph unicode="&#xac;" glyph-name="logicalnot" horiz-adv-x="1281" d="M185 612H1096V154H949V465H185V612Z" />
<glyph unicode="&#xad;" glyph-name="uni00AD" horiz-adv-x="1164" d="M204 632H960V484H204V632Z" />
<glyph unicode="&#xae;" glyph-name="registered" horiz-adv-x="1649" d="M824 1229Q922 1229 1013 1203T1185 1131T1330 1018T1443 873T1516 702T1542 512Q1542 414 1516 323T1443 152T1331 7T1185 -106T1014 -178T824 -204Q726 -204 635 -179T464 -107T318 5T206
149T133 321T107 512Q107 610 133 701T205 872T318 1018T463 1130T634 1203T824 1229ZM824 1113Q698 1113 588 1066T397 938T269 747T222 512Q222 430 243 353T303 209T397 87T518 -9T662 -71T824 -93Q908 -93 985 -71T1130 -9T1251 86T1345 209T1405 353T1427
512Q1427 636 1380 745T1252 936T1060 1065T824 1113ZM899 309Q865 358 842 388T798 435Q776 452 756 458T709 464H698V125H571V895H843Q899 895 948 883T1033 845T1089 779T1110 683Q1110 635 1093 597T1047 532T979 489T896 468Q914 457 930 442T968 403Q989
377 1011 348T1056 288L1175 125H1026L899 309ZM823 557Q857 557 886 563T936 583T969 620T981 679Q981 715 969 738T936 776T886 796T823 802H698V557H823Z" />
<glyph unicode="&#xaf;" glyph-name="overscore" horiz-adv-x="623" d="M55 1709H568V1588H55V1709Z" />
<glyph unicode="&#xb0;" glyph-name="degree" horiz-adv-x="771" d="M385 1504Q445 1504 497 1482T588 1422T649 1331T671 1218Q671 1158 649 1106T589 1016T498 955T385 933Q325 933 273 955T183 1015T122 1106T100 1218Q100 1278 122 1330T182 1421T273 1482T385
1504ZM385 1364Q354 1364 328 1353T282 1323T251 1276T239 1218Q239 1187 250 1161T281 1115T327 1084T385 1072Q416 1072 443 1083T489 1114T520 1160T531 1218Q531 1249 520 1276T490 1322T443 1353T385 1364Z" />
<glyph unicode="&#xb1;" glyph-name="plusminus" horiz-adv-x="1134" d="M979 745V608H633V263H496V608H151V745H497V1091H634V745H979ZM151 0V137H979V0H151Z" />
<glyph unicode="&#xb4;" glyph-name="acute" horiz-adv-x="575" d="M229 1443L178 1620Q243 1667 299 1667Q361 1667 396 1634T433 1553T415 1450Q387 1383 272 1181H150L229 1443Z" />
<glyph unicode="&#xb6;" glyph-name="paragraph" horiz-adv-x="600" />
<glyph unicode="&#xb7;" glyph-name="middot" horiz-adv-x="584" d="M292 706Q319 706 341 697T380 671T405 632T414 584Q414 559 405 537T379 498T340 472T292 462Q267 462 245 471T206 497T180 536T170 584Q170 611 180 633T206 671T245 697T292 706Z" />
<glyph unicode="&#xb8;" glyph-name="cedilla" horiz-adv-x="756" d="M362 0H483L394 -112Q471 -136 504 -171T538 -262Q538 -345 480 -386T325 -427Q249 -427 149 -396L199 -304Q269 -347 331 -347Q371 -347 392 -325T413 -272Q413 -238 377 -213T263 -163L362 0Z" />
<glyph unicode="&#xbb;" glyph-name="guillemotright" horiz-adv-x="1360" d="M171 860L271 959L714 518L271 75L170 174L511 518L171 860ZM647 860L747 959L1190 518L747 75L646 174L987 518L647 860Z" />
<glyph unicode="&#xbf;" glyph-name="questiondown" horiz-adv-x="1012" d="M636 1063Q660 1063 682 1054T722 1028T749 989T759 941Q759 916 749 894T723 855T684 829T636 819Q611 819 589 828T550 854T524 893T514 941Q514 965 523 987T549 1026T588 1053T636
1063ZM764 297Q648 246 563 212T422 143T338 60T310 -64Q310 -124 327 -162T376 -222T449 -252T541 -261Q582 -261 623 -254T704 -236T782 -210T853 -179Q863 -220 870 -259T882 -340Q790 -378 705 -397T534 -417Q460 -417 388 -402T258 -348T166 -240T130 -64Q130
29 159 94T244 208T381 297T565 382V621L704 661L764 297Z" />
<glyph unicode="&#xc0;" glyph-name="Agrave" horiz-adv-x="1369" d="M737 1571H615Q500 1773 472 1840Q453 1894 454 1942T490 2024T588 2057Q644 2057 709 2010L658 1833L737 1571ZM1158 0L969 489H400L211 0H20L590 1438H779L1349 0H1158ZM459 643H910L684
1228L459 643Z" />
<glyph unicode="&#xc1;" glyph-name="Aacute" horiz-adv-x="1369" d="M709 1833L658 2010Q723 2057 779 2057Q841 2057 876 2024T913 1943T895 1840Q867 1773 752 1571H630L709 1833ZM1158 0L969 489H400L211 0H20L590 1438H779L1349 0H1158ZM459 643H910L684
1228L459 643Z" />
<glyph unicode="&#xc2;" glyph-name="Acircumflex" horiz-adv-x="1369" d="M367 1648L684 1902L997 1648L926 1561L684 1702L438 1561L367 1648ZM1158 0L969 489H400L211 0H20L590 1438H779L1349 0H1158ZM459 643H910L684 1228L459 643Z" />
<glyph unicode="&#xc3;" glyph-name="Atilde" horiz-adv-x="1369" d="M898 1778H998Q983 1683 940 1632Q887 1571 799 1571Q759 1571 669 1605T541 1639Q510 1639 488 1614T466 1563H363Q375 1643 421 1700Q474 1768 550 1768Q598 1768 684 1733T808 1698Q876
1698 898 1778ZM1158 0L969 489H400L211 0H20L590 1438H779L1349 0H1158ZM459 643H910L684 1228L459 643Z" />
<glyph unicode="&#xc4;" glyph-name="Adieresis" horiz-adv-x="1369" d="M464 1798Q488 1798 510 1789T548 1763Q564 1747 573 1725T583 1679Q583 1653 574 1631T548 1593Q532 1577 510 1568T464 1558Q438 1558 416 1567T377 1593Q341 1626 341 1679Q341 1703
350 1725T377 1763Q394 1779 416 1788T464 1798ZM906 1798Q931 1798 953 1789T992 1763Q1009 1747 1018 1725T1027 1679Q1027 1626 992 1593Q975 1577 953 1568T906 1558Q882 1558 861 1567T822 1593Q805 1609 795 1631T785 1679Q785 1703 795 1725T822 1763Q839
1779 860 1788T906 1798ZM969 489H400L211 0H20L590 1438H779L1349 0H1158L969 489ZM910 643L684 1228L459 643H910Z" />
<glyph unicode="&#xc5;" glyph-name="Aring" horiz-adv-x="1369" d="M685 1922Q722 1922 754 1909T811 1871T848 1815T862 1745Q862 1708 849 1676T811 1619T755 1582T685 1568Q648 1568 616 1581T559 1619T522 1675T508 1745Q508 1782 521 1814T559 1871T615
1908T685 1922ZM685 1828Q650 1828 626 1804T602 1745Q602 1710 626 1686T685 1662Q720 1662 744 1686T768 1745Q768 1780 744 1804T685 1828ZM969 489H400L211 0H20L590 1438H779L1349 0H1158L969 489ZM910 643L684 1228L459 643H910Z" />
<glyph unicode="&#xc6;" glyph-name="AE" horiz-adv-x="1862" d="M1102 154H1734V0H914V489H499L229 0H0L834 1438H1712V1284H1102V887H1533V733H1102V154ZM584 643H914V1240L584 643Z" />
<glyph unicode="&#xc7;" glyph-name="Ccedilla" horiz-adv-x="1239" d="M721 -112Q799 -136 832 -171T865 -262Q865 -305 849 -336T805 -387T737 -417T652 -427Q610 -427 566 -419T476 -396L526 -304Q566 -324 597 -335T658 -347Q700 -347 720 -324T740 -272Q740
-236 703 -212T590 -163L675 -22Q396 -5 256 176T115 698Q115 1076 271 1268T733 1460Q849 1460 941 1440T1120 1388L1068 1240Q1027 1255 987 1267T907 1287T823 1299T733 1303Q622 1303 542 1264T410 1149T333 965T308 718Q308 576 333 467T410 284T542 171T733
133Q835 133 927 150T1110 195L1157 41Q1076 15 986 -1T792 -23L721 -112Z" />
<glyph unicode="&#xc8;" glyph-name="Egrave" horiz-adv-x="1131" d="M667 1571H545Q430 1773 402 1840Q383 1894 384 1942T420 2024T518 2057Q574 2057 639 2010L588 1833L667 1571ZM182 1438H980V1284H370V887H802V733H370V154H1003V0H182V1438Z" />
<glyph unicode="&#xc9;" glyph-name="Eacute" horiz-adv-x="1131" d="M598 1833L547 2010Q612 2057 668 2057Q730 2057 765 2024T802 1943T784 1840Q756 1773 641 1571H519L598 1833ZM182 1438H980V1284H370V887H802V733H370V154H1003V0H182V1438Z" />
<glyph unicode="&#xca;" glyph-name="Ecircumflex" horiz-adv-x="1131" d="M274 1648L591 1902L904 1648L833 1561L591 1702L345 1561L274 1648ZM182 1438H980V1284H370V887H802V733H370V154H1003V0H182V1438Z" />
<glyph unicode="&#xcb;" glyph-name="Edieresis" horiz-adv-x="1131" d="M361 1798Q385 1798 407 1789T445 1763Q461 1747 470 1725T480 1679Q480 1653 471 1631T445 1593Q429 1577 407 1568T361 1558Q335 1558 313 1567T274 1593Q238 1626 238 1679Q238 1703
247 1725T274 1763Q291 1779 313 1788T361 1798ZM803 1798Q828 1798 850 1789T889 1763Q906 1747 915 1725T924 1679Q924 1626 889 1593Q872 1577 850 1568T803 1558Q779 1558 758 1567T719 1593Q702 1609 692 1631T682 1679Q682 1703 692 1725T719 1763Q736 1779
757 1788T803 1798ZM980 1438V1284H370V887H802V733H370V154H1003V0H182V1438H980Z" />
<glyph unicode="&#xcc;" glyph-name="Igrave" horiz-adv-x="596" d="M367 1571H245Q130 1773 102 1840Q83 1894 84 1942T120 2024T218 2057Q274 2057 339 2010L288 1833L367 1571ZM205 1438H393V0H205V1438Z" />
<glyph unicode="&#xcd;" glyph-name="Iacute" horiz-adv-x="596" d="M340 1833L289 2010Q354 2057 410 2057Q472 2057 507 2024T544 1943T526 1840Q498 1773 383 1571H261L340 1833ZM204 1438H392V0H204V1438Z" />
<glyph unicode="&#xce;" glyph-name="Icircumflex" horiz-adv-x="596" d="M-16 1648L301 1902L614 1648L543 1561L301 1702L55 1561L-16 1648ZM204 1438H392V0H204V1438Z" />
<glyph unicode="&#xcf;" glyph-name="Idieresis" horiz-adv-x="596" d="M76 1798Q100 1798 122 1789T160 1763Q176 1747 185 1725T195 1679Q195 1653 186 1631T160 1593Q144 1577 122 1568T76 1558Q50 1558 28 1567T-11 1593Q-47 1626 -47 1679Q-47 1703 -38 1725T-11
1763Q6 1779 28 1788T76 1798ZM518 1798Q543 1798 565 1789T604 1763Q621 1747 630 1725T639 1679Q639 1626 604 1593Q587 1577 565 1568T518 1558Q494 1558 473 1567T434 1593Q417 1609 407 1631T397 1679Q397 1703 407 1725T434 1763Q451 1779 472 1788T518 1798ZM392
1438V0H204V1438H392Z" />
<glyph unicode="&#xd0;" glyph-name="Eth" horiz-adv-x="1376" d="M486 1438Q609 1438 714 1426T908 1382Q996 1351 1062 1300T1177 1168Q1224 1088 1248 978T1272 719Q1272 570 1248 460T1177 270Q1129 190 1063 139T908 56Q820 25 715 13T486 0H182V650H-102V798H182V1438H486ZM517
154Q670 154 776 184T951 284Q1018 353 1048 459T1079 719Q1079 872 1049 978T951 1154Q883 1223 777 1253T517 1284H370V798H654V650H370V154H517Z" />
<glyph unicode="&#xd1;" glyph-name="Ntilde" horiz-adv-x="1529" d="M1019 1778H1119Q1104 1683 1061 1632Q1008 1571 920 1571Q880 1571 790 1605T662 1639Q631 1639 609 1614T587 1563H484Q496 1643 542 1700Q595 1768 671 1768Q719 1768 805 1733T929 1698Q997
1698 1019 1778ZM1351 -10H1131L366 1192V0H178V1438H398L1163 236V1438H1351V-10Z" />
<glyph unicode="&#xd2;" glyph-name="Ograve" horiz-adv-x="1482" d="M827 1571H705Q590 1773 562 1840Q543 1894 544 1942T580 2024T678 2057Q734 2057 799 2010L748 1833L827 1571ZM1372 719Q1372 358 1209 167T741 -24Q439 -24 275 166T110 719Q110 1080 275
1270T741 1460Q1046 1460 1209 1269T1372 719ZM1179 719Q1179 997 1070 1150T740 1303Q519 1303 411 1149T303 719Q303 584 328 478T406 294T543 175T740 133Q960 133 1069 286T1179 719Z" />
<glyph unicode="&#xd3;" glyph-name="Oacute" horiz-adv-x="1482" d="M757 1833L706 2010Q771 2057 827 2057Q889 2057 924 2024T961 1943T943 1840Q915 1773 800 1571H678L757 1833ZM1372 719Q1372 358 1209 167T741 -24Q439 -24 275 166T110 719Q110 1080 275
1270T741 1460Q1046 1460 1209 1269T1372 719ZM1179 719Q1179 997 1070 1150T740 1303Q519 1303 411 1149T303 719Q303 584 328 478T406 294T543 175T740 133Q960 133 1069 286T1179 719Z" />
<glyph unicode="&#xd4;" glyph-name="Ocircumflex" horiz-adv-x="1482" d="M430 1648L747 1902L1060 1648L989 1561L747 1702L501 1561L430 1648ZM1372 719Q1372 358 1209 167T741 -24Q439 -24 275 166T110 719Q110 1080 275 1270T741 1460Q1046 1460 1209 1269T1372
719ZM1179 719Q1179 997 1070 1150T740 1303Q519 1303 411 1149T303 719Q303 584 328 478T406 294T543 175T740 133Q960 133 1069 286T1179 719Z" />
<glyph unicode="&#xd5;" glyph-name="Otilde" horiz-adv-x="1482" d="M943 1778H1043Q1028 1683 985 1632Q932 1571 844 1571Q804 1571 714 1605T586 1639Q555 1639 533 1614T511 1563H408Q420 1643 466 1700Q519 1768 595 1768Q643 1768 729 1733T853 1698Q921
1698 943 1778ZM1372 719Q1372 358 1209 167T741 -24Q439 -24 275 166T110 719Q110 1080 275 1270T741 1460Q1046 1460 1209 1269T1372 719ZM1179 719Q1179 997 1070 1150T740 1303Q519 1303 411 1149T303 719Q303 584 328 478T406 294T543 175T740 133Q960 133
1069 286T1179 719Z" />
<glyph unicode="&#xd6;" glyph-name="Odieresis" horiz-adv-x="1482" d="M520 1798Q544 1798 566 1789T604 1763Q620 1747 629 1725T639 1679Q639 1653 630 1631T604 1593Q588 1577 566 1568T520 1558Q494 1558 472 1567T433 1593Q397 1626 397 1679Q397 1703
406 1725T433 1763Q450 1779 472 1788T520 1798ZM962 1798Q987 1798 1009 1789T1048 1763Q1065 1747 1074 1725T1083 1679Q1083 1626 1048 1593Q1031 1577 1009 1568T962 1558Q938 1558 917 1567T878 1593Q861 1609 851 1631T841 1679Q841 1703 851 1725T878 1763Q895
1779 916 1788T962 1798ZM1372 719Q1372 538 1331 399T1209 166T1011 24T741 -24Q592 -24 475 23T276 164T153 397T110 719Q110 901 152 1039T276 1271T474 1412T741 1460Q894 1460 1011 1412T1209 1269T1330 1036T1372 719ZM1179 719Q1179 854 1153 962T1072 1146T935
1262T740 1303Q626 1303 543 1262T407 1144T329 959T303 719Q303 586 328 478T407 293T543 175T740 133Q852 133 935 173T1072 290T1152 474T1179 719Z" />
<glyph unicode="&#xd7;" glyph-name="multiply" horiz-adv-x="983" d="M833 289L736 192L491 437L247 193L151 290L395 534L150 778L247 875L492 630L737 875L833 778L589 534L833 289Z" />
<glyph unicode="&#xd8;" glyph-name="Oslash" horiz-adv-x="1482" d="M1192 1438L1141 1335Q1372 1148 1372 719Q1372 358 1209 167T741 -24Q602 -24 491 17L482 0H323L364 84Q110 267 110 719Q110 1080 275 1270T741 1460Q897 1460 1018 1408L1033 1438H1192ZM445
247L944 1258Q856 1303 740 1303Q519 1303 411 1149T303 719Q303 395 445 247ZM1057 1165L564 165Q640 133 740 133Q960 133 1069 286T1179 719Q1179 1017 1057 1165Z" />
<glyph unicode="&#xd9;" glyph-name="Ugrave" horiz-adv-x="1486" d="M807 1571H685Q570 1773 542 1840Q523 1894 524 1942T560 2024T658 2057Q714 2057 779 2010L728 1833L807 1571ZM1128 1438H1316V607Q1316 293 1175 135T742 -24Q170 -24 170 607V1438H358V606Q358
496 377 413T439 265T558 167T742 133Q830 133 897 155T1008 218T1078 318T1117 448T1128 606V1438Z" />
<glyph unicode="&#xda;" glyph-name="Uacute" horiz-adv-x="1486" d="M743 1833L692 2010Q757 2057 813 2057Q875 2057 910 2024T947 1943T929 1840Q901 1773 786 1571H664L743 1833ZM1128 1438H1316V607Q1316 293 1175 135T742 -24Q170 -24 170 607V1438H358V606Q358
496 377 413T439 265T558 167T742 133Q830 133 897 155T1008 218T1078 318T1117 448T1128 606V1438Z" />
<glyph unicode="&#xdb;" glyph-name="Ucircumflex" horiz-adv-x="1486" d="M426 1648L743 1902L1056 1648L985 1561L743 1702L497 1561L426 1648ZM1128 1438H1316V607Q1316 293 1175 135T742 -24Q170 -24 170 607V1438H358V606Q358 496 377 413T439 265T558 167T742
133Q830 133 897 155T1008 218T1078 318T1117 448T1128 606V1438Z" />
<glyph unicode="&#xdc;" glyph-name="Udieresis" horiz-adv-x="1486" d="M522 1798Q546 1798 568 1789T606 1763Q622 1747 631 1725T641 1679Q641 1653 632 1631T606 1593Q590 1577 568 1568T522 1558Q496 1558 474 1567T435 1593Q399 1626 399 1679Q399 1703
408 1725T435 1763Q452 1779 474 1788T522 1798ZM964 1798Q989 1798 1011 1789T1050 1763Q1067 1747 1076 1725T1085 1679Q1085 1626 1050 1593Q1033 1577 1011 1568T964 1558Q940 1558 919 1567T880 1593Q863 1609 853 1631T843 1679Q843 1703 853 1725T880 1763Q897
1779 918 1788T964 1798ZM1316 1438V607Q1316 296 1177 136T742 -24Q594 -24 487 17T309 138T204 335T170 607V1438H358V606Q358 500 376 413T439 264T558 167T742 133Q855 133 929 167T1048 264T1110 414T1128 606V1438H1316Z" />
<glyph unicode="&#xdd;" glyph-name="Yacute" horiz-adv-x="1357" d="M688 1833L637 2010Q702 2057 758 2057Q820 2057 855 2024T892 1943T874 1840Q846 1773 731 1571H609L688 1833ZM1078 1438H1292L772 648V0H585V648L65 1438H279L678 802L1078 1438Z" />
<glyph unicode="&#xde;" glyph-name="Thorn" horiz-adv-x="1246" d="M375 1191H665Q886 1191 1009 1079T1132 757Q1132 541 983 430T575 318Q483 318 373 334V0H185V1438H375V1191ZM373 1037V488Q483 470 568 470Q649 470 715 485T833 533T915 622T944 755Q944
898 866 967T643 1037H373Z" />
<glyph unicode="&#xdf;" glyph-name="germandbls" horiz-adv-x="1240" d="M186 0V1104Q186 1277 320 1370Q440 1456 613 1456Q788 1456 903 1374Q968 1327 1000 1255T1033 1100Q1033 1005 994 929T873 781Q983 742 1046 652T1110 436Q1110 210 975 93T606 -25Q544
-25 479 -13L528 139Q570 130 609 130Q760 130 847 209T934 422Q934 487 912 536T860 614T780 662T692 689T599 704L632 840Q640 839 727 828Q791 878 826 947T862 1089Q862 1182 803 1238Q734 1305 613 1305Q501 1305 430 1253T359 1101V0H186Z" />
<glyph unicode="&#xe0;" glyph-name="agrave" horiz-adv-x="1041" d="M613 1211H491Q376 1413 348 1480Q329 1534 330 1582T366 1664T464 1697Q520 1697 585 1650L534 1473L613 1211ZM229 856L185 996Q353 1063 537 1063Q698 1063 783 1009Q880 947 880 798V389Q880
307 882 221Q883 170 892 115Q900 63 913 16L749 -20Q726 47 720 130L700 132Q576 -24 384 -24Q244 -24 159 53T74 272Q74 377 120 444T252 557Q386 630 627 630Q659 630 713 628V780Q713 852 669 884T531 916Q394 916 229 856ZM713 292V502Q686 504 634 504Q546
504 472 489Q362 467 302 420T241 283Q241 123 415 123Q505 123 583 171Q647 211 713 292Z" />
<glyph unicode="&#xe1;" glyph-name="aacute" horiz-adv-x="1041" d="M550 1473L499 1650Q564 1697 620 1697Q682 1697 717 1664T754 1583T736 1480Q708 1413 593 1211H471L550 1473ZM229 856L185 996Q353 1063 537 1063Q698 1063 783 1009Q880 947 880 798V389Q880
307 882 221Q883 170 892 115Q900 63 913 16L749 -20Q726 47 720 130L700 132Q576 -24 384 -24Q244 -24 159 53T74 272Q74 377 120 444T252 557Q386 630 627 630Q659 630 713 628V780Q713 852 669 884T531 916Q394 916 229 856ZM713 292V502Q686 504 634 504Q546
504 472 489Q362 467 302 420T241 283Q241 123 415 123Q505 123 583 171Q647 211 713 292Z" />
<glyph unicode="&#xe2;" glyph-name="acircumflex" horiz-adv-x="1041" d="M204 1278L521 1532L834 1278L763 1191L521 1332L275 1191L204 1278ZM229 856L185 996Q353 1063 537 1063Q698 1063 783 1009Q880 947 880 798V389Q880 307 882 221Q883 170 892 115Q900
63 913 16L749 -20Q726 47 720 130L700 132Q576 -24 384 -24Q244 -24 159 53T74 272Q74 377 120 444T252 557Q386 630 627 630Q659 630 713 628V780Q713 852 669 884T531 916Q394 916 229 856ZM713 292V502Q686 504 634 504Q546 504 472 489Q362 467 302 420T241
283Q241 123 415 123Q505 123 583 171Q647 211 713 292Z" />
<glyph unicode="&#xe3;" glyph-name="atilde" horiz-adv-x="1041" d="M706 1408H806Q791 1313 748 1262Q695 1201 607 1201Q567 1201 477 1235T349 1269Q318 1269 296 1244T274 1193H171Q183 1273 229 1330Q282 1398 358 1398Q406 1398 492 1363T616 1328Q684
1328 706 1408ZM229 856L185 996Q353 1063 537 1063Q698 1063 783 1009Q880 947 880 798V389Q880 307 882 221Q883 170 892 115Q900 63 913 16L749 -20Q726 47 720 130L700 132Q576 -24 384 -24Q244 -24 159 53T74 272Q74 377 120 444T252 557Q386 630 627 630Q659
630 713 628V780Q713 852 669 884T531 916Q394 916 229 856ZM713 292V502Q686 504 634 504Q546 504 472 489Q362 467 302 420T241 283Q241 123 415 123Q505 123 583 171Q647 211 713 292Z" />
<glyph unicode="&#xe4;" glyph-name="adieresis" horiz-adv-x="1041" d="M283 1428Q307 1428 329 1419T367 1393Q383 1377 392 1355T402 1309Q402 1283 393 1261T367 1223Q351 1207 329 1198T283 1188Q257 1188 235 1197T196 1223Q160 1256 160 1309Q160 1333
169 1355T196 1393Q213 1409 235 1418T283 1428ZM725 1428Q750 1428 772 1419T811 1393Q828 1377 837 1355T846 1309Q846 1256 811 1223Q794 1207 772 1198T725 1188Q701 1188 680 1197T641 1223Q624 1239 614 1261T604 1309Q604 1333 614 1355T641 1393Q658 1409
679 1418T725 1428ZM185 996Q266 1028 355 1045T537 1063Q612 1063 673 1051T783 1009Q831 979 855 928T880 798V389Q880 335 880 294T882 221Q883 188 885 163T892 115Q896 91 900 69T913 16L749 -20Q737 15 730 52T720 130L700 132Q665 88 627 59T548 11T466
-16T384 -24Q316 -24 259 -5T161 51T97 144T74 272Q74 328 87 371T124 449T180 510T252 557Q330 599 427 614T627 630Q647 630 670 630T713 628V780Q713 852 669 884T531 916Q446 916 371 898T229 856L185 996ZM713 502Q693 504 674 504T634 504Q601 504 559 501T472
489Q422 479 380 464T307 424T259 365T241 283Q241 197 288 160T415 123Q463 123 504 135T583 171Q619 194 651 224T713 292V502Z" />
<glyph unicode="&#xe5;" glyph-name="aring" horiz-adv-x="1041" d="M514 1552Q551 1552 583 1539T640 1501T677 1445T691 1375Q691 1338 678 1306T640 1249T584 1212T514 1198Q477 1198 445 1211T388 1249T351 1305T337 1375Q337 1412 350 1444T388 1501T444
1538T514 1552ZM514 1458Q479 1458 455 1434T431 1375Q431 1340 455 1316T514 1292Q549 1292 573 1316T597 1375Q597 1410 573 1434T514 1458ZM185 996Q266 1028 355 1045T537 1063Q612 1063 673 1051T783 1009Q831 979 855 928T880 798V389Q880 335 880 294T882
221Q883 188 885 163T892 115Q896 91 900 69T913 16L749 -20Q737 15 730 52T720 130L700 132Q665 88 627 59T548 11T466 -16T384 -24Q316 -24 259 -5T161 51T97 144T74 272Q74 328 87 371T124 449T180 510T252 557Q330 599 427 614T627 630Q647 630 670 630T713
628V780Q713 852 669 884T531 916Q446 916 371 898T229 856L185 996ZM713 502Q693 504 674 504T634 504Q601 504 559 501T472 489Q422 479 380 464T307 424T259 365T241 283Q241 197 288 160T415 123Q463 123 504 135T583 171Q619 194 651 224T713 292V502Z" />
<glyph unicode="&#xe6;" glyph-name="ae" horiz-adv-x="1705" d="M1612 524V469H876Q881 121 1185 121Q1266 121 1394 155Q1442 168 1506 193L1556 58Q1388 -9 1246 -20Q1213 -24 1173 -24Q943 -24 820 119Q798 145 777 179Q724 111 671 68T565 6T474 -18T384
-24Q244 -24 159 53T74 272Q74 377 120 444T252 557Q386 630 627 630L713 629V780Q713 852 669 884T531 916Q394 916 229 856L185 996Q353 1063 537 1063Q668 1063 733 1034T840 923Q893 990 968 1026T1163 1063Q1362 1063 1476 949Q1612 811 1612 524ZM885 607H1439Q1431
766 1362 842T1163 918Q1034 918 967 843T885 607ZM583 171Q659 219 726 304Q703 390 703 490V503Q680 504 634 504Q546 504 472 489Q362 467 302 420T241 283Q241 123 415 123Q505 123 583 171Z" />
<glyph unicode="&#xe7;" glyph-name="ccedilla" horiz-adv-x="973" d="M535 -112Q613 -136 646 -171T679 -262Q679 -305 663 -336T619 -387T551 -417T466 -427Q424 -427 380 -419T290 -396L340 -304Q380 -324 411 -335T472 -347Q514 -347 534 -324T554 -272Q554
-236 517 -212T404 -163L490 -21Q388 -11 314 28T191 134T118 292T94 500Q94 636 128 741T228 917T388 1026T603 1063Q664 1063 727 1051T855 1019L812 879Q760 896 716 906T622 916Q452 916 360 818T268 520Q268 427 281 354T329 229T423 150T575 123Q635 123
704 138T852 177L895 37Q828 14 753 -2T606 -23L535 -112Z" />
<glyph unicode="&#xe8;" glyph-name="egrave" horiz-adv-x="1102" d="M494 1181Q479 1207 459 1243T418 1316T380 1389T351 1450Q335 1489 333 1528T344 1597T388 1647T467 1667Q495 1667 522 1657T588 1620L537 1443L616 1181H494ZM946 58Q835 14 738 -5T563
-24Q445 -24 357 13T211 119T123 281T93 490Q93 560 103 630T135 763T192 882T279 977T398 1040T553 1063Q776 1063 889 924T1002 524V469H270Q270 385 288 321T343 212T438 144T575 121Q619 121 662 127T747 144T825 168T896 193L946 58ZM829 607Q821 769 752
843T553 918Q424 918 357 844T275 607H829Z" />
<glyph unicode="&#xe9;" glyph-name="eacute" horiz-adv-x="1102" d="M519 1620Q557 1647 584 1657T640 1667Q689 1667 719 1648T762 1598T774 1528T756 1450Q745 1424 727 1389T689 1317T649 1243T613 1181H491L570 1443L519 1620ZM946 58Q835 14 738 -5T563
-24Q445 -24 357 13T211 119T123 281T93 490Q93 560 103 630T135 763T192 882T279 977T398 1040T553 1063Q776 1063 889 924T1002 524V469H270Q270 385 288 321T343 212T438 144T575 121Q619 121 662 127T747 144T825 168T896 193L946 58ZM829 607Q821 769 752
843T553 918Q424 918 357 844T275 607H829Z" />
<glyph unicode="&#xea;" glyph-name="ecircumflex" horiz-adv-x="1102" d="M554 1522L867 1268L796 1181L554 1322L308 1181L237 1268L554 1522ZM946 58Q835 14 738 -5T563 -24Q445 -24 357 13T211 119T123 281T93 490Q93 560 103 630T135 763T192 882T279 977T398
1040T553 1063Q776 1063 889 924T1002 524V469H270Q270 385 288 321T343 212T438 144T575 121Q619 121 662 127T747 144T825 168T896 193L946 58ZM829 607Q821 769 752 843T553 918Q424 918 357 844T275 607H829Z" />
<glyph unicode="&#xeb;" glyph-name="edieresis" horiz-adv-x="1102" d="M334 1418Q358 1418 379 1409T417 1383T443 1345T453 1299Q453 1273 444 1251T418 1213T381 1188T334 1178Q308 1178 286 1187T247 1213T221 1251T211 1299Q211 1324 220 1345T247 1383T286
1408T334 1418ZM776 1418Q801 1418 823 1409T861 1383T887 1346T897 1299Q897 1272 887 1250T861 1212T822 1187T776 1178Q752 1178 730 1187T692 1213T665 1252T655 1299Q655 1324 665 1345T693 1383T731 1408T776 1418ZM946 58Q835 14 738 -5T563 -24Q445 -24
357 13T211 119T123 281T93 490Q93 560 103 630T135 763T192 882T279 977T398 1040T553 1063Q776 1063 889 924T1002 524V469H270Q270 385 288 321T343 212T438 144T575 121Q619 121 662 127T747 144T825 168T896 193L946 58ZM829 607Q821 769 752 843T553 918Q424
918 357 844T275 607H829Z" />
<glyph unicode="&#xec;" glyph-name="igrave" horiz-adv-x="534" d="M325 1211H203Q88 1413 60 1480Q41 1534 42 1582T78 1664T176 1697Q232 1697 297 1650L246 1473L325 1211ZM182 1040H354V0H182V1040Z" />
<glyph unicode="&#xed;" glyph-name="iacute" horiz-adv-x="600" d="M299 1473L248 1650Q313 1697 369 1697Q431 1697 466 1664T503 1583T485 1480Q457 1413 342 1211H220L299 1473ZM181 1040H353V0H181V1040Z" />
<glyph unicode="&#xee;" glyph-name="icircumflex" horiz-adv-x="600" d="M-16 1278L301 1532L614 1278L543 1191L301 1332L55 1191L-16 1278ZM212 1040H384V0H212V1040Z" />
<glyph unicode="&#xef;" glyph-name="idieresis" horiz-adv-x="534" d="M47 1428Q71 1428 93 1419T131 1393Q147 1377 156 1355T166 1309Q166 1283 157 1261T131 1223Q115 1207 93 1198T47 1188Q21 1188 -1 1197T-40 1223Q-76 1256 -76 1309Q-76 1333 -67 1355T-40
1393Q-23 1409 -1 1418T47 1428ZM489 1428Q514 1428 536 1419T575 1393Q592 1377 601 1355T610 1309Q610 1256 575 1223Q558 1207 536 1198T489 1188Q465 1188 444 1197T405 1223Q388 1239 378 1261T368 1309Q368 1333 378 1355T405 1393Q422 1409 443 1418T489
1428ZM353 1040V0H181V1040H353Z" />
<glyph unicode="&#xf0;" glyph-name="eth" horiz-adv-x="1130" d="M769 1405L708 1355Q869 1251 954 1041Q1032 848 1040 564Q1044 430 1017 323T933 138T783 18T564 -24Q445 -24 352 18T203 131T119 291T90 478Q90 704 203 831Q311 950 505 950Q667 950 819 847Q768
1140 575 1247L284 1010V1161L448 1295Q343 1319 211 1312V1460Q430 1474 593 1413L769 1556V1405ZM564 133Q628 133 678 153T762 208T816 293T847 399T856 522Q856 605 842 666Q776 721 694 757T543 793Q420 793 349 722Q274 644 274 473Q274 316 348 225T564
133Z" />
<glyph unicode="&#xf1;" glyph-name="ntilde" horiz-adv-x="1147" d="M810 1408H910Q895 1313 852 1262Q799 1201 711 1201Q671 1201 581 1235T453 1269Q422 1269 400 1244T378 1193H275Q287 1273 333 1330Q386 1398 462 1398Q510 1398 596 1363T720 1328Q788
1328 810 1408ZM135 1022L301 1059Q320 999 328 943Q332 916 338 836H359Q414 937 495 997Q584 1063 683 1063Q832 1063 910 991Q977 930 1003 804Q1020 718 1020 548V0H848V596Q848 745 819 809Q776 904 646 904Q554 904 466 816Q407 757 340 643V0H168V640Q168
775 161 873Q157 934 135 1022Z" />
<glyph unicode="&#xf2;" glyph-name="ograve" horiz-adv-x="1113" d="M496 1211Q481 1237 461 1273T420 1346T382 1419T353 1480Q337 1519 335 1558T346 1627T390 1677T469 1697Q497 1697 524 1687T590 1650L539 1473L618 1211H496ZM555 1063Q604 1063 657 1056T761
1027Q812 1005 857 968T938 870Q973 809 993 724T1013 520Q1013 402 993 317T938 171Q903 110 858 72T761 13Q710 -9 657 -16T555 -24Q507 -24 455 -17T351 13Q300 34 255 72T175 171Q140 231 120 316T100 520Q100 638 120 723T175 870Q210 930 255 967T351 1027Q402
1048 454 1055T555 1063ZM555 922Q498 922 448 904T359 841Q320 795 297 718T274 520Q274 400 297 323T359 200Q397 154 447 137T555 119Q613 119 664 136T755 200Q794 245 816 322T839 520Q839 641 817 718T755 841Q716 886 665 904T555 922Z" />
<glyph unicode="&#xf3;" glyph-name="oacute" horiz-adv-x="1113" d="M517 1650Q555 1677 582 1687T638 1697Q687 1697 717 1678T760 1628T772 1558T754 1480Q743 1454 725 1419T687 1347T647 1273T611 1211H489L568 1473L517 1650ZM555 1063Q604 1063 657 1056T761
1027Q812 1005 857 968T938 870Q973 809 993 724T1013 520Q1013 402 993 317T938 171Q903 110 858 72T761 13Q710 -9 657 -16T555 -24Q507 -24 455 -17T351 13Q300 34 255 72T175 171Q140 231 120 316T100 520Q100 638 120 723T175 870Q210 930 255 967T351 1027Q402
1048 454 1055T555 1063ZM555 922Q498 922 448 904T359 841Q320 795 297 718T274 520Q274 400 297 323T359 200Q397 154 447 137T555 119Q613 119 664 136T755 200Q794 245 816 322T839 520Q839 641 817 718T755 841Q716 886 665 904T555 922Z" />
<glyph unicode="&#xf4;" glyph-name="ocircumflex" horiz-adv-x="1113" d="M561 1532L874 1278L803 1191L561 1332L315 1191L244 1278L561 1532ZM555 1063Q604 1063 657 1056T761 1027Q812 1005 857 968T938 870Q973 809 993 724T1013 520Q1013 402 993 317T938
171Q903 110 858 72T761 13Q710 -9 657 -16T555 -24Q507 -24 455 -17T351 13Q300 34 255 72T175 171Q140 231 120 316T100 520Q100 638 120 723T175 870Q210 930 255 967T351 1027Q402 1048 454 1055T555 1063ZM555 922Q498 922 448 904T359 841Q320 795 297 718T274
520Q274 400 297 323T359 200Q397 154 447 137T555 119Q613 119 664 136T755 200Q794 245 816 322T839 520Q839 641 817 718T755 841Q716 886 665 904T555 922Z" />
<glyph unicode="&#xf5;" glyph-name="otilde" horiz-adv-x="1113" d="M874 1408Q867 1366 853 1328T816 1262Q792 1234 758 1218T675 1201Q646 1201 613 1211T545 1235Q511 1248 478 1258T417 1269Q402 1269 388 1262T364 1244Q354 1233 348 1220T342 1193H239Q244
1227 258 1263T297 1330Q320 1360 352 1379T426 1398Q463 1398 495 1387T560 1363Q592 1350 622 1339T684 1328Q722 1328 743 1350T774 1408H874ZM555 1063Q604 1063 657 1056T761 1027Q812 1005 857 968T938 870Q973 809 993 724T1013 520Q1013 402 993 317T938
171Q903 110 858 72T761 13Q710 -9 657 -16T555 -24Q507 -24 455 -17T351 13Q300 34 255 72T175 171Q140 231 120 316T100 520Q100 638 120 723T175 870Q210 930 255 967T351 1027Q402 1048 454 1055T555 1063ZM555 922Q498 922 448 904T359 841Q320 795 297 718T274
520Q274 400 297 323T359 200Q397 154 447 137T555 119Q613 119 664 136T755 200Q794 245 816 322T839 520Q839 641 817 718T755 841Q716 886 665 904T555 922Z" />
<glyph unicode="&#xf6;" glyph-name="odieresis" horiz-adv-x="1113" d="M341 1428Q365 1428 387 1419T425 1393Q441 1377 450 1355T460 1309Q460 1283 451 1261T425 1223Q409 1207 387 1198T341 1188Q315 1188 293 1197T254 1223Q218 1256 218 1309Q218 1333
227 1355T254 1393Q271 1409 293 1418T341 1428ZM783 1428Q808 1428 830 1419T869 1393Q886 1377 895 1355T904 1309Q904 1256 869 1223Q852 1207 830 1198T783 1188Q759 1188 738 1197T699 1223Q682 1239 672 1261T662 1309Q662 1333 672 1355T699 1393Q716 1409
737 1418T783 1428ZM555 1063Q604 1063 657 1056T761 1027Q812 1005 857 968T938 870Q973 809 993 724T1013 520Q1013 402 993 317T938 171Q903 110 858 72T761 13Q710 -9 657 -16T555 -24Q507 -24 455 -17T351 13Q300 34 255 72T175 171Q140 231 120 316T100 520Q100
638 120 723T175 870Q210 930 255 967T351 1027Q402 1048 454 1055T555 1063ZM555 922Q498 922 448 904T359 841Q320 795 297 718T274 520Q274 400 297 323T359 200Q397 154 447 137T555 119Q613 119 664 136T755 200Q794 245 816 322T839 520Q839 641 817 718T755
841Q716 886 665 904T555 922Z" />
<glyph unicode="&#xf7;" glyph-name="divide" horiz-adv-x="1130" d="M565 769Q543 769 524 777T491 800T468 834T459 876Q459 898 467 917T490 950T524 973T565 982Q587 982 606 974T640 951T663 917T672 876Q672 854 664 835T641 801T607 778T565 769ZM151 471V608H979V471H151ZM565
310Q587 310 606 302T640 279T663 245T672 203Q672 181 664 162T641 129T607 106T565 97Q543 97 524 105T491 128T468 162T459 203Q459 225 467 244T490 278T524 301T565 310Z" />
<glyph unicode="&#xf8;" glyph-name="oslash" horiz-adv-x="1113" d="M856 968Q904 929 938 870Q973 809 993 724T1013 520Q1013 402 993 317T938 171Q903 110 858 72T761 13Q710 -9 657 -16T555 -24Q513 -24 469 -19T379 2L280 -199H121L255 72Q232 92 212 116T175
171Q140 231 120 316T100 520Q100 638 120 723T175 870Q210 930 255 967T351 1027Q402 1048 454 1055T555 1063Q597 1063 642 1058T732 1038L831 1239H990L856 968ZM665 904Q639 914 612 918T555 922Q498 922 448 904T359 841Q320 795 297 718T274 520Q274 420
290 350T335 234L665 904ZM446 137Q472 127 499 123T555 119Q613 119 664 136T755 200Q794 245 816 322T839 520Q839 622 823 692T778 809L446 137Z" />
<glyph unicode="&#xf9;" glyph-name="ugrave" horiz-adv-x="1158" d="M631 1211H509Q394 1413 366 1480Q347 1534 348 1582T384 1664T482 1697Q538 1697 603 1650L552 1473L631 1211ZM1028 18L862 -19Q843 41 835 97Q831 123 825 203H804Q749 102 668 42Q579 -24
480 -24Q331 -24 253 48Q186 109 160 235Q143 321 143 491V1040H315V443Q315 294 344 230Q387 135 517 135Q609 135 697 223Q756 282 823 396V1040H995V398Q995 265 1002 167Q1006 106 1028 18Z" />
<glyph unicode="&#xfa;" glyph-name="uacute" horiz-adv-x="1158" d="M572 1473L521 1650Q586 1697 642 1697Q704 1697 739 1664T776 1583T758 1480Q730 1413 615 1211H493L572 1473ZM1028 18L862 -19Q843 41 835 97Q831 123 825 203H804Q749 102 668 42Q579 -24
480 -24Q331 -24 253 48Q186 109 160 235Q143 321 143 491V1040H315V443Q315 294 344 230Q387 135 517 135Q609 135 697 223Q756 282 823 396V1040H995V398Q995 265 1002 167Q1006 106 1028 18Z" />
<glyph unicode="&#xfb;" glyph-name="ucircumflex" horiz-adv-x="1158" d="M254 1278L571 1532L884 1278L813 1191L571 1332L325 1191L254 1278ZM1028 18L862 -19Q843 41 835 97Q831 123 825 203H804Q749 102 668 42Q579 -24 480 -24Q331 -24 253 48Q186 109 160
235Q143 321 143 491V1040H315V443Q315 294 344 230Q387 135 517 135Q609 135 697 223Q756 282 823 396V1040H995V398Q995 265 1002 167Q1006 106 1028 18Z" />
<glyph unicode="&#xfc;" glyph-name="udieresis" horiz-adv-x="1158" d="M345 1428Q369 1428 391 1419T429 1393Q445 1377 454 1355T464 1309Q464 1283 455 1261T429 1223Q413 1207 391 1198T345 1188Q319 1188 297 1197T258 1223Q222 1256 222 1309Q222 1333
231 1355T258 1393Q275 1409 297 1418T345 1428ZM787 1428Q812 1428 834 1419T873 1393Q890 1377 899 1355T908 1309Q908 1256 873 1223Q856 1207 834 1198T787 1188Q763 1188 742 1197T703 1223Q686 1239 676 1261T666 1309Q666 1333 676 1355T703 1393Q720 1409
741 1418T787 1428ZM862 -19Q852 12 846 41T835 97Q831 123 829 148T825 203H804Q778 155 744 114T668 42Q626 11 579 -6T480 -24Q402 -24 347 -6T253 48Q215 83 194 130T160 235Q149 292 146 357T143 491V1040H315V443Q315 383 319 328T344 230Q364 187 404 161T517
135Q569 135 614 160T697 223Q736 262 767 308T823 396V1040H995V398Q995 317 997 263T1002 167Q1005 125 1011 92T1028 18L862 -19Z" />
<glyph unicode="&#xfd;" glyph-name="yacute" horiz-adv-x="1186" d="M558 1620Q596 1647 623 1657T679 1667Q728 1667 758 1648T801 1598T813 1528T795 1450Q784 1424 766 1389T728 1317T688 1243T652 1181H530L609 1443L558 1620ZM1010 1040V-23Q1010 -122 978
-194T888 -313T751 -382T579 -405Q495 -405 410 -391T248 -350Q261 -315 275 -282T303 -216Q327 -224 360 -233T431 -249T508 -261T585 -266Q643 -266 690 -251T770 -204T820 -128T838 -23V203H819Q793 156 759 115T684 42T596 -6T495 -24Q422 -24 368 -8T276 41T213
122T175 235Q164 292 161 357T158 491V1040H330V443Q330 378 336 322T362 224T423 159T532 135Q583 135 628 159T711 222T780 306T838 396V1040H1010Z" />
<glyph unicode="&#xfe;" glyph-name="thorn" horiz-adv-x="1074" d="M313 838H328Q380 946 443 998Q520 1062 631 1062Q709 1062 770 1034T870 957T936 839T973 695T984 533Q984 435 969 352T919 199T832 79T704 3T532 -25Q438 -25 311 0V-401H140V1440H310V835L313
838ZM311 617V151Q424 121 519 121Q600 121 658 150T750 233T798 353T813 502Q813 558 811 600T802 692T781 777T746 842T692 887T614 903Q508 903 430 818Q374 756 311 617Z" />
<glyph unicode="&#xff;" glyph-name="ydieresis" horiz-adv-x="1186" d="M373 1418Q397 1418 418 1409T456 1383T482 1345T492 1299Q492 1273 483 1251T457 1213T420 1188T373 1178Q347 1178 325 1187T286 1213T260 1251T250 1299Q250 1324 259 1345T286 1383T325
1408T373 1418ZM815 1418Q840 1418 862 1409T900 1383T926 1346T936 1299Q936 1272 926 1250T900 1212T861 1187T815 1178Q791 1178 769 1187T731 1213T704 1252T694 1299Q694 1324 704 1345T732 1383T770 1408T815 1418ZM1010 1040V-23Q1010 -122 978 -194T888
-313T751 -382T579 -405Q495 -405 410 -391T248 -350Q261 -315 275 -282T303 -216Q327 -224 360 -233T431 -249T508 -261T585 -266Q643 -266 690 -251T770 -204T820 -128T838 -23V203H819Q793 156 759 115T684 42T596 -6T495 -24Q422 -24 368 -8T276 41T213 122T175
235Q164 292 161 357T158 491V1040H330V443Q330 378 336 322T362 224T423 159T532 135Q583 135 628 159T711 222T780 306T838 396V1040H1010Z" />
<glyph unicode="&#x2013;" glyph-name="endash" horiz-adv-x="1284" d="M164 632H1120V484H164V632Z" />
<glyph unicode="&#x2014;" glyph-name="emdash" horiz-adv-x="1345" d="M40 632H1305V484H40V632Z" />
<glyph unicode="&#x2018;" glyph-name="quoteleft" horiz-adv-x="557" d="M426 1461L339 1172L395 978Q353 948 323 937T262 926Q208 926 175 947T127 1002T114 1079T135 1165Q146 1193 166 1232T208 1312T253 1392T292 1461H426Z" />
<glyph unicode="&#x2019;" glyph-name="quoteright" horiz-adv-x="557" d="M145 1409Q187 1439 217 1450T278 1461Q332 1461 365 1440T413 1385T426 1308T405 1222Q394 1194 374 1155T332 1075T287 995T248 926H114L201 1215L145 1409Z" />
<glyph unicode="&#x201a;" glyph-name="quotesinglbase" horiz-adv-x="574" d="M161 434Q203 464 233 475T294 486Q348 486 381 465T429 410T442 333T421 247Q410 219 390 180T348 100T303 20T264 -49H130L217 240L161 434Z" />
<glyph unicode="&#x201c;" glyph-name="quotedblleft" horiz-adv-x="923" d="M408 1461L321 1172L377 978Q335 948 305 937T244 926Q190 926 157 947T109 1002T96 1079T116 1165Q128 1193 148 1232T190 1312T235 1392T274 1461H408ZM808 1461L721 1172L778 978Q736
948 706 937T644 926Q589 926 556 946T508 1001T496 1078T517 1165Q529 1193 548 1232T590 1312T635 1392T674 1461H808Z" />
<glyph unicode="&#x201d;" glyph-name="quotedblright" horiz-adv-x="923" d="M126 1409Q168 1439 198 1450T260 1461Q315 1461 348 1440T396 1386T408 1309T387 1222Q375 1194 356 1155T314 1075T269 995T230 926H96L183 1215L126 1409ZM527 1409Q569 1439 599
1450T660 1461Q714 1461 747 1440T795 1385T808 1308T788 1222Q776 1194 756 1155T714 1075T669 995T630 926H496L583 1215L527 1409Z" />
<glyph unicode="&#x201e;" glyph-name="quotedblbase" horiz-adv-x="928" d="M135 434Q177 464 207 475T269 486Q324 486 357 465T405 411T417 334T396 247Q384 219 365 180T323 100T278 20T239 -49H105L192 240L135 434ZM536 434Q578 464 608 475T669 486Q723
486 756 465T804 410T817 333T797 247Q785 219 765 180T723 100T678 20T639 -49H505L592 240L536 434Z" />
<glyph unicode="&#x2022;" glyph-name="bullet" horiz-adv-x="646" d="M323 771Q363 771 396 757T453 719T489 662T502 592Q502 555 488 523T450 466T393 427T323 413Q286 413 254 427T197 465T158 522T144 592Q144 631 158 664T198 721T255 758T323 771Z" />
<glyph unicode="&#x2039;" glyph-name="guilsinglleft" horiz-adv-x="914" d="M170 518L613 959L713 860L373 518L714 174L613 75L170 518Z" />
<glyph unicode="&#x203a;" glyph-name="guilsinglright" horiz-adv-x="914" d="M201 860L301 959L744 518L301 75L200 174L541 518L201 860Z" />
</font>
</defs>
</svg>
