<?xml version="1.0" standalone="no"?>
<!DOCTYPE svg PUBLIC "-//W3C//DTD SVG 1.1//EN" "http://www.w3.org/Graphics/SVG/1.1/DTD/svg11.dtd">
<svg xmlns="http://www.w3.org/2000/svg">
<defs >
<font id="Assistant" horiz-adv-x="468" ><font-face
    font-family="Assistant Light"
    units-per-em="1000"
    panose-1="0 0 4 0 0 0 0 0 0 0"
    ascent="1021"
    descent="-287"
    alphabetic="0" />
<glyph unicode=" " glyph-name="space" horiz-adv-x="200" />
<glyph unicode="!" glyph-name="exclam" horiz-adv-x="265" d="M107 595L106 670H159L158 595L151 183H114L107 595ZM113 -12T100 1T87 36Q87 59 100 72T132 86Q151 86 164 72T178 36Q178 15 165 2T132 -12Q113 -12 100 1Z" />
<glyph unicode="&quot;" glyph-name="quotedbl" horiz-adv-x="373" d="M83 619L82 693H141L140 619L130 469H94L83 619ZM231 619L230 693H289L288 619L278 469H242L231 619Z" />
<glyph unicode="#" glyph-name="numbersign" horiz-adv-x="482" d="M118 212H36V252H123L144 418H56V458H147L173 650H211L186 458H332L357 650H396L371 458H452V418H367L346 252H432V212H341L316 0H277L303 212H156L131 0H92L118 212ZM308 252L329 418H182L162 252H308Z" />
<glyph unicode="$" glyph-name="dollar" horiz-adv-x="482" d="M422 85T380 41T268 -11V-110H226V-11Q178 -7 135 14T58 66L84 102Q161 33 244 33Q305 33 337 65T370 151Q370 195 351 225T304 274T230 316Q181 341 153 360T104 412T84 492Q84 555 123 598T226
650V749H268V650Q312 647 344 629T406 578L376 547Q344 579 318 593T249 607Q199 607 167 576T135 495Q135 458 152 433T194 392T263 354Q314 329 346 308T400 249T422 155Q422 85 380 41Z" />
<glyph unicode="%" glyph-name="percent" horiz-adv-x="807" d="M115 260T77 314T39 467Q39 565 77 619T182 673Q248 673 286 619T324 467Q324 368 286 314T182 260Q115 260 77 314ZM565 670H606L239 -12H198L565 670ZM228 296T254 341T281 467Q281 549 255 593T182
637Q135 637 109 593T82 467Q82 386 109 341T182 296Q228 296 254 341ZM559 -12T521 42T483 196Q483 294 521 348T626 402Q692 402 730 348T768 196Q768 97 730 43T626 -12Q559 -12 521 42ZM672 24T698 69T725 196Q725 277 699 321T626 366Q580 366 554 322T527
196Q527 115 553 70T626 24Q672 24 698 69Z" />
<glyph unicode="&amp;" glyph-name="ampersand" horiz-adv-x="581" d="M552 -12Q485 10 409 69Q328 -12 227 -12Q174 -12 130 10T61 74T36 168Q36 226 70 270T169 361Q125 451 125 522Q125 586 164 628T264 670Q318 670 348 637T378 549Q378 509 358 476T308 417T227
352Q260 293 307 236T407 134Q472 216 509 347H558Q517 206 441 106Q508 53 568 33L552 -12ZM172 462T208 388Q270 433 301 468T333 547Q333 582 316 606T263 630Q221 630 197 600T172 523Q172 462 208 388ZM87 130T106 98T159 49T232 31Q305 31 375 98Q321 147
273 205T189 324Q140 286 114 250T87 171Q87 130 106 98Z" />
<glyph unicode="&apos;" glyph-name="quotesingle" horiz-adv-x="225" d="M83 619L82 693H141L140 619L130 469H94L83 619Z" />
<glyph unicode="(" glyph-name="parenleft" horiz-adv-x="284" d="M154 -71T121 39T87 278Q87 406 120 516T219 731L250 714Q191 620 161 509T131 278Q131 159 161 48T250 -158L219 -175Q154 -71 121 39Z" />
<glyph unicode=")" glyph-name="parenright" horiz-adv-x="284" d="M33 -158Q92 -64 122 47T152 278Q152 397 122 508T33 714L65 731Q130 626 163 516T197 278Q197 151 164 41T65 -175L33 -158Z" />
<glyph unicode="*" glyph-name="asterisk" horiz-adv-x="399" d="M104 476L159 565L67 602L78 634L175 609L182 712H217L224 610L321 634L332 602L240 565L295 476L266 454L200 538L133 454L104 476Z" />
<glyph unicode="+" glyph-name="plus" horiz-adv-x="482" d="M218 309H34V351H218V551H264V351H448V309H264V109H218V309Z" />
<glyph unicode="," glyph-name="comma" horiz-adv-x="225" d="M141 86T156 65T171 9Q171 -46 142 -89T63 -158L48 -124Q84 -105 105 -75T127 -3Q123 -4 116 -4Q96 -4 83 7T70 41Q70 62 83 74T116 86Q141 86 156 65Z" />
<glyph unicode="-" glyph-name="hyphen" horiz-adv-x="301" d="M41 272H262V228H41V272Z" />
<glyph unicode="." glyph-name="period" horiz-adv-x="225" d="M93 -12T80 1T67 36Q67 59 80 72T112 86Q131 86 144 72T158 36Q158 15 145 2T112 -12Q93 -12 80 1Z" />
<glyph unicode="/" glyph-name="slash" horiz-adv-x="356" d="M307 710H349L51 -160H9L307 710Z" />
<glyph unicode="0" glyph-name="zero" horiz-adv-x="482" d="M149 -12T99 75T48 322Q48 481 98 566T241 651Q334 651 384 566T435 322Q435 162 384 75T241 -12Q149 -12 99 75ZM307 32T345 106T383 322Q383 463 345 535T241 608Q175 608 137 536T99 322Q99 180
137 106T241 32Q307 32 345 106Z" />
<glyph unicode="1" glyph-name="one" horiz-adv-x="443" d="M52 45H202V563H87V598Q160 609 212 639H253V45H391V0H52V45Z" />
<glyph unicode="2" glyph-name="two" horiz-adv-x="482" d="M41 32Q158 150 221 223T319 356T353 469Q353 531 319 569T217 607Q176 607 139 585T71 525L38 556Q78 601 122 626T222 651Q307 651 356 602T405 470Q405 410 371 348T282 221T117 41Q189 45 225 45H436V0H41V32Z"
/>
<glyph unicode="3" glyph-name="three" horiz-adv-x="482" d="M163 -12T115 13T29 78L57 113Q91 76 132 55T231 33Q295 33 336 70T378 169Q378 236 325 274T159 313V357Q261 357 307 393T354 491Q354 544 320 575T229 607Q188 607 151 588T85 538L55 573Q137 651
230 651Q308 651 357 610T407 495Q407 436 375 397T287 339V334Q349 321 390 278T431 169Q431 114 405 73T334 10T232 -12Q163 -12 115 13Z" />
<glyph unicode="4" glyph-name="four" horiz-adv-x="482" d="M452 188H358V0H309V188H17V220L309 639H358V231H452V188ZM309 231V456Q309 509 313 569H309L282 526Q277 518 271 509T257 487L77 231H309Z" />
<glyph unicode="5" glyph-name="five" horiz-adv-x="482" d="M159 -12T112 12T25 75L54 110Q88 74 128 54T226 33Q268 33 303 54T360 112T381 199Q381 274 340 317T229 360Q195 360 170 350T112 318L79 339L102 639H401V594H148L128 371Q154 387 180 395T239 403Q325
403 379 352T434 202Q434 136 405 88T329 14T228 -12Q159 -12 112 12Z" />
<glyph unicode="6" glyph-name="six" horiz-adv-x="482" d="M346 386T393 336T440 189Q440 131 416 86T351 14T262 -12Q165 -12 109 67T52 291Q52 417 84 497T169 614T288 651Q369 651 427 588L396 554Q375 579 347 593T288 607Q206 607 155 534T102 299Q136 340
177 363T261 386Q346 386 393 336ZM298 31T327 51T372 108T389 189Q389 260 356 302T255 345Q218 345 178 322T103 250Q110 147 150 89T263 31Q298 31 327 51Z" />
<glyph unicode="7" glyph-name="seven" horiz-adv-x="482" d="M193 190T237 324T377 594H44V639H440V608Q365 509 324 419T264 231T241 0H186Q193 190 237 324Z" />
<glyph unicode="8" glyph-name="eight" horiz-adv-x="482" d="M186 -12T140 11T67 74T40 164Q40 223 77 269T166 343V347Q126 374 101 410T76 493Q76 539 98 575T159 631T245 651Q326 651 372 605T419 484Q419 437 391 394T329 323V319Q381 287 411 251T441 156Q441
109 416 71T347 10T244 -12Q186 -12 140 11ZM371 403T371 482Q371 536 337 573T245 610Q193 610 159 577T125 493Q125 452 148 424T204 377T291 337Q371 403 371 482ZM309 30T349 66T389 157Q389 201 364 231T303 279T198 324Q148 294 119 255T90 167Q90 129 110
98T165 48T245 30Q309 30 349 66Z" />
<glyph unicode="9" glyph-name="nine" horiz-adv-x="482" d="M317 651T373 572T430 348Q430 222 398 142T313 25T194 -12Q111 -12 55 51L86 85Q106 60 134 47T194 33Q276 33 327 106T380 340Q346 299 305 276T221 253Q136 253 89 303T42 450Q42 508 66 553T131
625T220 651Q317 651 373 572ZM264 295T304 318T379 389Q372 492 332 550T219 608Q184 608 155 588T110 531T93 450Q93 379 126 337T227 295Q264 295 304 318Z" />
<glyph unicode=":" glyph-name="colon" horiz-adv-x="225" d="M93 366T80 379T67 414Q67 437 80 450T112 464Q131 464 144 450T158 414Q158 393 145 380T112 366Q93 366 80 379ZM93 -12T80 1T67 36Q67 59 80 72T112 86Q131 86 144 72T158 36Q158 15 145 2T112
-12Q93 -12 80 1Z" />
<glyph unicode=";" glyph-name="semicolon" horiz-adv-x="225" d="M93 366T80 379T67 414Q67 437 80 450T112 464Q131 464 144 450T158 414Q158 393 145 380T112 366Q93 366 80 379ZM141 86T156 65T171 9Q171 -46 142 -89T63 -158L48 -124Q84 -105 105 -75T127
-3Q123 -4 116 -4Q96 -4 83 7T70 41Q70 62 83 74T116 86Q141 86 156 65Z" />
<glyph unicode="&lt;" glyph-name="less" horiz-adv-x="482" d="M34 308V356L448 521V473L87 334V330L448 192V143L34 308Z" />
<glyph unicode="=" glyph-name="equal" horiz-adv-x="482" d="M34 454H448V412H34V454ZM34 504H448V462H34V504Z" />
<glyph unicode="&gt;" glyph-name="greater" horiz-adv-x="482" d="M34 192L395 330V334L34 473V521L448 356V308L34 143V192Z" />
<glyph unicode="?" glyph-name="question" horiz-adv-x="407" d="M160 203T160 211Q160 262 180 300T239 387Q273 431 289 460T305 525Q305 573 277 605T194 638Q159 638 126 622T68 575L37 603Q109 682 199 682Q271 682 313 639T356 528Q356 486 338 453T283
371Q245 324 226 288T207 207Q207 199 209 183H162Q160 203 160 211ZM170 -12T157 1T143 36Q143 58 156 72T189 86Q208 86 221 73T234 36Q234 15 221 2T189 -12Q170 -12 157 1Z" />
<glyph unicode="@" glyph-name="at" horiz-adv-x="820" d="M293 -147T216 -106T95 15T51 203Q51 330 106 429T253 582T453 636Q549 636 620 596T730 483T769 315Q769 235 741 176T670 85T582 54Q541 54 515 73T484 130H482Q420 61 360 61Q310 61 278 97T245 198Q245
249 268 302T334 389T432 424Q486 424 515 376H517L526 416H563L527 226Q518 192 518 166Q518 94 586 94Q619 94 652 120T706 197T728 313Q728 398 695 462T598 561T449 596Q357 596 276 547T144 409T94 205Q94 109 132 39T238 -70T394 -108Q483 -108 561 -60L578
-95Q493 -147 390 -147Q293 -147 216 -106ZM417 101T473 166L504 336Q486 363 470 373T431 384Q390 384 358 357T307 287T289 201Q289 149 310 125T368 101Q417 101 473 166Z" />
<glyph unicode="A" glyph-name="A" horiz-adv-x="530" d="M392 221H136L61 0H7L237 659H292L523 0H466L392 221ZM378 265L338 384Q293 517 266 610H262Q237 520 191 384L151 265H378Z" />
<glyph unicode="B" glyph-name="B" horiz-adv-x="580" d="M96 659H277Q380 659 438 619T496 498Q496 446 470 408T395 355V351Q460 339 498 299T536 192Q536 99 470 50T290 0H96V659ZM260 370Q444 370 444 493Q444 558 400 586T265 615H149V370H260ZM278 44Q377
44 430 80T484 192Q484 260 431 294T278 328H149V44H278Z" />
<glyph unicode="C" glyph-name="C" horiz-adv-x="566" d="M251 -12T188 30T90 149T54 330Q54 433 90 510T190 628T338 670Q392 670 436 648T511 591L480 556Q421 623 338 623Q269 623 218 588T138 486T110 331Q110 242 137 175T215 72T335 36Q384 36 423 55T498
116L529 82Q489 36 442 12T332 -12Q251 -12 188 30Z" />
<glyph unicode="D" glyph-name="D" horiz-adv-x="606" d="M96 659H250Q400 659 476 573T552 331Q552 176 476 88T252 0H96V659ZM246 45Q372 45 434 121T497 331Q497 464 435 539T246 614H149V45H246Z" />
<glyph unicode="E" glyph-name="E" horiz-adv-x="517" d="M96 659H460V613H149V372H410V326H149V45H470V0H96V659Z" />
<glyph unicode="F" glyph-name="F" horiz-adv-x="480" d="M96 659H459V613H149V358H411V313H149V0H96V659Z" />
<glyph unicode="G" glyph-name="G" horiz-adv-x="607" d="M255 -12T191 30T90 149T54 330Q54 433 91 510T194 628T348 670Q454 670 529 591L499 556Q437 623 349 623Q276 623 222 588T139 486T110 331Q110 195 172 116T344 36Q387 36 425 48T486 83V282H332V327H536V63Q504
29 454 9T340 -12Q255 -12 191 30Z" />
<glyph unicode="H" glyph-name="H" horiz-adv-x="641" d="M96 659H149V372H492V659H545V0H492V326H149V0H96V659Z" />
<glyph unicode="I" glyph-name="I" horiz-adv-x="245" d="M96 659H149V0H96V659Z" />
<glyph unicode="J" glyph-name="J" horiz-adv-x="466" d="M149 -12T107 13T39 86L78 113Q102 72 132 54T203 36Q262 36 290 72T319 187V659H372V182Q372 95 332 42T205 -12Q149 -12 107 13Z" />
<glyph unicode="K" glyph-name="K" horiz-adv-x="562" d="M96 659H149V299H151L461 659H524L314 413L553 0H493L279 372L149 223V0H96V659Z" />
<glyph unicode="L" glyph-name="L" horiz-adv-x="471" d="M96 659H149V45H449V0H96V659Z" />
<glyph unicode="M" glyph-name="M" horiz-adv-x="710" d="M96 659H168L303 279L354 134H358Q369 164 383 207L407 279L542 659H614V0H563V420Q563 470 570 601H566L515 453L376 71H333L194 453L142 601H138Q144 489 144 420V0H96V659Z" />
<glyph unicode="N" glyph-name="N" horiz-adv-x="638" d="M96 659H151L421 204L495 71H499L497 109Q496 129 494 178T492 267V659H542V0H487L217 455L143 587H139L141 549Q142 531 144 484T146 397V0H96V659Z" />
<glyph unicode="O" glyph-name="O" horiz-adv-x="655" d="M248 -12T186 30T89 150T54 331Q54 434 89 510T186 628T327 670Q407 670 469 629T565 511T600 331Q600 228 566 151T469 31T327 -12Q248 -12 186 30ZM392 36T441 72T518 175T545 331Q545 420 518 486T442
587T327 623Q262 623 213 588T137 486T110 331Q110 243 137 176T213 73T327 36Q392 36 441 72Z" />
<glyph unicode="P" glyph-name="P" horiz-adv-x="552" d="M96 659H266Q383 659 444 616T506 473Q506 377 444 328T270 279H149V0H96V659ZM258 323Q357 323 404 358T452 473Q452 551 405 582T254 614H149V323H258Z" />
<glyph unicode="Q" glyph-name="Q" horiz-adv-x="655" d="M605 -145Q571 -157 522 -157Q441 -157 384 -117T299 -11Q227 -4 172 40T85 159T54 331Q54 434 89 510T186 628T327 670Q407 670 469 629T565 511T600 331Q600 235 570 160T484 41T357 -10Q380 -59 424
-84T527 -110Q563 -110 594 -101L605 -145ZM110 242T137 175T213 70T327 33Q392 33 441 70T518 174T545 331Q545 420 518 486T442 587T327 623Q262 623 213 588T137 486T110 331Q110 242 137 175Z" />
<glyph unicode="R" glyph-name="R" horiz-adv-x="548" d="M459 0L285 298H149V0H96V659H287Q391 659 449 617T507 483Q507 406 464 360T342 302L521 0H459ZM275 342Q362 342 407 377T453 483Q453 553 409 583T275 614H149V342H275Z" />
<glyph unicode="S" glyph-name="S" horiz-adv-x="523" d="M201 -12T145 14T46 87L79 123Q116 82 165 59T270 36Q343 36 386 71T429 163Q429 201 414 225T376 264T312 297L213 341Q154 367 117 404T80 506Q80 553 105 590T174 649T274 670Q330 670 378 648T460
591L430 556Q366 623 274 623Q211 623 172 592T133 509Q133 475 149 452T188 415T246 385L345 342Q411 313 447 274T483 167Q483 117 457 76T382 12T270 -12Q201 -12 145 14Z" />
<glyph unicode="T" glyph-name="T" horiz-adv-x="527" d="M237 613H29V659H498V613H290V0H237V613Z" />
<glyph unicode="U" glyph-name="U" horiz-adv-x="636" d="M218 -12T156 50T94 256V659H147V260Q147 140 194 88T318 36Q396 36 444 88T492 260V659H543V256Q543 112 480 50T318 -12Q218 -12 156 50Z" />
<glyph unicode="V" glyph-name="V" horiz-adv-x="496" d="M4 659H60L179 279L206 192Q239 85 247 59H251Q275 130 297 205L320 279L438 659H492L278 0H219L4 659Z" />
<glyph unicode="W" glyph-name="W" horiz-adv-x="773" d="M27 659H82L163 276Q177 204 207 62H211Q228 141 260 276L361 659H414L515 276L566 62H570Q585 133 597 201L612 276L693 659H744L599 0H539L423 442L418 462L389 590H385L370 529Q366 515 360 489T349
442L234 0H175L27 659Z" />
<glyph unicode="X" glyph-name="X" horiz-adv-x="488" d="M213 341L30 659H88L193 469L246 378H250Q284 445 298 469L403 659H458L275 338L471 0H413L302 198L242 302H238L183 198L72 0H17L213 341Z" />
<glyph unicode="Y" glyph-name="Y" horiz-adv-x="452" d="M200 265L2 659H58L156 456Q189 384 224 314H228Q230 319 233 325T241 339Q248 353 267 389T299 456L396 659H450L253 265V0H200V265Z" />
<glyph unicode="Z" glyph-name="Z" horiz-adv-x="539" d="M49 31L422 613H82V659H488V628L115 45H492V0H49V31Z" />
<glyph unicode="[" glyph-name="bracketleft" horiz-adv-x="284" d="M98 708H260V676H137V-120H260V-152H98V708Z" />
<glyph unicode="\" glyph-name="backslash" horiz-adv-x="356" d="M7 710H49L347 -160H305L7 710Z" />
<glyph unicode="]" glyph-name="bracketright" horiz-adv-x="284" d="M23 -120H146V676H23V708H186V-152H23V-120Z" />
<glyph unicode="^" glyph-name="asciicircum" horiz-adv-x="482" d="M216 670H267L418 289H369L294 487L243 620H239L188 487L113 289H65L216 670Z" />
<glyph unicode="_" glyph-name="underscore" horiz-adv-x="500" d="M12 -78H488V-119H12V-78Z" />
<glyph unicode="`" glyph-name="grave" horiz-adv-x="536" d="M148 725L186 759L322 600L294 574L148 725Z" />
<glyph unicode="a" glyph-name="a" horiz-adv-x="494" d="M135 -12T96 22T57 121Q57 200 130 242T364 302Q365 366 341 407T254 449Q178 449 102 394L79 431Q115 456 161 474T260 493Q342 493 379 442T416 305V0H373L367 62H365Q276 -12 196 -12Q135 -12 96 22ZM246
32T282 50T364 106V265Q225 248 167 215T109 124Q109 77 136 55T207 32Q246 32 282 50Z" />
<glyph unicode="b" glyph-name="b" horiz-adv-x="544" d="M250 -12T212 4T140 49H138L133 0H90V718H142V512L139 420Q227 493 302 493Q396 493 445 428T495 248Q495 169 466 110T389 20T283 -12Q250 -12 212 4ZM326 33T362 60T420 136T441 248Q441 341 405 395T293
449Q225 449 142 372V93Q177 62 213 48T279 33Q326 33 362 60Z" />
<glyph unicode="c" glyph-name="c" horiz-adv-x="450" d="M207 -12T158 18T80 105T51 240Q51 318 81 375T162 463T273 493Q318 493 351 478T414 435L385 399Q359 423 333 436T274 449Q226 449 188 423T127 348T104 240Q104 179 125 132T184 59T273 33Q341 33 399
87L425 51Q353 -12 270 -12Q207 -12 158 18Z" />
<glyph unicode="d" glyph-name="d" horiz-adv-x="546" d="M159 -12T105 54T51 240Q51 315 80 372T158 461T264 493Q304 493 336 479T407 435L404 522V718H456V0H413L407 61H405Q332 -12 250 -12Q159 -12 105 54ZM296 33T331 52T404 110V389Q369 421 336 435T268
449Q223 449 186 422T127 347T105 240Q105 144 145 89T259 33Q296 33 331 52Z" />
<glyph unicode="e" glyph-name="e" horiz-adv-x="485" d="M448 250T445 232H101Q102 170 126 125T191 55T280 31Q348 31 407 73L428 36Q393 13 358 1T275 -12Q213 -12 162 18T81 106T51 240Q51 316 80 373T158 462T262 493Q349 493 398 434T448 270Q448 250 445
232ZM400 273Q400 360 364 405T262 450Q225 450 191 430T132 370T103 273H400Z" />
<glyph unicode="f" glyph-name="f" horiz-adv-x="268" d="M150 686T150 580V481H259V437H150V0H98V437H32V477L98 481V583Q98 654 129 692T221 730Q258 730 293 714L280 673Q253 686 224 686Q150 686 150 580Z" />
<glyph unicode="g" glyph-name="g" horiz-adv-x="490" d="M158 -230T104 -194T50 -97Q50 -66 69 -36T122 17V21Q103 33 91 53T79 99Q79 127 95 150T132 188V192Q106 214 89 248T71 323Q71 372 94 410T156 471T242 493Q281 493 307 481H471V439H362Q385 419 398
388T412 322Q412 273 390 235T328 175T242 153Q222 153 201 158T164 173Q147 158 137 142T127 105Q127 45 217 45H319Q400 45 439 18T479 -67Q479 -109 450 -146T369 -207T249 -230Q158 -230 104 -194ZM292 192T327 229T363 323Q363 381 328 416T242 452Q191 452
157 417T122 323Q122 285 138 255T182 209T242 192Q292 192 327 229ZM305 -190T344 -173T405 -129T427 -73Q427 -35 401 -19T319 -2H219Q191 -2 159 6Q129 -15 114 -40T99 -91Q99 -136 140 -163T254 -190Q305 -190 344 -173Z" />
<glyph unicode="h" glyph-name="h" horiz-adv-x="531" d="M90 718H142V512L140 407Q183 449 221 471T306 493Q381 493 416 448T452 308V0H400V301Q400 377 375 412T294 448Q254 448 221 428T142 360V0H90V718Z" />
<glyph unicode="i" glyph-name="i" horiz-adv-x="232" d="M90 481H142V0H90V481ZM100 594T88 606T76 638Q76 656 88 668T117 680Q134 680 146 668T158 638Q158 619 146 607T117 594Q100 594 88 606Z" />
<glyph unicode="j" glyph-name="j" horiz-adv-x="232" d="M134 680T146 668T158 638Q158 619 146 607T117 594Q100 594 88 606T76 638Q76 656 88 668T117 680Q134 680 146 668ZM92 481H143V-83Q143 -155 116 -191T30 -227Q-3 -227 -33 -215L-22 -174Q7 -183 28
-183Q65 -183 78 -157T92 -80V481Z" />
<glyph unicode="k" glyph-name="k" horiz-adv-x="469" d="M90 718H141V197H143L375 481H433L276 290L459 0H402L246 253L141 130V0H90V718Z" />
<glyph unicode="l" glyph-name="l" horiz-adv-x="240" d="M90 -12T90 71V718H142V65Q142 49 148 41T163 33Q171 33 181 35L189 -7Q186 -8 177 -10T154 -12Q90 -12 90 71Z" />
<glyph unicode="m" glyph-name="m" horiz-adv-x="815" d="M90 481H133L139 408H141Q176 447 215 470T293 493Q396 493 426 396Q468 443 508 468T588 493Q732 493 732 308V0H681V301Q681 376 656 412T577 448Q544 448 511 427T437 360V0H386V301Q386 376 361 412T281
448Q218 448 142 360V0H90V481Z" />
<glyph unicode="n" glyph-name="n" horiz-adv-x="534" d="M90 481H133L139 408H141Q182 449 221 471T306 493Q381 493 416 448T452 308V0H400V301Q400 377 375 412T294 448Q254 448 221 428T142 360V0H90V481Z" />
<glyph unicode="o" glyph-name="o" horiz-adv-x="536" d="M209 -12T160 18T81 106T51 240Q51 318 80 375T159 463T268 493Q327 493 377 463T456 376T486 240Q486 163 457 106T377 19T268 -12Q209 -12 160 18ZM315 33T352 59T411 132T432 240Q432 301 411 348T353
422T268 449Q221 449 184 423T126 349T104 240Q104 179 125 132T184 59T268 33Q315 33 352 59Z" />
<glyph unicode="p" glyph-name="p" horiz-adv-x="546" d="M90 481H133L139 422H141Q229 493 302 493Q397 493 446 428T495 248Q495 169 466 110T389 20T283 -12Q217 -12 141 47L142 -41V-215H90V481ZM326 33T362 60T420 136T441 248Q441 341 405 395T293 449Q228
449 142 372V93Q179 62 214 48T279 33Q326 33 362 60Z" />
<glyph unicode="q" glyph-name="q" horiz-adv-x="546" d="M404 -32L407 62Q329 -12 250 -12Q159 -12 105 54T51 240Q51 315 80 372T158 461T264 493Q305 493 337 479T406 436H408L414 481H456V-215H404V-32ZM296 33T331 52T404 110V389Q369 421 336 435T268 449Q223
449 186 422T127 347T105 240Q105 144 145 89T259 33Q296 33 331 52Z" />
<glyph unicode="r" glyph-name="r" horiz-adv-x="323" d="M90 481H133L139 392H141Q167 439 202 466T278 493Q307 493 326 483L315 437Q303 442 294 443T271 445Q236 445 202 416T142 324V0H90V481Z" />
<glyph unicode="s" glyph-name="s" horiz-adv-x="408" d="M159 -12T113 6T32 55L60 91Q95 62 130 47T211 31Q263 31 292 57T322 122Q322 161 291 183T206 226Q159 242 128 258T76 300T54 364Q54 419 96 456T211 493Q250 493 286 479T351 443L325 407Q296 428 270
439T211 451Q160 451 133 427T105 367Q105 342 120 325T157 297T218 272Q274 251 302 237T351 196T373 125Q373 88 354 57T297 7T209 -12Q159 -12 113 6Z" />
<glyph unicode="t" glyph-name="t" horiz-adv-x="317" d="M158 -12T130 26T102 136V437H28V477L104 481L110 620H153V481H291V437H153V133Q153 83 171 58T234 32Q246 32 263 36T293 47L306 6Q256 -12 225 -12Q158 -12 130 26Z" />
<glyph unicode="u" glyph-name="u" horiz-adv-x="532" d="M154 -12T119 33T83 173V481H134V180Q134 105 159 70T240 34Q281 34 314 56T391 129V481H442V0H399L394 80H391Q353 35 315 12T229 -12Q154 -12 119 33Z" />
<glyph unicode="v" glyph-name="v" horiz-adv-x="440" d="M12 481H67L172 185Q194 117 220 46H224L272 185L377 481H428L252 0H191L12 481Z" />
<glyph unicode="w" glyph-name="w" horiz-adv-x="691" d="M24 481H78L162 176Q185 89 194 46H198L233 176L318 481H376L461 176L475 127L496 46H500L534 176L616 481H667L531 0H465L383 291Q376 315 364 363Q359 385 347 429H343Q322 339 306 290L226 0H164L24 481Z" />
<glyph unicode="x" glyph-name="x" horiz-adv-x="414" d="M176 252L27 481H84L159 362Q171 340 209 283H213Q225 301 238 323L262 362L333 481H387L238 247L400 0H344L261 128Q234 173 205 216H201Q193 204 179 180L147 128L68 0H14L176 252Z" />
<glyph unicode="y" glyph-name="y" horiz-adv-x="442" d="M48 -217T25 -207L37 -164Q60 -171 76 -171Q117 -171 147 -138T196 -48L209 -8L12 481H67L179 186L231 50H235Q243 74 249 94T261 129L279 186L378 481H430L241 -57Q187 -217 76 -217Q48 -217 25 -207Z" />
<glyph unicode="z" glyph-name="z" horiz-adv-x="408" d="M28 27L307 437H59V481H373V454L94 44H382V0H28V27Z" />
<glyph unicode="{" glyph-name="braceleft" horiz-adv-x="284" d="M165 -152T139 -125T113 -23Q113 15 117 81Q121 147 121 180Q121 260 35 260V296Q121 296 121 375Q121 409 117 475Q113 541 113 579Q113 652 139 680T224 708H260V676H231Q188 676 172 653T156
575Q156 545 158 485Q161 439 161 385Q161 338 150 314T109 280V276Q138 267 149 242T161 171Q161 118 158 71Q156 11 156 -19Q156 -73 172 -96T231 -120H260V-152H224Q165 -152 139 -125Z" />
<glyph unicode="|" glyph-name="bar" horiz-adv-x="229" d="M94 750H135V-250H94V750Z" />
<glyph unicode="}" glyph-name="braceright" horiz-adv-x="284" d="M23 -120H53Q96 -120 112 -97T128 -19Q128 26 125 71Q125 85 124 115T122 171Q122 216 134 241T175 276V280Q146 289 134 314T122 385Q122 410 123 440T125 485Q128 530 128 575Q128 629 112
652T53 676H23V708H59Q118 708 144 680T171 579Q171 530 166 475Q162 409 162 375Q162 296 248 296V260Q162 260 162 180Q162 147 166 81Q171 26 171 -23Q171 -97 145 -124T59 -152H23V-120Z" />
<glyph unicode="~" glyph-name="asciitilde" horiz-adv-x="482" d="M303 265T281 277T226 314Q201 334 184 344T150 354Q104 354 72 291L40 311Q62 353 91 374T152 395Q179 395 201 383T256 346Q281 326 298 316T332 306Q355 306 374 320T411 369L443 347Q420
306 391 286T330 265Q303 265 281 277Z" />
<glyph unicode="&#xa0;" glyph-name="uni00A0" horiz-adv-x="200" />
<glyph unicode="&#xa1;" glyph-name="exclamdown" horiz-adv-x="265" d="M113 396T100 409T87 445Q87 466 100 479T132 493Q151 493 164 480T178 445Q178 423 165 410T132 396Q113 396 100 409ZM107 -114L114 298H151L158 -114L159 -189H106L107 -114Z" />
<glyph unicode="&#xa2;" glyph-name="cent" horiz-adv-x="482" d="M370 82T294 78V-29H256V79Q169 88 116 149T62 311Q62 410 117 471T256 542V653H294V544Q336 543 367 527T428 485L401 452Q351 497 294 500V123Q358 126 413 175L439 142Q370 82 294 78ZM114
235T152 186T256 125V497Q193 486 154 436T114 311Q114 235 152 186Z" />
<glyph unicode="&#xa3;" glyph-name="sterling" horiz-adv-x="482" d="M432 45V0H56V31Q109 61 135 112T162 223Q162 251 153 292H54V328L120 331H143L136 355Q124 398 118 424T112 478Q112 558 159 604T285 651Q374 651 431 579L398 548Q375 576 349 591T286
607Q228 607 196 571T164 478Q164 451 169 425T185 363L194 331H358V292H203Q210 254 210 222Q210 165 193 125T140 49V45H432Z" />
<glyph unicode="&#xa4;" glyph-name="currency" horiz-adv-x="482" d="M30 143L95 210Q58 259 58 328Q58 400 95 449L30 517L59 548L126 479Q150 499 179 510T241 522Q272 522 302 511T356 479L423 548L452 517L387 449Q425 396 425 328Q425 263 387 210L452 143L423
112L356 180Q333 159 303 148T241 137Q174 137 125 180L59 112L30 143ZM277 178T308 197T357 250T375 328Q375 372 357 406T308 460T241 480Q205 480 175 461T126 407T108 328Q108 285 126 251T174 197T241 178Q277 178 308 197Z" />
<glyph unicode="&#xa5;" glyph-name="yen" horiz-adv-x="482" d="M215 164H49V200H215V270H49V306H199L28 639H84L175 450Q217 362 239 313H243Q254 333 261 350T276 380Q294 420 310 450L401 639H454L282 306H433V270H266V200H433V164H266V0H215V164Z" />
<glyph unicode="&#xa6;" glyph-name="brokenbar" horiz-adv-x="229" d="M135 668V195V-165H94V301V668H135Z" />
<glyph unicode="&#xa7;" glyph-name="section" horiz-adv-x="482" d="M433 238T411 208T347 156Q380 121 380 72Q380 36 361 7T308 -38T234 -55Q184 -55 143 -38T71 10L104 42Q132 15 162 2T234 -12Q277 -12 304 12T331 69Q331 98 315 118T274 151T207 183Q155
206 124 224T71 273T49 351Q49 395 72 426T137 481Q104 514 104 562Q104 593 119 620T166 665T243 682Q320 682 386 627L359 593Q332 615 305 627T245 639Q199 639 176 618T153 565Q153 538 169 519T208 486T273 455Q324 433 356 414T410 363T433 284Q433 238 411
208ZM351 201T368 222T386 280Q386 315 368 339T322 379T249 415Q192 441 170 454Q133 434 115 411T96 354Q96 321 114 298T159 259T231 224Q239 220 266 208T313 183Q351 201 368 222Z" />
<glyph unicode="&#xa8;" glyph-name="dieresis" horiz-adv-x="536" d="M161 596T150 607T139 635Q139 652 150 663T178 674Q194 674 205 663T217 635Q217 619 206 608T178 596Q161 596 150 607ZM342 596T331 607T319 635Q319 652 330 663T358 674Q375 674 386
663T397 635Q397 618 386 607T358 596Q342 596 331 607Z" />
<glyph unicode="&#xa9;" glyph-name="copyright" horiz-adv-x="742" d="M284 -11T211 30T95 148T51 323Q51 421 94 496T211 612T371 653Q458 653 531 612T647 496T691 323Q691 224 648 148T531 31T371 -11Q284 -11 211 30ZM448 21T512 59T615 166T654 323Q654
410 616 477T513 582T371 620Q294 620 230 583T127 478T88 323Q88 235 126 166T229 59T371 21Q448 21 512 59ZM328 125T288 148T225 216T201 322Q201 379 225 421T291 487T381 510Q419 510 447 496T502 455L477 425Q453 448 432 458T381 469Q322 469 285 429T248
322Q248 250 283 208T379 165Q439 165 491 214L513 183Q481 155 451 140T376 125Q328 125 288 148Z" />
<glyph unicode="&#xaa;" glyph-name="ordfeminine" horiz-adv-x="339" d="M94 396T68 420T41 488Q41 540 89 567T245 606Q245 647 230 670T178 694Q150 694 121 683T71 657L55 688Q80 705 114 717T183 730Q238 730 262 697T287 603V404H254L248 443H243Q192 396
138 396Q94 396 68 420ZM196 431T245 479V577Q158 568 121 547T84 491Q84 461 101 446T149 431Q196 431 245 479Z" />
<glyph unicode="&#xab;" glyph-name="guillemotleft" horiz-adv-x="405" d="M43 231V273L181 433L207 411L85 252L207 92L181 71L43 231ZM187 231V273L325 433L351 411L229 252L351 92L325 71L187 231Z" />
<glyph unicode="&#xac;" glyph-name="logicalnot" horiz-adv-x="482" d="M402 309H34V351H448V109H402V309Z" />
<glyph unicode="&#xad;" glyph-name="uni00AD" horiz-adv-x="301" d="M41 272H262V228H41V272Z" />
<glyph unicode="&#xae;" glyph-name="registered" horiz-adv-x="405" d="M152 323T110 347T44 416T19 517Q19 574 43 618T110 688T202 713Q252 713 294 688T361 619T386 517Q386 461 361 417T294 348T202 323Q152 323 110 347ZM244 354T278 375T333 433T353 517Q353
564 333 601T279 660T202 682Q160 682 126 661T72 602T52 517Q52 470 72 433T126 375T202 354Q244 354 278 375ZM134 624H204Q237 624 259 609T281 559Q281 540 270 525T242 504L290 418H251L213 492H167V418H134V624ZM195 521Q245 521 245 557Q245 594 199 594H167V521H195Z"
/>
<glyph unicode="&#xaf;" glyph-name="overscore" horiz-adv-x="536" d="M143 645H393V605H143V645Z" />
<glyph unicode="&#xb0;" glyph-name="degree" horiz-adv-x="315" d="M110 444T76 477T41 563Q41 618 75 651T158 684Q205 684 239 651T274 563Q274 510 240 477T158 444Q110 444 76 477ZM192 478T214 502T237 563Q237 601 215 625T158 650Q123 650 101 626T78
563Q78 526 100 502T158 478Q192 478 214 502Z" />
<glyph unicode="&#xb1;" glyph-name="plusminus" horiz-adv-x="482" d="M218 309H34V351H218V551H264V351H448V309H264V112H218V309ZM34 42H448V0H34V42Z" />
<glyph unicode="&#xb4;" glyph-name="acute" horiz-adv-x="536" d="M214 600L350 759L388 725L242 574L214 600Z" />
<glyph unicode="&#xb6;" glyph-name="paragraph" horiz-adv-x="523" d="M175 240T108 291T41 450Q41 558 104 608T276 659H320V240H291Q175 240 108 291ZM374 659H427V-80H374V659Z" />
<glyph unicode="&#xb7;" glyph-name="middot" horiz-adv-x="225" d="M93 274T80 287T67 322Q67 345 80 358T112 372Q131 372 144 358T158 322Q158 301 145 288T112 274Q93 274 80 287Z" />
<glyph unicode="&#xb8;" glyph-name="cedilla" horiz-adv-x="536" d="M182 -188Q244 -184 269 -172T294 -136Q294 -115 276 -104T216 -86L258 2H296L266 -65Q301 -73 319 -89T338 -134Q338 -212 189 -220L182 -188Z" />
<glyph unicode="&#xba;" glyph-name="ordmasculine" horiz-adv-x="361" d="M139 396T105 416T52 474T32 563Q32 614 51 652T104 710T179 730Q220 730 253 710T307 652T327 563Q327 512 307 474T254 416T179 396Q139 396 105 416ZM226 432T254 468T283 563Q283
622 255 658T179 694Q133 694 105 658T76 563Q76 505 104 469T179 432Q226 432 254 468Z" />
<glyph unicode="&#xbb;" glyph-name="guillemotright" horiz-adv-x="405" d="M54 92L176 252L54 411L80 433L218 273V231L80 71L54 92ZM198 92L320 252L198 411L224 433L362 273V231L224 71L198 92Z" />
<glyph unicode="&#xbc;" glyph-name="onequarter" horiz-adv-x="773" d="M589 670L222 -12H181L548 670H589ZM159 275V596H75V626Q104 632 125 641T165 665H201V275H159ZM731 112H673V0H632V112H456V135L630 390H673V146H731V112ZM632 146V231L637 336H633L507 146H632Z" />
<glyph unicode="&#xbd;" glyph-name="onehalf" horiz-adv-x="790" d="M527 670H569L202 -12H160L527 670ZM159 596H75V626Q104 632 125 641T165 665H201V275H159V596ZM483 27Q557 95 595 135T654 209T674 273Q674 315 651 340T590 365Q565 365 542 348T501 304L473
329Q493 360 526 381T595 402Q652 402 685 371T718 278Q718 240 699 204T649 135T553 38H740V0H483V27Z" />
<glyph unicode="&#xbe;" glyph-name="threequarters" horiz-adv-x="790" d="M310 325T273 294T178 263Q134 263 98 284T39 337L71 361Q89 333 117 316T177 299Q215 299 240 320T266 379Q266 417 231 437T132 457V488Q186 488 218 511T250 569Q250 601 228 620T170
640Q147 640 125 626T83 589L55 614Q105 676 175 676Q226 676 260 648T294 573Q294 538 274 513T220 475Q258 468 284 442T310 378Q310 325 273 294ZM632 670L265 -12H223L590 670H632ZM748 112H690V0H649V112H473V135L647 390H690V146H748V112ZM649 146V231L654
336H650L524 146H649Z" />
<glyph unicode="&#xbf;" glyph-name="questiondown" horiz-adv-x="407" d="M199 396T186 409T172 445Q172 466 185 479T218 493Q237 493 250 480T264 445Q264 423 251 410T218 396Q199 396 186 409ZM135 -201T93 -158T50 -47Q50 -5 68 28T124 111Q162 158 181
194T200 275Q200 282 198 298H244Q246 278 246 268Q246 218 226 180T168 94Q135 52 119 22T102 -43Q102 -91 130 -123T212 -156Q248 -156 281 -140T339 -94L370 -122Q298 -201 207 -201Q135 -201 93 -158Z" />
<glyph unicode="&#xc0;" glyph-name="Agrave" horiz-adv-x="530" d="M392 221H136L61 0H7L237 659H292L523 0H466L392 221ZM378 265L338 384Q293 517 266 610H262Q237 520 191 384L151 265H378ZM147 818L180 855L307 731L284 705L147 818Z" />
<glyph unicode="&#xc1;" glyph-name="Aacute" horiz-adv-x="530" d="M392 221H136L61 0H7L237 659H292L523 0H466L392 221ZM378 265L338 384Q293 517 266 610H262Q237 520 191 384L151 265H378ZM221 731L348 855L381 818L244 705L221 731Z" />
<glyph unicode="&#xc2;" glyph-name="Acircumflex" horiz-adv-x="530" d="M392 221H136L61 0H7L237 659H292L523 0H466L392 221ZM378 265L338 384Q293 517 266 610H262Q237 520 191 384L151 265H378ZM127 726L238 839H290L401 726L378 706L266 803H262L150 706L127 726Z" />
<glyph unicode="&#xc3;" glyph-name="Atilde" horiz-adv-x="530" d="M392 221H136L61 0H7L237 659H292L523 0H466L392 221ZM378 265L338 384Q293 517 266 610H262Q237 520 191 384L151 265H378ZM313 717T293 728T250 761Q231 778 218 786T188 794Q166 794 152
774T134 720L97 723Q99 773 123 804T187 836Q215 836 235 825T278 792Q296 775 309 767T340 758Q361 758 375 777T394 832L431 830Q429 780 405 749T341 717Q313 717 293 728Z" />
<glyph unicode="&#xc4;" glyph-name="Adieresis" horiz-adv-x="530" d="M392 221H136L61 0H7L237 659H292L523 0H466L392 221ZM378 265L338 384Q293 517 266 610H262Q237 520 191 384L151 265H378ZM148 723T137 733T126 762Q126 779 137 790T165 801Q182 801 193
790T204 762Q204 744 193 734T165 723Q148 723 137 733ZM346 723T335 733T324 762Q324 779 335 790T363 801Q380 801 391 790T402 762Q402 744 391 734T363 723Q346 723 335 733Z" />
<glyph unicode="&#xc5;" glyph-name="Aring" horiz-adv-x="530" d="M392 221H136L61 0H7L237 659H292L523 0H466L392 221ZM378 265L338 384Q293 517 266 610H262Q237 520 191 384L151 265H378ZM225 699T200 723T175 786Q175 825 200 849T264 873Q302 873 327 849T353
786Q353 748 327 724T264 699Q225 699 200 723ZM287 727T303 743T319 786Q319 813 303 829T264 845Q240 845 224 829T207 786Q207 759 223 743T264 727Q287 727 303 743Z" />
<glyph unicode="&#xc6;" glyph-name="AE" horiz-adv-x="812" d="M764 45V0H409V212H190L75 0H19L379 659H754V613H462V372H705V326H462V45H764ZM409 256V614H405L284 385L214 256H409Z" />
<glyph unicode="&#xc7;" glyph-name="Ccedilla" horiz-adv-x="566" d="M251 -12T188 30T90 149T54 330Q54 433 90 510T190 628T338 670Q392 670 436 648T511 591L480 556Q421 623 338 623Q269 623 218 588T138 486T110 331Q110 242 137 175T215 72T335 36Q384
36 423 55T498 116L529 82Q489 36 442 12T332 -12Q251 -12 188 30Z" />
<glyph unicode="&#xc8;" glyph-name="Egrave" horiz-adv-x="517" d="M96 659H460V613H149V372H410V326H149V45H470V0H96V659ZM166 818L199 855L326 731L303 705L166 818Z" />
<glyph unicode="&#xc9;" glyph-name="Eacute" horiz-adv-x="517" d="M96 659H460V613H149V372H410V326H149V45H470V0H96V659ZM240 731L367 855L400 818L263 705L240 731Z" />
<glyph unicode="&#xca;" glyph-name="Ecircumflex" horiz-adv-x="517" d="M96 659H460V613H149V372H410V326H149V45H470V0H96V659ZM146 726L257 839H309L420 726L397 706L285 803H281L169 706L146 726Z" />
<glyph unicode="&#xcb;" glyph-name="Edieresis" horiz-adv-x="517" d="M96 659H460V613H149V372H410V326H149V45H470V0H96V659ZM167 723T156 733T145 762Q145 779 156 790T184 801Q201 801 212 790T223 762Q223 744 212 734T184 723Q167 723 156 733ZM365 723T354
733T343 762Q343 779 354 790T382 801Q399 801 410 790T421 762Q421 744 410 734T382 723Q365 723 354 733Z" />
<glyph unicode="&#xcc;" glyph-name="Igrave" horiz-adv-x="245" d="M96 659H149V0H96V659ZM5 818L38 855L165 731L142 705L5 818Z" />
<glyph unicode="&#xcd;" glyph-name="Iacute" horiz-adv-x="245" d="M96 659H149V0H96V659ZM79 731L206 855L239 818L102 705L79 731Z" />
<glyph unicode="&#xce;" glyph-name="Icircumflex" horiz-adv-x="245" d="M96 659H149V0H96V659ZM-15 726L96 839H148L259 726L236 706L124 803H120L8 706L-15 726Z" />
<glyph unicode="&#xcf;" glyph-name="Idieresis" horiz-adv-x="245" d="M96 659H149V0H96V659ZM6 723T-5 733T-16 762Q-16 779 -5 790T23 801Q40 801 51 790T62 762Q62 744 51 734T23 723Q6 723 -5 733ZM204 723T193 733T182 762Q182 779 193 790T221 801Q238
801 249 790T260 762Q260 744 249 734T221 723Q204 723 193 733Z" />
<glyph unicode="&#xd0;" glyph-name="Eth" horiz-adv-x="627" d="M421 659T497 573T573 331Q573 176 497 88T273 0H117V330H36V363L117 366V659H271Q421 659 497 573ZM393 45T455 121T518 331Q518 464 456 539T267 614H170V366H330V330H170V45H267Q393 45 455 121Z" />
<glyph unicode="&#xd1;" glyph-name="Ntilde" horiz-adv-x="638" d="M96 659H151L421 204L495 71H499L497 109Q496 129 494 178T492 267V659H542V0H487L217 455L143 587H139L141 549Q142 531 144 484T146 397V0H96V659ZM373 717T353 728T310 761Q291 778 278 786T248
794Q226 794 212 774T194 720L157 723Q159 773 183 804T247 836Q275 836 295 825T338 792Q356 775 369 767T400 758Q421 758 435 777T454 832L491 830Q489 780 465 749T401 717Q373 717 353 728Z" />
<glyph unicode="&#xd2;" glyph-name="Ograve" horiz-adv-x="655" d="M248 -12T186 30T89 150T54 331Q54 434 89 510T186 628T327 670Q407 670 469 629T565 511T600 331Q600 228 566 151T469 31T327 -12Q248 -12 186 30ZM392 36T441 72T518 175T545 331Q545 420
518 486T442 587T327 623Q262 623 213 588T137 486T110 331Q110 243 137 176T213 73T327 36Q392 36 441 72ZM210 818L243 855L370 731L347 705L210 818Z" />
<glyph unicode="&#xd3;" glyph-name="Oacute" horiz-adv-x="655" d="M248 -12T186 30T89 150T54 331Q54 434 89 510T186 628T327 670Q407 670 469 629T565 511T600 331Q600 228 566 151T469 31T327 -12Q248 -12 186 30ZM392 36T441 72T518 175T545 331Q545 420
518 486T442 587T327 623Q262 623 213 588T137 486T110 331Q110 243 137 176T213 73T327 36Q392 36 441 72ZM284 731L411 855L444 818L307 705L284 731Z" />
<glyph unicode="&#xd4;" glyph-name="Ocircumflex" horiz-adv-x="655" d="M248 -12T186 30T89 150T54 331Q54 434 89 510T186 628T327 670Q407 670 469 629T565 511T600 331Q600 228 566 151T469 31T327 -12Q248 -12 186 30ZM392 36T441 72T518 175T545 331Q545
420 518 486T442 587T327 623Q262 623 213 588T137 486T110 331Q110 243 137 176T213 73T327 36Q392 36 441 72ZM190 726L301 839H353L464 726L441 706L329 803H325L213 706L190 726Z" />
<glyph unicode="&#xd5;" glyph-name="Otilde" horiz-adv-x="655" d="M248 -12T186 30T89 150T54 331Q54 434 89 510T186 628T327 670Q407 670 469 629T565 511T600 331Q600 228 566 151T469 31T327 -12Q248 -12 186 30ZM392 36T441 72T518 175T545 331Q545 420
518 486T442 587T327 623Q262 623 213 588T137 486T110 331Q110 243 137 176T213 73T327 36Q392 36 441 72ZM376 717T356 728T313 761Q294 778 281 786T251 794Q229 794 215 774T197 720L160 723Q162 773 186 804T250 836Q278 836 298 825T341 792Q359 775 372
767T403 758Q424 758 438 777T457 832L494 830Q492 780 468 749T404 717Q376 717 356 728Z" />
<glyph unicode="&#xd6;" glyph-name="Odieresis" horiz-adv-x="655" d="M248 -12T186 30T89 150T54 331Q54 434 89 510T186 628T327 670Q407 670 469 629T565 511T600 331Q600 228 566 151T469 31T327 -12Q248 -12 186 30ZM392 36T441 72T518 175T545 331Q545
420 518 486T442 587T327 623Q262 623 213 588T137 486T110 331Q110 243 137 176T213 73T327 36Q392 36 441 72ZM211 723T200 733T189 762Q189 779 200 790T228 801Q245 801 256 790T267 762Q267 744 256 734T228 723Q211 723 200 733ZM409 723T398 733T387 762Q387
779 398 790T426 801Q443 801 454 790T465 762Q465 744 454 734T426 723Q409 723 398 733Z" />
<glyph unicode="&#xd7;" glyph-name="multiply" horiz-adv-x="482" d="M51 165L211 330L51 495L81 527L241 360L401 527L431 495L271 330L431 165L401 133L241 300L81 133L51 165Z" />
<glyph unicode="&#xd8;" glyph-name="Oslash" horiz-adv-x="655" d="M567 526T585 465T603 331Q603 228 569 151T472 31T330 -12Q278 -12 232 7T151 62L87 -24L55 0L125 93Q57 186 57 331Q57 434 92 510T189 628T330 670Q434 670 507 600L568 682L600 659L533
570Q567 526 585 465ZM113 213T159 138L476 559Q418 623 330 623Q265 623 216 588T140 486T113 331Q113 213 159 138ZM395 36T444 72T521 175T548 331Q548 450 500 526L183 104Q211 71 248 54T330 36Q395 36 444 72Z" />
<glyph unicode="&#xd9;" glyph-name="Ugrave" horiz-adv-x="636" d="M218 -12T156 50T94 256V659H147V260Q147 140 194 88T318 36Q396 36 444 88T492 260V659H543V256Q543 112 480 50T318 -12Q218 -12 156 50ZM200 818L233 855L360 731L337 705L200 818Z" />
<glyph unicode="&#xda;" glyph-name="Uacute" horiz-adv-x="636" d="M218 -12T156 50T94 256V659H147V260Q147 140 194 88T318 36Q396 36 444 88T492 260V659H543V256Q543 112 480 50T318 -12Q218 -12 156 50ZM274 731L401 855L434 818L297 705L274 731Z" />
<glyph unicode="&#xdb;" glyph-name="Ucircumflex" horiz-adv-x="636" d="M218 -12T156 50T94 256V659H147V260Q147 140 194 88T318 36Q396 36 444 88T492 260V659H543V256Q543 112 480 50T318 -12Q218 -12 156 50ZM180 726L291 839H343L454 726L431 706L319 803H315L203
706L180 726Z" />
<glyph unicode="&#xdc;" glyph-name="Udieresis" horiz-adv-x="636" d="M218 -12T156 50T94 256V659H147V260Q147 140 194 88T318 36Q396 36 444 88T492 260V659H543V256Q543 112 480 50T318 -12Q218 -12 156 50ZM201 723T190 733T179 762Q179 779 190 790T218
801Q235 801 246 790T257 762Q257 744 246 734T218 723Q201 723 190 733ZM399 723T388 733T377 762Q377 779 388 790T416 801Q433 801 444 790T455 762Q455 744 444 734T416 723Q399 723 388 733Z" />
<glyph unicode="&#xdd;" glyph-name="Yacute" horiz-adv-x="452" d="M200 265L2 659H58L156 456Q189 384 224 314H228Q230 319 233 325T241 339Q248 353 267 389T299 456L396 659H450L253 265V0H200V265ZM183 731L310 855L343 818L206 705L183 731Z" />
<glyph unicode="&#xde;" glyph-name="Thorn" horiz-adv-x="567" d="M96 659H149V542H280Q396 542 456 499T516 357Q516 261 454 212T280 163H149V0H96V659ZM268 207Q367 207 414 242T462 357Q462 435 416 466T268 498H149V207H268Z" />
<glyph unicode="&#xdf;" glyph-name="germandbls" horiz-adv-x="549" d="M295 -12T234 39L258 77Q286 53 313 42T370 31Q416 31 442 59T469 126Q469 157 456 178T422 213T368 244Q333 262 312 276T277 314T262 371Q262 404 274 428T311 483Q335 514 346 536T358
587Q358 630 334 657T264 684Q207 684 174 642T141 514V0H90V529Q90 621 137 674T266 728Q332 728 371 690T410 592Q410 555 396 528T356 468Q334 440 323 420T312 376Q312 342 334 323T400 281Q439 261 462 245T502 200T519 129Q519 68 478 28T371 -12Q295 -12
234 39Z" />
<glyph unicode="&#xe0;" glyph-name="agrave" horiz-adv-x="494" d="M135 -12T96 22T57 121Q57 200 130 242T364 302Q365 366 341 407T254 449Q178 449 102 394L79 431Q115 456 161 474T260 493Q342 493 379 442T416 305V0H373L367 62H365Q276 -12 196 -12Q135
-12 96 22ZM246 32T282 50T364 106V265Q225 248 167 215T109 124Q109 77 136 55T207 32Q246 32 282 50ZM145 725L183 759L319 600L291 574L145 725Z" />
<glyph unicode="&#xe1;" glyph-name="aacute" horiz-adv-x="494" d="M135 -12T96 22T57 121Q57 200 130 242T364 302Q365 366 341 407T254 449Q178 449 102 394L79 431Q115 456 161 474T260 493Q342 493 379 442T416 305V0H373L367 62H365Q276 -12 196 -12Q135
-12 96 22ZM246 32T282 50T364 106V265Q225 248 167 215T109 124Q109 77 136 55T207 32Q246 32 282 50ZM211 600L347 759L385 725L239 574L211 600Z" />
<glyph unicode="&#xe2;" glyph-name="acircumflex" horiz-adv-x="494" d="M135 -12T96 22T57 121Q57 200 130 242T364 302Q365 366 341 407T254 449Q178 449 102 394L79 431Q115 456 161 474T260 493Q342 493 379 442T416 305V0H373L367 62H365Q276 -12 196 -12Q135
-12 96 22ZM246 32T282 50T364 106V265Q225 248 167 215T109 124Q109 77 136 55T207 32Q246 32 282 50ZM124 594L240 738H290L406 594L381 572L267 695H263L149 572L124 594Z" />
<glyph unicode="&#xe3;" glyph-name="atilde" horiz-adv-x="494" d="M135 -12T96 22T57 121Q57 200 130 242T364 302Q365 366 341 407T254 449Q178 449 102 394L79 431Q115 456 161 474T260 493Q342 493 379 442T416 305V0H373L367 62H365Q276 -12 196 -12Q135
-12 96 22ZM246 32T282 50T364 106V265Q225 248 167 215T109 124Q109 77 136 55T207 32Q246 32 282 50ZM313 579T294 592T252 631Q232 652 219 662T190 672Q165 672 153 648T138 582L100 585Q103 641 124 676T191 712Q217 712 236 699T278 660Q298 639 311 629T341
619Q365 619 377 644T392 709L430 706Q427 651 407 615T340 579Q313 579 294 592Z" />
<glyph unicode="&#xe4;" glyph-name="adieresis" horiz-adv-x="494" d="M135 -12T96 22T57 121Q57 200 130 242T364 302Q365 366 341 407T254 449Q178 449 102 394L79 431Q115 456 161 474T260 493Q342 493 379 442T416 305V0H373L367 62H365Q276 -12 196 -12Q135
-12 96 22ZM246 32T282 50T364 106V265Q225 248 167 215T109 124Q109 77 136 55T207 32Q246 32 282 50ZM158 596T147 607T136 635Q136 652 147 663T175 674Q191 674 202 663T214 635Q214 619 203 608T175 596Q158 596 147 607ZM339 596T328 607T316 635Q316 652
327 663T355 674Q372 674 383 663T394 635Q394 618 383 607T355 596Q339 596 328 607Z" />
<glyph unicode="&#xe5;" glyph-name="aring" horiz-adv-x="494" d="M135 -12T96 22T57 121Q57 200 130 242T364 302Q365 366 341 407T254 449Q178 449 102 394L79 431Q115 456 161 474T260 493Q342 493 379 442T416 305V0H373L367 62H365Q276 -12 196 -12Q135
-12 96 22ZM246 32T282 50T364 106V265Q225 248 167 215T109 124Q109 77 136 55T207 32Q246 32 282 50ZM222 549T194 576T166 645Q166 687 194 714T265 741Q308 741 336 714T364 645Q364 603 336 576T265 549Q222 549 194 576ZM292 577T310 596T329 645Q329 675
311 694T265 713Q238 713 220 694T201 645Q201 615 219 596T265 577Q292 577 310 596Z" />
<glyph unicode="&#xe6;" glyph-name="ae" horiz-adv-x="784" d="M143 -12T104 22T64 120Q64 199 137 241T366 302Q368 366 344 407T256 449Q217 449 179 433T110 394L87 431Q123 456 168 474T261 493Q317 493 352 462T401 377Q428 431 471 462T567 493Q652 493
699 434T747 269Q747 250 744 232H415Q415 174 437 129T498 58T583 32Q619 32 647 42T706 74L727 36Q691 13 658 1T577 -12Q519 -12 478 15T406 86Q358 40 304 14T204 -12Q143 -12 104 22ZM699 270Q699 357 664 403T566 450Q528 450 495 428T441 364T415 270H699ZM254
32T301 56T387 121Q378 141 373 172T366 238V265Q232 248 174 214T116 124Q116 77 143 55T215 32Q254 32 301 56Z" />
<glyph unicode="&#xe7;" glyph-name="ccedilla" horiz-adv-x="450" d="M301 -73T319 -89T338 -134Q338 -212 189 -220L182 -188Q244 -184 269 -172T294 -136Q294 -115 276 -104T216 -86L252 -11Q194 -7 149 24T77 110T51 240Q51 318 81 375T162 463T273 493Q318
493 351 478T414 435L385 399Q359 423 333 436T274 449Q226 449 188 423T127 348T104 240Q104 179 125 132T184 59T273 33Q341 33 399 87L425 51Q363 -4 290 -11L266 -65Q301 -73 319 -89Z" />
<glyph unicode="&#xe8;" glyph-name="egrave" horiz-adv-x="485" d="M448 250T445 232H101Q102 170 126 125T191 55T280 31Q348 31 407 73L428 36Q393 13 358 1T275 -12Q213 -12 162 18T81 106T51 240Q51 316 80 373T158 462T262 493Q349 493 398 434T448 270Q448
250 445 232ZM400 273Q400 360 364 405T262 450Q225 450 191 430T132 370T103 273H400ZM143 725L181 759L317 600L289 574L143 725Z" />
<glyph unicode="&#xe9;" glyph-name="eacute" horiz-adv-x="485" d="M448 250T445 232H101Q102 170 126 125T191 55T280 31Q348 31 407 73L428 36Q393 13 358 1T275 -12Q213 -12 162 18T81 106T51 240Q51 316 80 373T158 462T262 493Q349 493 398 434T448 270Q448
250 445 232ZM400 273Q400 360 364 405T262 450Q225 450 191 430T132 370T103 273H400ZM209 600L345 759L383 725L237 574L209 600Z" />
<glyph unicode="&#xea;" glyph-name="ecircumflex" horiz-adv-x="485" d="M448 250T445 232H101Q102 170 126 125T191 55T280 31Q348 31 407 73L428 36Q393 13 358 1T275 -12Q213 -12 162 18T81 106T51 240Q51 316 80 373T158 462T262 493Q349 493 398 434T448
270Q448 250 445 232ZM400 273Q400 360 364 405T262 450Q225 450 191 430T132 370T103 273H400ZM122 594L238 738H288L404 594L379 572L265 695H261L147 572L122 594Z" />
<glyph unicode="&#xeb;" glyph-name="edieresis" horiz-adv-x="485" d="M448 250T445 232H101Q102 170 126 125T191 55T280 31Q348 31 407 73L428 36Q393 13 358 1T275 -12Q213 -12 162 18T81 106T51 240Q51 316 80 373T158 462T262 493Q349 493 398 434T448 270Q448
250 445 232ZM400 273Q400 360 364 405T262 450Q225 450 191 430T132 370T103 273H400ZM156 596T145 607T134 635Q134 652 145 663T173 674Q189 674 200 663T212 635Q212 619 201 608T173 596Q156 596 145 607ZM337 596T326 607T314 635Q314 652 325 663T353 674Q370
674 381 663T392 635Q392 618 381 607T353 596Q337 596 326 607Z" />
<glyph unicode="&#xec;" glyph-name="igrave" horiz-adv-x="232" d="M90 481H142V0H90V481ZM-3 725L35 759L171 600L143 574L-3 725Z" />
<glyph unicode="&#xed;" glyph-name="iacute" horiz-adv-x="232" d="M90 481H142V0H90V481ZM63 600L199 759L237 725L91 574L63 600Z" />
<glyph unicode="&#xee;" glyph-name="icircumflex" horiz-adv-x="232" d="M90 481H142V0H90V481ZM-24 594L92 738H142L258 594L233 572L119 695H115L1 572L-24 594Z" />
<glyph unicode="&#xef;" glyph-name="idieresis" horiz-adv-x="232" d="M90 481H142V0H90V481ZM10 596T-1 607T-12 635Q-12 652 -1 663T27 674Q43 674 54 663T66 635Q66 619 55 608T27 596Q10 596 -1 607ZM191 596T180 607T168 635Q168 652 179 663T207 674Q224
674 235 663T246 635Q246 618 235 607T207 596Q191 596 180 607Z" />
<glyph unicode="&#xf0;" glyph-name="eth" horiz-adv-x="537" d="M472 469T472 253Q472 174 447 114T375 21T267 -12Q213 -12 165 16T88 97T58 220Q58 285 84 336T158 415T266 443Q307 443 344 425T410 370Q386 497 296 585L155 512L138 542L269 610Q223 649 148
691L173 725Q258 679 311 631L453 705L470 675L337 606Q472 469 472 253ZM344 33T382 93T421 252Q421 286 418 314Q383 363 347 381T269 400Q194 400 152 349T109 220Q109 166 130 124T188 57T268 33Q344 33 382 93Z" />
<glyph unicode="&#xf1;" glyph-name="ntilde" horiz-adv-x="534" d="M90 481H133L139 408H141Q182 449 221 471T306 493Q381 493 416 448T452 308V0H400V301Q400 377 375 412T294 448Q254 448 221 428T142 360V0H90V481ZM332 579T313 592T271 631Q251 652 238
662T209 672Q184 672 172 648T157 582L119 585Q122 641 143 676T210 712Q236 712 255 699T297 660Q317 639 330 629T360 619Q384 619 396 644T411 709L449 706Q446 651 426 615T359 579Q332 579 313 592Z" />
<glyph unicode="&#xf2;" glyph-name="ograve" horiz-adv-x="536" d="M209 -12T160 18T81 106T51 240Q51 318 80 375T159 463T268 493Q327 493 377 463T456 376T486 240Q486 163 457 106T377 19T268 -12Q209 -12 160 18ZM315 33T352 59T411 132T432 240Q432 301
411 348T353 422T268 449Q221 449 184 423T126 349T104 240Q104 179 125 132T184 59T268 33Q315 33 352 59ZM148 725L186 759L322 600L294 574L148 725Z" />
<glyph unicode="&#xf3;" glyph-name="oacute" horiz-adv-x="536" d="M209 -12T160 18T81 106T51 240Q51 318 80 375T159 463T268 493Q327 493 377 463T456 376T486 240Q486 163 457 106T377 19T268 -12Q209 -12 160 18ZM315 33T352 59T411 132T432 240Q432 301
411 348T353 422T268 449Q221 449 184 423T126 349T104 240Q104 179 125 132T184 59T268 33Q315 33 352 59ZM214 600L350 759L388 725L242 574L214 600Z" />
<glyph unicode="&#xf4;" glyph-name="ocircumflex" horiz-adv-x="536" d="M209 -12T160 18T81 106T51 240Q51 318 80 375T159 463T268 493Q327 493 377 463T456 376T486 240Q486 163 457 106T377 19T268 -12Q209 -12 160 18ZM315 33T352 59T411 132T432 240Q432
301 411 348T353 422T268 449Q221 449 184 423T126 349T104 240Q104 179 125 132T184 59T268 33Q315 33 352 59ZM127 594L243 738H293L409 594L384 572L270 695H266L152 572L127 594Z" />
<glyph unicode="&#xf5;" glyph-name="otilde" horiz-adv-x="536" d="M209 -12T160 18T81 106T51 240Q51 318 80 375T159 463T268 493Q327 493 377 463T456 376T486 240Q486 163 457 106T377 19T268 -12Q209 -12 160 18ZM315 33T352 59T411 132T432 240Q432 301
411 348T353 422T268 449Q221 449 184 423T126 349T104 240Q104 179 125 132T184 59T268 33Q315 33 352 59ZM316 579T297 592T255 631Q235 652 222 662T193 672Q168 672 156 648T141 582L103 585Q106 641 127 676T194 712Q220 712 239 699T281 660Q301 639 314
629T344 619Q368 619 380 644T395 709L433 706Q430 651 410 615T343 579Q316 579 297 592Z" />
<glyph unicode="&#xf6;" glyph-name="odieresis" horiz-adv-x="536" d="M209 -12T160 18T81 106T51 240Q51 318 80 375T159 463T268 493Q327 493 377 463T456 376T486 240Q486 163 457 106T377 19T268 -12Q209 -12 160 18ZM315 33T352 59T411 132T432 240Q432
301 411 348T353 422T268 449Q221 449 184 423T126 349T104 240Q104 179 125 132T184 59T268 33Q315 33 352 59ZM161 596T150 607T139 635Q139 652 150 663T178 674Q194 674 205 663T217 635Q217 619 206 608T178 596Q161 596 150 607ZM342 596T331 607T319 635Q319
652 330 663T358 674Q375 674 386 663T397 635Q397 618 386 607T358 596Q342 596 331 607Z" />
<glyph unicode="&#xf7;" glyph-name="divide" horiz-adv-x="482" d="M223 467T212 479T200 510Q200 529 212 540T241 552Q259 552 270 541T282 510Q282 491 271 479T241 467Q223 467 212 479ZM34 351H448V309H34V351ZM224 106T212 118T200 150Q200 169 212 180T241
192Q259 192 270 181T282 150Q282 131 270 119T241 106Q224 106 212 118Z" />
<glyph unicode="&#xf8;" glyph-name="oslash" horiz-adv-x="536" d="M433 412Q486 343 486 240Q486 163 457 106T377 19T268 -12Q229 -12 193 2T128 42L74 -23L46 0L103 69Q51 139 51 240Q51 318 80 375T159 463T268 493Q307 493 343 479T409 439L462 503L490
480L433 412ZM103 162T136 109L378 401Q332 450 268 450Q221 450 184 424T125 349T103 241Q103 162 136 109ZM433 316T400 371L158 79Q203 32 268 32Q315 32 352 58T411 131T433 238Q433 316 400 371Z" />
<glyph unicode="&#xf9;" glyph-name="ugrave" horiz-adv-x="532" d="M154 -12T119 33T83 173V481H134V180Q134 105 159 70T240 34Q281 34 314 56T391 129V481H442V0H399L394 80H391Q353 35 315 12T229 -12Q154 -12 119 33ZM148 725L186 759L322 600L294 574L148 725Z" />
<glyph unicode="&#xfa;" glyph-name="uacute" horiz-adv-x="532" d="M154 -12T119 33T83 173V481H134V180Q134 105 159 70T240 34Q281 34 314 56T391 129V481H442V0H399L394 80H391Q353 35 315 12T229 -12Q154 -12 119 33ZM214 600L350 759L388 725L242 574L214 600Z" />
<glyph unicode="&#xfb;" glyph-name="ucircumflex" horiz-adv-x="532" d="M154 -12T119 33T83 173V481H134V180Q134 105 159 70T240 34Q281 34 314 56T391 129V481H442V0H399L394 80H391Q353 35 315 12T229 -12Q154 -12 119 33ZM127 594L243 738H293L409 594L384
572L270 695H266L152 572L127 594Z" />
<glyph unicode="&#xfc;" glyph-name="udieresis" horiz-adv-x="532" d="M154 -12T119 33T83 173V481H134V180Q134 105 159 70T240 34Q281 34 314 56T391 129V481H442V0H399L394 80H391Q353 35 315 12T229 -12Q154 -12 119 33ZM161 596T150 607T139 635Q139 652
150 663T178 674Q194 674 205 663T217 635Q217 619 206 608T178 596Q161 596 150 607ZM342 596T331 607T319 635Q319 652 330 663T358 674Q375 674 386 663T397 635Q397 618 386 607T358 596Q342 596 331 607Z" />
<glyph unicode="&#xfd;" glyph-name="yacute" horiz-adv-x="442" d="M48 -217T25 -207L37 -164Q60 -171 76 -171Q117 -171 147 -138T196 -48L209 -8L12 481H67L179 186L231 50H235Q243 74 249 94T261 129L279 186L378 481H430L241 -57Q187 -217 76 -217Q48 -217
25 -207ZM178 600L314 759L352 725L206 574L178 600Z" />
<glyph unicode="&#xfe;" glyph-name="thorn" horiz-adv-x="546" d="M90 718H142V513L141 424Q231 493 301 493Q396 493 445 428T495 248Q495 169 466 110T389 20T283 -12Q218 -12 141 46L142 -41V-215H90V718ZM326 33T362 60T420 136T441 248Q441 341 405 395T293
449Q228 449 142 372V93Q179 62 214 48T279 33Q326 33 362 60Z" />
<glyph unicode="&#xff;" glyph-name="ydieresis" horiz-adv-x="442" d="M48 -217T25 -207L37 -164Q60 -171 76 -171Q117 -171 147 -138T196 -48L209 -8L12 481H67L179 186L231 50H235Q243 74 249 94T261 129L279 186L378 481H430L241 -57Q187 -217 76 -217Q48
-217 25 -207ZM125 596T114 607T103 635Q103 652 114 663T142 674Q158 674 169 663T181 635Q181 619 170 608T142 596Q125 596 114 607ZM306 596T295 607T283 635Q283 652 294 663T322 674Q339 674 350 663T361 635Q361 618 350 607T322 596Q306 596 295 607Z"
/>
<glyph unicode="&#x2013;" glyph-name="endash" horiz-adv-x="480" d="M41 271H439V231H41V271Z" />
<glyph unicode="&#x2014;" glyph-name="emdash" horiz-adv-x="800" d="M41 271H759V231H41V271Z" />
<glyph unicode="&#x2018;" glyph-name="quoteleft" horiz-adv-x="225" d="M122 553T134 543T147 513Q147 493 136 482T106 471Q83 471 70 489T57 542Q57 595 80 634T147 702L166 675Q130 648 114 620T97 552Q100 553 106 553Q122 553 134 543Z" />
<glyph unicode="&#x2019;" glyph-name="quoteright" horiz-adv-x="225" d="M141 699T154 681T167 628Q167 527 78 468L59 495Q94 522 111 550T128 618Q125 617 119 617Q102 617 90 628T77 657Q77 677 88 688T119 699Q141 699 154 681Z" />
<glyph unicode="&#x201a;" glyph-name="quotesinglbase" horiz-adv-x="225" d="M141 97T154 79T167 26Q167 -75 78 -134L59 -107Q94 -80 111 -52T128 16Q125 15 119 15Q102 15 90 26T77 55Q77 75 88 86T119 97Q141 97 154 79Z" />
<glyph unicode="&#x201c;" glyph-name="quotedblleft" horiz-adv-x="373" d="M122 553T134 543T147 513Q147 493 136 482T106 471Q83 471 70 489T57 542Q57 595 80 634T147 702L166 675Q130 648 114 620T97 552Q100 553 106 553Q122 553 134 543ZM270 553T282
543T295 513Q295 493 284 482T254 471Q231 471 218 489T205 542Q205 595 228 634T295 702L314 675Q278 648 262 620T245 552Q248 553 254 553Q270 553 282 543Z" />
<glyph unicode="&#x201d;" glyph-name="quotedblright" horiz-adv-x="373" d="M141 699T154 681T167 628Q167 527 78 468L59 495Q94 522 111 550T128 618Q125 617 119 617Q102 617 90 628T77 657Q77 677 88 688T119 699Q141 699 154 681ZM289 699T302 681T315
628Q315 527 226 468L207 495Q242 522 259 550T276 618Q273 617 267 617Q250 617 238 628T225 657Q225 677 236 688T267 699Q289 699 302 681Z" />
<glyph unicode="&#x201e;" glyph-name="quotedblbase" horiz-adv-x="373" d="M141 97T154 79T167 26Q167 -75 78 -134L59 -107Q94 -80 111 -52T128 16Q125 15 119 15Q102 15 90 26T77 55Q77 75 88 86T119 97Q141 97 154 79ZM289 97T302 79T315 26Q315 -75 226
-134L207 -107Q242 -80 259 -52T276 16Q273 15 267 15Q250 15 238 26T225 55Q225 75 236 86T267 97Q289 97 302 79Z" />
<glyph unicode="&#x2022;" glyph-name="bullet" horiz-adv-x="285" d="M101 152T71 183T40 264Q40 313 71 344T143 376Q184 376 214 345T245 264Q245 214 215 183T143 152Q101 152 71 183Z" />
<glyph unicode="&#x2039;" glyph-name="guilsinglleft" horiz-adv-x="261" d="M43 231V273L181 433L207 411L85 252L207 92L181 71L43 231Z" />
<glyph unicode="&#x203a;" glyph-name="guilsinglright" horiz-adv-x="261" d="M54 92L176 252L54 411L80 433L218 273V231L80 71L54 92Z" />
</font>
</defs>
</svg>
