<?xml version="1.0" standalone="no"?>
<!DOCTYPE svg PUBLIC "-//W3C//DTD SVG 1.1//EN" "http://www.w3.org/Graphics/SVG/1.1/DTD/svg11.dtd">
<svg xmlns="http://www.w3.org/2000/svg">
<defs >
<font id="Assistant" horiz-adv-x="525" ><font-face
    font-family="Assistant ExtraBold"
    units-per-em="1000"
    panose-1="0 0 9 0 0 0 0 0 0 0"
    ascent="1021"
    descent="-287"
    alphabetic="0" />
<glyph unicode=" " glyph-name="space" horiz-adv-x="200" />
<glyph unicode="!" glyph-name="exclam" horiz-adv-x="360" d="M100 522L94 670H266L260 522L236 244H124L100 522ZM137 -12T109 18T80 92Q80 136 108 166T180 196Q223 196 251 166T280 92Q280 48 252 18T180 -12Q137 -12 109 18Z" />
<glyph unicode="&quot;" glyph-name="quotedbl" horiz-adv-x="580" d="M80 536L74 684H246L240 536L206 324H114L80 536ZM340 536L334 684H506L500 536L466 324H374L340 536Z" />
<glyph unicode="#" glyph-name="numbersign" horiz-adv-x="540" d="M106 180H34V288H118L130 384H54V492H144L164 650H260L242 492H334L354 650H450L432 492H510V384H418L406 288H490V180H394L372 0H274L296 180H204L182 0H84L106 180ZM308 288L320 384H228L216 288H308Z" />
<glyph unicode="$" glyph-name="dollar" horiz-adv-x="540" d="M480 119T441 67T324 -4V-110H212V-10Q165 -4 117 15T34 66L108 182Q148 152 181 139T246 126Q283 126 299 139T316 182Q316 203 294 219T224 260Q172 287 139 308T82 365T58 448Q58 524 98 574T212
640V744H324V642Q408 629 475 558L390 460Q362 485 338 496T286 508Q252 508 237 497T222 456Q222 436 243 421T310 385Q363 359 396 338T455 281T480 194Q480 119 441 67Z" />
<glyph unicode="%" glyph-name="percent" horiz-adv-x="860" d="M142 268T104 293T44 365T22 476Q22 540 43 586T103 657T190 682Q238 682 276 658T336 586T358 476Q358 412 337 365T277 293T190 268Q142 268 104 293ZM556 662H652L304 -12H208L556 662ZM212 362T226
388T240 476Q240 588 190 588Q140 588 140 476Q140 415 154 389T190 362Q212 362 226 388ZM622 -12T584 13T524 85T502 196Q502 260 523 306T583 377T670 402Q718 402 756 378T816 306T838 196Q838 132 817 85T757 13T670 -12Q622 -12 584 13ZM692 82T706 108T720
196Q720 308 670 308Q620 308 620 196Q620 135 634 109T670 82Q692 82 706 108Z" />
<glyph unicode="&amp;" glyph-name="ampersand" horiz-adv-x="690" d="M630 -12Q546 3 456 51Q364 -12 246 -12Q174 -12 123 14T47 82T22 176Q22 239 53 281T137 357Q98 427 98 486Q98 533 121 573T187 638T286 662Q364 662 411 620T458 508Q458 450 423 408T328
327Q374 278 442 230Q491 295 512 374H668Q632 255 562 161Q621 132 670 126L630 -12ZM239 456T257 421Q292 441 310 461T328 508Q328 550 290 550Q269 550 254 533T239 486Q239 456 257 421ZM184 156T206 137T268 118Q297 118 332 134Q264 188 214 247Q184 215
184 186Q184 156 206 137Z" />
<glyph unicode="&apos;" glyph-name="quotesingle" horiz-adv-x="320" d="M80 536L74 684H246L240 536L206 324H114L80 536Z" />
<glyph unicode="(" glyph-name="parenleft" horiz-adv-x="360" d="M135 -73T102 38T68 278Q68 406 101 517T200 736L308 692Q256 598 231 492T206 278Q206 170 231 64T308 -136L200 -180Q135 -73 102 38Z" />
<glyph unicode=")" glyph-name="parenright" horiz-adv-x="360" d="M52 -136Q104 -42 129 64T154 278Q154 386 129 492T52 692L160 736Q225 629 258 518T292 278Q292 150 259 39T160 -180L52 -136Z" />
<glyph unicode="*" glyph-name="asterisk" horiz-adv-x="472" d="M82 372L142 479L30 531L57 614L178 590L192 712H280L294 589L415 614L442 531L329 479L390 372L320 321L236 412L152 321L82 372Z" />
<glyph unicode="+" glyph-name="plus" horiz-adv-x="540" d="M208 270H34V390H208V570H332V390H506V270H332V90H208V270Z" />
<glyph unicode="," glyph-name="comma" horiz-adv-x="320" d="M219 196T248 155T278 40Q278 -50 227 -113T80 -204L46 -114Q105 -95 136 -63T167 8H160Q119 8 90 33T60 102Q60 143 90 169T164 196Q219 196 248 155Z" />
<glyph unicode="-" glyph-name="hyphen" horiz-adv-x="340" d="M44 314H296V194H44V314Z" />
<glyph unicode="." glyph-name="period" horiz-adv-x="320" d="M117 -12T89 18T60 92Q60 136 88 166T160 196Q203 196 231 166T260 92Q260 48 232 18T160 -12Q117 -12 89 18Z" />
<glyph unicode="/" glyph-name="slash" horiz-adv-x="334" d="M190 710H300L124 -160H14L190 710Z" />
<glyph unicode="0" glyph-name="zero" horiz-adv-x="540" d="M199 -12T146 26T64 139T34 320Q34 479 98 562T270 646Q341 646 394 609T476 499T506 320Q506 214 477 139T394 26T270 -12Q199 -12 146 26ZM305 120T324 162T344 320Q344 400 335 442T309 499T270
514Q247 514 231 500T206 443T196 320Q196 204 215 162T270 120Q305 120 324 162Z" />
<glyph unicode="1" glyph-name="one" horiz-adv-x="492" d="M35 138H171V466H51V572Q104 582 142 596T217 634H343V138H457V0H35V138Z" />
<glyph unicode="2" glyph-name="two" horiz-adv-x="540" d="M36 98Q133 187 184 238T269 338T302 428Q302 469 281 490T224 512Q196 512 173 497T120 452L28 544Q79 598 129 622T248 646Q312 646 361 620T438 547T466 438Q466 369 416 294T284 136Q348 144 390
144H496V0H36V98Z" />
<glyph unicode="3" glyph-name="three" horiz-adv-x="540" d="M171 -12T114 11T20 78L98 186Q128 158 161 142T228 126Q271 126 295 141T320 186Q320 212 308 228T261 253T162 262V382Q238 382 269 400T300 454Q300 482 283 497T234 512Q204 512 179 500T122 460L36
564Q134 646 242 646Q348 646 410 599T472 467Q472 375 370 330V326Q427 309 459 271T492 174Q492 116 459 74T369 10T246 -12Q171 -12 114 11Z" />
<glyph unicode="4" glyph-name="four" horiz-adv-x="540" d="M518 142H450V0H290V142H20V262L236 634H450V272H518V142ZM290 272V344Q290 384 294 460Q296 484 296 494H292Q276 456 240 380L182 272H290Z" />
<glyph unicode="5" glyph-name="five" horiz-adv-x="540" d="M112 -12T22 78L98 186Q165 126 226 126Q320 126 320 208Q320 247 297 268T234 290Q209 290 192 284T146 260L72 308L88 634H464V490H236L228 398Q255 408 288 408Q376 408 434 358T492 212Q492 143
460 93T372 15T252 -12Q112 -12 22 78Z" />
<glyph unicode="6" glyph-name="six" horiz-adv-x="540" d="M400 400T453 351T506 204Q506 138 477 89T397 14T286 -12Q221 -12 165 21T73 125T38 306Q38 416 74 493T170 608T300 646Q363 646 413 624T498 566L408 464Q392 482 365 495T312 508Q203 508 195 337Q217
366 251 383T314 400Q400 400 453 351ZM312 116T331 136T350 204Q350 280 280 280Q231 280 199 226Q209 165 231 141T282 116Q312 116 331 136Z" />
<glyph unicode="7" glyph-name="seven" horiz-adv-x="540" d="M158 105T174 183T224 335T316 490H44V634H498V528Q426 444 392 372T344 219T324 0H152Q158 105 174 183Z" />
<glyph unicode="8" glyph-name="eight" horiz-adv-x="540" d="M204 -12T153 10T72 71T42 162Q42 214 69 250T146 312V316Q106 347 84 383T62 466Q62 549 121 597T274 646Q363 646 417 598T472 470Q472 429 450 395T391 337V333Q500 275 500 166Q500 115 471 75T389
11T268 -12Q204 -12 153 10ZM334 418T334 458Q334 491 317 509T270 528Q245 528 229 513T212 466Q212 436 234 417T306 378Q334 418 334 458ZM303 106T322 122T341 172Q341 194 328 209T292 236T222 268Q207 251 198 228T189 182Q189 146 213 126T272 106Q303 106
322 122Z" />
<glyph unicode="9" glyph-name="nine" horiz-adv-x="540" d="M317 646T373 613T465 509T500 328Q500 218 464 141T368 26T238 -12Q175 -12 125 10T40 68L130 170Q146 152 173 139T226 126Q335 126 343 297Q321 268 287 251T224 234Q138 234 85 283T32 430Q32 496
61 545T141 620T252 646Q317 646 373 613ZM307 354T339 408Q329 469 307 493T256 518Q226 518 207 498T188 430Q188 354 258 354Q307 354 339 408Z" />
<glyph unicode=":" glyph-name="colon" horiz-adv-x="320" d="M117 298T89 328T60 402Q60 446 88 476T160 506Q203 506 231 476T260 402Q260 358 232 328T160 298Q117 298 89 328ZM117 -12T89 18T60 92Q60 136 88 166T160 196Q203 196 231 166T260 92Q260 48 232
18T160 -12Q117 -12 89 18Z" />
<glyph unicode=";" glyph-name="semicolon" horiz-adv-x="320" d="M117 298T89 328T60 402Q60 446 88 476T160 506Q203 506 231 476T260 402Q260 358 232 328T160 298Q117 298 89 328ZM219 196T248 155T278 40Q278 -50 227 -113T80 -204L46 -114Q105 -95 136 -63T167
8H160Q119 8 90 33T60 102Q60 143 90 169T164 196Q219 196 248 155Z" />
<glyph unicode="&lt;" glyph-name="less" horiz-adv-x="540" d="M34 274V390L506 570V430L344 380L208 334V330L344 284L506 234V94L34 274Z" />
<glyph unicode="=" glyph-name="equal" horiz-adv-x="540" d="M34 510H506V390H34V510ZM34 526H506V406H34V526Z" />
<glyph unicode="&gt;" glyph-name="greater" horiz-adv-x="540" d="M34 234L196 284L332 330V334L196 380L34 430V570L506 390V274L34 94V234Z" />
<glyph unicode="?" glyph-name="question" horiz-adv-x="478" d="M150 262T150 269Q150 312 170 345T226 417Q251 444 262 460T274 494Q274 519 259 531T218 544Q195 544 177 534T136 502L42 588Q80 632 131 657T240 682Q329 682 383 639T438 506Q438 466 420
437T366 371Q332 336 316 309T302 244H152Q150 262 150 269ZM183 -12T155 18T126 92Q126 136 154 166T226 196Q269 196 297 166T326 92Q326 48 298 18T226 -12Q183 -12 155 18Z" />
<glyph unicode="@" glyph-name="at" horiz-adv-x="924" d="M333 -178T244 -136T102 -7T48 206Q48 344 110 451T279 618T512 678Q621 678 703 632T831 502T876 312Q876 224 841 161T751 66T638 34Q593 34 560 54T518 110H516Q497 81 462 63T396 44Q335 44 298 86T260
198Q260 261 288 319T363 412T466 448Q518 448 540 398H542L558 440H662L614 212Q610 196 610 182Q610 138 656 138Q686 138 712 159T754 220T770 308Q770 381 743 441T655 539T498 576Q413 576 336 530T210 401T162 210Q162 115 202 51T308 -45T452 -76Q487 -76
528 -66T600 -40L636 -132Q547 -178 438 -178Q333 -178 244 -136ZM448 150T461 159T490 190L512 316Q507 327 496 333T472 340Q448 340 429 319T399 267T388 208Q388 180 400 165T434 150Q448 150 461 159Z" />
<glyph unicode="A" glyph-name="A" horiz-adv-x="584" d="M380 138H198L166 0H-10L188 650H396L594 0H412L380 138ZM349 271L338 316Q325 367 312 428L290 522H286L280 494Q258 384 240 316L229 271H349Z" />
<glyph unicode="B" glyph-name="B" horiz-adv-x="612" d="M72 650H306Q420 650 486 614T552 488Q552 444 529 404T470 348V344Q520 329 551 291T582 192Q582 96 510 48T326 0H72V650ZM302 396Q343 396 363 413T384 462Q384 492 364 505T302 518H244V396H302ZM314
132Q414 132 414 204Q414 239 390 254T314 270H244V132H314Z" />
<glyph unicode="C" glyph-name="C" horiz-adv-x="586" d="M269 -12T199 25T86 138T44 320Q44 425 87 502T202 621T358 662Q418 662 470 638T560 576L470 466Q443 490 418 502T362 514Q324 514 292 491T240 426T220 326Q220 236 258 186T360 136Q426 136 478 192L568
84Q527 36 473 12T354 -12Q269 -12 199 25Z" />
<glyph unicode="D" glyph-name="D" horiz-adv-x="642" d="M72 650H264Q420 650 509 572T598 328Q598 162 511 81T274 0H72V650ZM254 138Q333 138 377 180T422 328Q422 433 378 472T254 512H244V138H254Z" />
<glyph unicode="E" glyph-name="E" horiz-adv-x="556" d="M72 650H492V506H244V404H456V260H244V144H502V0H72V650Z" />
<glyph unicode="F" glyph-name="F" horiz-adv-x="536" d="M72 650H496V506H244V382H460V238H244V0H72V650Z" />
<glyph unicode="G" glyph-name="G" horiz-adv-x="646" d="M279 -12T205 25T87 138T44 320Q44 425 88 502T206 621T368 662Q435 662 488 638T580 576L490 466Q463 490 437 502T374 514Q306 514 263 464T220 326Q220 233 262 185T390 136Q422 136 440 148V238H344V378H592V68Q556
33 497 11T372 -12Q279 -12 205 25Z" />
<glyph unicode="H" glyph-name="H" horiz-adv-x="682" d="M72 650H244V408H438V650H610V0H438V258H244V0H72V650Z" />
<glyph unicode="I" glyph-name="I" horiz-adv-x="316" d="M72 650H244V0H72V650Z" />
<glyph unicode="J" glyph-name="J" horiz-adv-x="520" d="M153 -12T100 18T10 111L126 198Q142 168 164 152T208 136Q245 136 262 158T280 240V650H452V226Q452 159 428 105T354 20T232 -12Q153 -12 100 18Z" />
<glyph unicode="K" glyph-name="K" horiz-adv-x="628" d="M72 650H244V408H248L412 650H600L406 386L638 0H450L306 250L244 162V0H72V650Z" />
<glyph unicode="L" glyph-name="L" horiz-adv-x="530" d="M72 650H244V144H490V0H72V650Z" />
<glyph unicode="M" glyph-name="M" horiz-adv-x="776" d="M72 650H256L354 384Q361 364 373 322L388 270H392L407 322Q419 364 426 384L520 650H704V0H548V192Q548 229 554 287T567 396L570 424H566L512 268L432 53H340L260 268L208 424H204L207 396Q214 346 220
288T226 192V0H72V650Z" />
<glyph unicode="N" glyph-name="N" horiz-adv-x="672" d="M72 650H248L392 360L454 214H458Q457 225 453 254Q436 392 436 462V650H600V0H424L280 291L218 436H214L220 383Q236 257 236 188V0H72V650Z" />
<glyph unicode="O" glyph-name="O" horiz-adv-x="692" d="M256 -12T188 28T82 146T44 328Q44 433 81 508T187 623T346 662Q436 662 504 623T610 508T648 328Q648 223 611 146T505 29T346 -12Q256 -12 188 28ZM404 136T438 187T472 328Q472 416 439 465T346 514Q287
514 254 465T220 328Q220 239 254 188T346 136Q404 136 438 187Z" />
<glyph unicode="P" glyph-name="P" horiz-adv-x="608" d="M72 650H310Q428 650 501 600T574 434Q574 358 539 307T444 231T314 206H244V0H72V650ZM306 342Q356 342 381 366T406 434Q406 476 380 495T302 514H244V342H306Z" />
<glyph unicode="Q" glyph-name="Q" horiz-adv-x="692" d="M690 -164Q645 -188 566 -188Q460 -188 384 -138T268 -3Q164 21 104 107T44 328Q44 433 81 508T187 623T346 662Q436 662 504 623T610 508T648 328Q648 203 595 119T449 4Q470 -25 507 -38T586 -52Q626
-52 660 -40L690 -164ZM287 514T254 465T220 328Q220 233 253 181T346 128Q405 128 438 180T472 328Q472 416 439 465T346 514Q287 514 254 465Z" />
<glyph unicode="R" glyph-name="R" horiz-adv-x="630" d="M422 0L310 218H244V0H72V650H318Q435 650 506 602T578 440Q578 373 550 326T473 252L614 0H422ZM244 354H306Q357 354 383 376T410 440Q410 481 385 497T306 514H244V354Z" />
<glyph unicode="S" glyph-name="S" horiz-adv-x="564" d="M214 -12T149 11T32 81L130 199Q165 171 206 154T282 136Q356 136 356 182Q356 197 346 206T315 225T268 245L187 279Q129 302 93 348T56 460Q56 515 87 561T173 635T298 662Q356 662 413 640T514 575L428
467Q394 491 364 502T298 514Q266 514 248 503T230 470Q230 455 241 445T275 425T326 405L405 374Q532 324 532 196Q532 140 502 93T414 17T278 -12Q214 -12 149 11Z" />
<glyph unicode="T" glyph-name="T" horiz-adv-x="564" d="M196 506H24V650H540V506H368V0H196V506Z" />
<glyph unicode="U" glyph-name="U" horiz-adv-x="672" d="M201 -12T135 68T68 314V650H240V294Q240 208 263 172T338 136Q390 136 414 172T438 294V650H604V314Q604 147 539 68T338 -12Q201 -12 135 68Z" />
<glyph unicode="V" glyph-name="V" horiz-adv-x="572" d="M-10 650H172L240 366Q253 314 264 261Q269 242 274 217T288 160H292Q301 195 307 223T319 273Q328 319 340 366L406 650H582L390 0H182L-10 650Z" />
<glyph unicode="W" glyph-name="W" horiz-adv-x="824" d="M10 650H186L222 366L244 162H248L284 366L346 650H490L552 366L582 197L588 162H592L614 366L650 650H814L706 0H488L438 258Q425 325 414 410H410L406 382Q393 293 386 258L338 0H124L10 650Z" />
<glyph unicode="X" glyph-name="X" horiz-adv-x="588" d="M186 334L20 650H212L256 544Q264 526 270 510T283 481L302 436H306Q322 484 346 544L384 650H568L402 326L578 0H386L334 116Q315 156 288 224H284Q270 184 242 116L194 0H10L186 334Z" />
<glyph unicode="Y" glyph-name="Y" horiz-adv-x="544" d="M186 224L-10 650H174L222 514L249 433Q254 420 259 404T271 369H275Q290 414 306 456Q309 465 326 514L374 650H554L358 224V0H186V224Z" />
<glyph unicode="Z" glyph-name="Z" horiz-adv-x="542" d="M32 104L298 506H58V650H510V546L244 144H512V0H32V104Z" />
<glyph unicode="[" glyph-name="bracketleft" horiz-adv-x="360" d="M84 708H308V618H212V-62H308V-152H84V708Z" />
<glyph unicode="\" glyph-name="backslash" horiz-adv-x="334" d="M34 710H144L320 -160H210L34 710Z" />
<glyph unicode="]" glyph-name="bracketright" horiz-adv-x="360" d="M52 -62H148V618H52V708H276V-152H52V-62Z" />
<glyph unicode="^" glyph-name="asciicircum" horiz-adv-x="540" d="M202 670H338L494 270H354L316 380L272 516H268L224 380L186 270H46L202 670Z" />
<glyph unicode="_" glyph-name="underscore" horiz-adv-x="500" d="M12 -52H488V-146H12V-52Z" />
<glyph unicode="`" glyph-name="grave" horiz-adv-x="560" d="M70 730L186 844L344 656L260 572L70 730Z" />
<glyph unicode="a" glyph-name="a" horiz-adv-x="536" d="M143 -12T109 9T56 65T38 142Q38 221 102 265T310 324Q307 351 290 363T240 376Q214 376 184 366T114 334L54 446Q164 512 274 512Q482 512 482 278V0H342L330 48H326Q259 -12 188 -12Q143 -12 109 9ZM267
120T280 128T310 154V222Q202 206 202 156Q202 139 214 130T248 120Q267 120 280 128Z" />
<glyph unicode="b" glyph-name="b" horiz-adv-x="580" d="M267 -12T210 54H206L192 0H58V696H230V534L226 462Q252 486 284 499T349 512Q407 512 451 481T520 392T544 259Q544 176 515 115T438 21T336 -12Q267 -12 210 54ZM327 128T347 158T368 256Q368 316 351
344T298 372Q278 372 262 364T230 336V152Q257 128 294 128Q327 128 347 158Z" />
<glyph unicode="c" glyph-name="c" horiz-adv-x="472" d="M212 -12T155 19T65 110T32 250Q32 330 68 389T166 480T300 512Q384 512 446 460L366 350Q337 374 310 374Q262 374 235 341T208 250Q208 194 235 160T304 126Q341 126 384 158L450 46Q415 15 372 2T284
-12Q212 -12 155 19Z" />
<glyph unicode="d" glyph-name="d" horiz-adv-x="580" d="M178 -12T132 20T61 111T36 250Q36 329 65 388T141 480T240 512Q278 512 304 500T356 462L350 534V696H522V0H382L370 46H366Q340 20 306 4T240 -12Q178 -12 132 20ZM307 128T322 136T350 164V348Q323
372 282 372Q252 372 232 343T212 252Q212 187 231 158T286 128Q307 128 322 136Z" />
<glyph unicode="e" glyph-name="e" horiz-adv-x="526" d="M490 226T483 198H195Q207 154 239 136T314 118Q362 118 416 148L472 46Q433 18 384 3T290 -12Q216 -12 158 19T66 109T32 250Q32 328 66 387T155 479T272 512Q378 512 434 444T490 270Q490 226 483 198ZM344
310Q344 342 328 362T276 382Q248 382 227 365T195 310H344Z" />
<glyph unicode="f" glyph-name="f" horiz-adv-x="360" d="M287 574T274 560T260 512V500H344V366H260V0H88V366H22V494L88 499V506Q88 595 135 651T286 708Q342 708 392 690L362 564Q335 574 312 574Q287 574 274 560Z" />
<glyph unicode="g" glyph-name="g" horiz-adv-x="546" d="M147 -206T89 -176T30 -82Q30 -23 100 14V18Q54 50 54 104Q54 129 69 154T110 198V202Q81 222 62 255T42 330Q42 389 71 430T150 491T256 512Q300 512 336 500H522V376H450Q458 352 458 324Q458 240 402
199T256 158Q231 158 200 165Q193 158 191 153T188 136Q188 120 204 113T258 106H333Q430 106 480 75T530 -24Q530 -78 495 -119T394 -183T240 -206Q147 -206 89 -176ZM281 260T295 277T310 330Q310 363 296 380T256 398Q231 398 217 381T202 330Q202 295 216 278T256
260Q281 260 295 277ZM311 -100T338 -88T366 -54Q366 -36 351 -30T299 -24H260Q209 -24 188 -18Q170 -36 170 -54Q170 -77 196 -88T268 -100Q311 -100 338 -88Z" />
<glyph unicode="h" glyph-name="h" horiz-adv-x="582" d="M58 696H230V534L222 448Q254 476 290 494T372 512Q452 512 490 459T528 308V0H356V286Q356 332 345 349T306 366Q284 366 268 358T230 328V0H58V696Z" />
<glyph unicode="i" glyph-name="i" horiz-adv-x="288" d="M58 500H230V0H58V500ZM104 562T78 586T52 648Q52 686 78 710T144 734Q184 734 210 710T236 648Q236 610 210 586T144 562Q104 562 78 586Z" />
<glyph unicode="j" glyph-name="j" horiz-adv-x="290" d="M106 562T80 586T54 648Q54 686 80 710T146 734Q186 734 212 710T238 648Q238 610 212 586T146 562Q106 562 80 586ZM240 500L238 26Q238 -69 193 -128T44 -188Q-12 -188 -50 -174L-20 -48Q1 -54 16 -54Q43
-54 54 -37T66 20L68 500H240Z" />
<glyph unicode="k" glyph-name="k" horiz-adv-x="568" d="M58 696H226V326H230L368 500H554L376 292L564 0H378L278 178L226 120V0H58V696Z" />
<glyph unicode="l" glyph-name="l" horiz-adv-x="298" d="M129 -12T94 37T58 176V696H230V170Q230 147 238 137T258 126Q268 126 276 128L296 2Q265 -12 212 -12Q129 -12 94 37Z" />
<glyph unicode="m" glyph-name="m" horiz-adv-x="868" d="M58 500H198L210 439H214Q250 474 284 493T364 512Q414 512 447 492T502 432Q539 470 574 491T656 512Q736 512 775 458T814 308V0H642V286Q642 332 631 349T592 366Q560 366 522 328V0H350V286Q350 332
339 349T300 366Q268 366 230 328V0H58V500Z" />
<glyph unicode="n" glyph-name="n" horiz-adv-x="582" d="M58 500H198L210 440H214Q249 473 287 492T372 512Q452 512 490 459T528 308V0H356V286Q356 332 345 349T306 366Q284 366 268 358T230 328V0H58V500Z" />
<glyph unicode="o" glyph-name="o" horiz-adv-x="560" d="M215 -12T158 19T67 110T32 250Q32 330 66 389T158 480T280 512Q345 512 402 481T493 390T528 250Q528 170 494 111T402 20T280 -12Q215 -12 158 19ZM352 126T352 250Q352 374 280 374Q208 374 208 250Q208
126 280 126Q352 126 352 250Z" />
<glyph unicode="p" glyph-name="p" horiz-adv-x="580" d="M58 500H198L210 454H214Q243 481 278 496T350 512Q408 512 452 481T520 392T544 258Q544 175 515 114T438 21T336 -12Q274 -12 224 38L230 -38V-176H58V500ZM327 128T347 158T368 256Q368 316 351 344T298
372Q278 372 262 364T230 336V152Q257 128 294 128Q327 128 347 158Z" />
<glyph unicode="q" glyph-name="q" horiz-adv-x="580" d="M350 -33L356 38Q333 15 302 2T240 -12Q178 -12 132 20T61 111T36 250Q36 329 65 388T141 480T240 512Q280 512 311 498T370 450H374L388 500H522V-176H350V-33ZM307 128T322 136T350 164V348Q323 372
282 372Q252 372 232 343T212 252Q212 187 231 158T286 128Q307 128 322 136Z" />
<glyph unicode="r" glyph-name="r" horiz-adv-x="418" d="M58 500H198L210 414H214Q240 463 278 487T356 512Q395 512 418 502L390 354Q354 362 334 362Q304 362 276 342T230 278V0H58V500Z" />
<glyph unicode="s" glyph-name="s" horiz-adv-x="452" d="M164 -12T111 7T18 58L94 164Q162 114 216 114Q243 114 254 121T266 144Q266 159 250 168T195 192Q190 194 184 196T170 202Q44 252 44 350Q44 423 98 467T242 512Q298 512 342 494T426 446L350 344Q292
386 248 386Q204 386 204 358Q204 343 220 335T274 312Q282 310 298 304Q354 283 390 249T426 154Q426 81 370 35T212 -12Q164 -12 111 7Z" />
<glyph unicode="t" glyph-name="t" horiz-adv-x="400" d="M170 -12T125 42T80 192V366H14V494L90 500L110 630H252V500H366V366H252V195Q252 156 268 139T312 122Q332 122 356 130L382 6Q324 -12 264 -12Q170 -12 125 42Z" />
<glyph unicode="u" glyph-name="u" horiz-adv-x="578" d="M130 -12T92 41T54 192V500H226V214Q226 168 237 151T276 134Q300 134 315 144T348 178V500H520V0H380L368 66H364Q332 28 296 8T210 -12Q130 -12 92 41Z" />
<glyph unicode="v" glyph-name="v" horiz-adv-x="544" d="M12 500H184L238 282L274 126H278L314 282L368 500H532L374 0H176L12 500Z" />
<glyph unicode="w" glyph-name="w" horiz-adv-x="798" d="M24 500H194L232 290Q236 264 242 212Q249 159 252 138H256Q272 242 284 290L330 500H476L524 290Q529 269 546 183Q548 168 554 138H558Q561 159 568 212Q574 264 578 290L616 500H774L660 0H460L424
174Q408 266 400 321H396L390 279Q382 218 374 174L340 0H144L24 500Z" />
<glyph unicode="x" glyph-name="x" horiz-adv-x="540" d="M164 260L22 500H206L242 430L282 344H286L301 387Q304 396 308 406T316 430L340 500H518L376 240L526 0H342L302 70L280 113Q269 138 258 156H254L220 70L192 0H14L164 260Z" />
<glyph unicode="y" glyph-name="y" horiz-adv-x="542" d="M93 -188T56 -178L86 -48Q89 -49 99 -51T118 -54Q179 -54 196 -4L202 18L12 500H184L244 308Q256 269 273 197Q278 174 280 166H284Q302 250 316 308L366 500H530L362 8Q335 -63 306 -105T235 -167T132
-188Q93 -188 56 -178Z" />
<glyph unicode="z" glyph-name="z" horiz-adv-x="474" d="M40 92L230 366H62V500H444V408L254 134H450V0H40V92Z" />
<glyph unicode="{" glyph-name="braceleft" horiz-adv-x="360" d="M168 -152T137 -120T106 -6Q106 20 111 80Q116 118 116 156Q116 185 95 206T30 228V328Q74 329 95 350T116 400Q116 438 111 476Q106 536 106 562Q106 643 137 675T238 708H308V618H292Q264 618
254 606T244 556Q244 533 246 483Q248 431 248 400Q248 342 229 316T168 280V276Q210 267 229 241T248 156Q248 125 246 73Q244 23 244 0Q244 -38 254 -50T292 -62H308V-152H238Q168 -152 137 -120Z" />
<glyph unicode="|" glyph-name="bar" horiz-adv-x="278" d="M84 750H194V-250H84V750Z" />
<glyph unicode="}" glyph-name="braceright" horiz-adv-x="360" d="M52 -62H68Q96 -62 106 -50T116 0Q116 23 114 73Q112 125 112 156Q112 214 131 240T192 276V280Q150 289 131 315T112 400Q112 431 114 483Q116 533 116 556Q116 594 106 606T68 618H52V708H122Q192
708 223 676T254 562Q254 536 249 476Q244 438 244 400Q244 371 265 350T330 328V228Q286 227 265 206T244 156Q244 118 249 80Q254 20 254 -6Q254 -87 223 -119T122 -152H52V-62Z" />
<glyph unicode="~" glyph-name="asciitilde" horiz-adv-x="540" d="M323 234T301 245T250 276Q229 291 215 298T184 306Q147 306 114 250L26 318Q99 426 186 426Q217 426 239 415T290 384Q311 369 325 362T356 354Q393 354 426 410L514 342Q441 234 354 234Q323
234 301 245Z" />
<glyph unicode="&#xa0;" glyph-name="uni00A0" horiz-adv-x="210" />
<glyph unicode="&#xa1;" glyph-name="exclamdown" horiz-adv-x="360" d="M137 304T109 334T80 408Q80 452 108 482T180 512Q223 512 251 482T280 408Q280 364 252 334T180 304Q137 304 109 334ZM100 -22L124 256H236L260 -22L266 -170H94L100 -22Z" />
<glyph unicode="&#xa2;" glyph-name="cent" horiz-adv-x="540" d="M446 59T372 47V-44H280V47Q178 61 119 129T60 306Q60 410 120 477T280 562V656H372V567Q409 563 440 549T494 512L416 406Q393 424 372 429V184Q401 190 432 214L500 106Q446 59 372 47ZM226
269T240 242T280 199V413Q226 384 226 306Q226 269 240 242Z" />
<glyph unicode="&#xa3;" glyph-name="sterling" horiz-adv-x="540" d="M264 144H514V0H46V106Q92 126 122 163T152 250Q152 261 151 266H52V364L120 370H122Q110 408 110 432Q110 497 139 545T219 620T334 646Q390 646 433 626T514 562L422 470Q390 508 352 508Q316
508 295 488T274 422Q274 406 280 370H424V266H301Q302 260 302 248Q302 219 294 196T264 148V144Z" />
<glyph unicode="&#xa4;" glyph-name="currency" horiz-adv-x="540" d="M17 161L77 221Q44 268 44 330Q44 391 76 437L17 497L102 582L172 512Q220 532 270 532Q320 532 368 512L438 582L523 497L463 437Q496 391 496 330Q496 270 462 221L523 161L438 76L367 147Q322
128 270 128Q218 128 173 147L102 76L17 161ZM302 246T323 269T344 330Q344 368 323 391T270 414Q238 414 217 391T196 330Q196 292 217 269T270 246Q302 246 323 269Z" />
<glyph unicode="&#xa5;" glyph-name="yen" horiz-adv-x="540" d="M184 142H34V222H184V272H34V352H148L8 634H184L224 516Q254 428 270 386H274L320 516L360 634H532L392 352H506V272H356V222H506V142H356V0H184V142Z" />
<glyph unicode="&#xa6;" glyph-name="brokenbar" horiz-adv-x="278" d="M84 750H194V320H84V750ZM84 200H194V-250H84V200Z" />
<glyph unicode="&#xa7;" glyph-name="section" horiz-adv-x="540" d="M506 201T425 149Q446 117 446 74Q446 0 394 -46T242 -92Q183 -92 128 -69T40 -2L138 84Q161 59 188 47T242 34Q292 34 292 66Q292 82 274 93T213 123Q159 147 123 168T61 227T34 320Q34 355
54 389T111 447Q84 482 84 530Q84 604 134 648T272 692Q328 692 376 673T462 624L384 518Q360 539 332 552T282 566Q260 566 249 559T238 536Q238 522 256 511T316 482Q372 458 410 436T477 376T506 284Q506 201 425 149ZM178 305T203 288T282 246Q304 237 337
221Q362 240 362 270Q362 298 335 316T252 358Q212 376 203 380Q178 361 178 332Q178 305 203 288Z" />
<glyph unicode="&#xa8;" glyph-name="dieresis" horiz-adv-x="560" d="M131 562T109 585T86 642Q86 676 108 699T166 722Q201 722 223 699T246 642Q246 608 224 585T166 562Q131 562 109 585ZM359 562T337 585T314 642Q314 676 336 699T394 722Q429 722 451 699T474
642Q474 608 452 585T394 562Q359 562 337 585Z" />
<glyph unicode="&#xa9;" glyph-name="copyright" horiz-adv-x="752" d="M286 -8T210 32T89 149T44 326Q44 427 89 501T210 616T376 656Q466 656 542 616T663 501T708 326Q708 225 663 149T542 33T376 -8Q286 -8 210 32ZM449 60T507 93T598 187T632 326Q632 404
599 463T507 555T376 588Q303 588 245 556T154 464T120 326Q120 248 153 188T245 94T376 60Q449 60 507 93ZM332 128T287 152T217 220T192 324Q192 381 219 425T291 494T388 518Q432 518 464 502T524 458L461 388Q446 404 432 412T400 420Q358 420 336 393T313
324Q313 279 335 253T394 226Q415 226 430 233T466 256L520 178Q457 128 390 128Q332 128 287 152Z" />
<glyph unicode="&#xaa;" glyph-name="ordfeminine" horiz-adv-x="364" d="M82 360T54 390T26 462Q26 515 69 544T208 582Q206 599 196 606T164 614Q132 614 78 586L36 664Q111 708 186 708Q253 708 290 670T328 554V368H232L222 400H218Q178 360 128 360Q82 360
54 390ZM181 450T189 455T208 470V514Q140 506 140 472Q140 450 169 450Q181 450 189 455Z" />
<glyph unicode="&#xab;" glyph-name="guillemotleft" horiz-adv-x="500" d="M50 192V312L184 452L246 402L138 252L246 102L184 52L50 192ZM250 192V312L384 452L446 402L338 252L446 102L384 52L250 192Z" />
<glyph unicode="&#xac;" glyph-name="logicalnot" horiz-adv-x="540" d="M382 270H34V390H506V90H382V270Z" />
<glyph unicode="&#xad;" glyph-name="uni00AD" horiz-adv-x="340" d="M44 314H296V194H44V314Z" />
<glyph unicode="&#xae;" glyph-name="registered" horiz-adv-x="477" d="M182 308T136 334T63 407T36 512Q36 570 63 616T136 689T238 716Q294 716 340 690T413 617T440 512Q440 454 413 408T340 335T238 308Q182 308 136 334ZM302 362T341 403T380 512Q380 580
341 621T238 662Q174 662 135 621T96 512Q96 444 135 403T238 362Q302 362 341 403ZM154 610H248Q285 610 307 593T330 544Q330 507 296 490L336 416H270L242 472H218V416H154V610ZM236 515Q249 515 255 522T262 540Q262 550 255 556T236 563H218V515H236Z" />
<glyph unicode="&#xaf;" glyph-name="overscore" horiz-adv-x="560" d="M126 696H434V588H126V696Z" />
<glyph unicode="&#xb0;" glyph-name="degree" horiz-adv-x="378" d="M148 386T113 405T58 459T38 536Q38 578 58 612T113 666T190 686Q232 686 267 667T322 613T342 536Q342 494 322 460T267 406T190 386Q148 386 113 405ZM219 466T236 485T254 536Q254 567 237
586T190 606Q161 606 144 587T126 536Q126 505 143 486T190 466Q219 466 236 485Z" />
<glyph unicode="&#xb1;" glyph-name="plusminus" horiz-adv-x="540" d="M208 290H34V410H208V570H332V410H506V290H332V170H208V290ZM34 120H506V0H34V120Z" />
<glyph unicode="&#xb4;" glyph-name="acute" horiz-adv-x="560" d="M216 656L374 844L490 730L300 572L216 656Z" />
<glyph unicode="&#xb6;" glyph-name="paragraph" horiz-adv-x="666" d="M227 186T168 213T73 295T38 424Q38 544 109 597T298 650H342V186H298Q227 186 168 213ZM398 650H570V-80H398V650Z" />
<glyph unicode="&#xb7;" glyph-name="middot" horiz-adv-x="320" d="M117 216T89 246T60 320Q60 364 88 394T160 424Q203 424 231 394T260 320Q260 276 232 246T160 216Q117 216 89 246Z" />
<glyph unicode="&#xb8;" glyph-name="cedilla" horiz-adv-x="560" d="M160 -178Q217 -175 238 -166T260 -136Q260 -121 244 -112T184 -96L234 4H332L304 -60Q344 -69 363 -87T382 -136Q382 -238 172 -244L160 -178Z" />
<glyph unicode="&#xba;" glyph-name="ordmasculine" horiz-adv-x="376" d="M144 360T106 381T45 441T22 533Q22 586 45 626T106 687T188 708Q232 708 270 687T331 626T354 533Q354 480 331 441T270 381T188 360Q144 360 106 381ZM212 454T222 474T232 533Q232
572 222 593T188 614Q164 614 154 593T144 533Q144 495 154 475T188 454Q212 454 222 474Z" />
<glyph unicode="&#xbb;" glyph-name="guillemotright" horiz-adv-x="500" d="M54 102L162 252L54 402L116 452L250 312V192L116 52L54 102ZM254 102L362 252L254 402L316 452L450 312V192L316 52L254 102Z" />
<glyph unicode="&#xbc;" glyph-name="onequarter" horiz-adv-x="860" d="M162 300V570H72V646Q113 652 137 661T190 690H288V300H162ZM652 662L304 -12H208L556 662H652ZM860 80H802V0H692V80H512V142L644 390H802V160H860V80ZM692 160V190L698 310H694L658 234L624
160H692Z" />
<glyph unicode="&#xbd;" glyph-name="onehalf" horiz-adv-x="860" d="M162 570H72V646Q113 652 137 661T190 690H288V300H162V570ZM556 662H652L304 -12H208L556 662ZM522 66Q603 129 645 172T688 246Q688 272 675 286T638 300Q621 300 605 289T572 256L502 320Q535
362 573 382T658 402Q726 402 767 366T808 268Q808 229 786 192T720 104H820V0H522V66Z" />
<glyph unicode="&#xbe;" glyph-name="threequarters" horiz-adv-x="860" d="M344 375T323 347T265 304T188 288Q135 288 93 308T24 368L98 426Q116 402 133 392T174 382Q195 382 208 392T222 420Q222 443 203 453T140 464V534Q208 534 208 574Q208 590 197 599T168
608Q139 608 110 572L40 634Q75 671 109 686T190 702Q248 702 289 672T330 592Q330 563 317 542T278 504Q308 490 326 466T344 410Q344 375 323 347ZM652 662L304 -12H208L556 662H652ZM860 80H802V0H692V80H512V142L644 390H802V160H860V80ZM692 160V190L698 310H694L658
234L624 160H692Z" />
<glyph unicode="&#xbf;" glyph-name="questiondown" horiz-adv-x="478" d="M209 304T181 334T152 408Q152 452 180 482T252 512Q295 512 323 482T352 408Q352 364 324 334T252 304Q209 304 181 334ZM149 -182T95 -139T40 -6Q40 34 58 63T112 129Q146 164 162 191T176
256H326Q328 238 328 231Q328 188 308 155T252 83Q227 56 216 40T204 6Q204 -19 219 -31T260 -44Q283 -44 301 -34T342 -2L436 -88Q397 -132 347 -157T238 -182Q149 -182 95 -139Z" />
<glyph unicode="&#xc0;" glyph-name="Agrave" horiz-adv-x="584" d="M380 138H198L166 0H-10L188 650H396L594 0H412L380 138ZM349 271L338 316Q325 367 312 428L290 522H286L280 494Q258 384 240 316L229 271H349ZM100 794L190 904L372 760L296 674L100 794Z" />
<glyph unicode="&#xc1;" glyph-name="Aacute" horiz-adv-x="584" d="M380 138H198L166 0H-10L188 650H396L594 0H412L380 138ZM349 271L338 316Q325 367 312 428L290 522H286L280 494Q258 384 240 316L229 271H349ZM204 760L386 904L476 794L280 674L204 760Z" />
<glyph unicode="&#xc2;" glyph-name="Acircumflex" horiz-adv-x="584" d="M380 138H198L166 0H-10L188 650H396L594 0H412L380 138ZM349 271L338 316Q325 367 312 428L290 522H286L280 494Q258 384 240 316L229 271H349ZM110 724L194 834H382L466 724L392 680L290
760H286L184 680L110 724Z" />
<glyph unicode="&#xc3;" glyph-name="Atilde" horiz-adv-x="584" d="M380 138H198L166 0H-10L188 650H396L594 0H412L380 138ZM349 271L338 316Q325 367 312 428L290 522H286L280 494Q258 384 240 316L229 271H349ZM330 686T309 695T262 721Q251 728 241 733T224
738Q211 738 203 729T192 696L82 704Q86 782 122 819T218 856Q246 856 267 847T314 821Q325 814 335 809T352 804Q365 804 373 813T384 846L494 838Q490 760 454 723T358 686Q330 686 309 695Z" />
<glyph unicode="&#xc4;" glyph-name="Adieresis" horiz-adv-x="584" d="M380 138H198L166 0H-10L188 650H396L594 0H412L380 138ZM349 271L338 316Q325 367 312 428L290 522H286L280 494Q258 384 240 316L229 271H349ZM140 694T118 716T96 772Q96 805 118 827T174
850Q208 850 230 828T252 772Q252 739 230 717T174 694Q140 694 118 716ZM368 694T346 716T324 772Q324 805 346 827T402 850Q436 850 458 828T480 772Q480 739 458 717T402 694Q368 694 346 716Z" />
<glyph unicode="&#xc5;" glyph-name="Aring" horiz-adv-x="584" d="M380 138H198L166 0H-10L188 650H396L594 0H412L380 138ZM349 271L338 316Q325 367 312 428L290 522H286L280 494Q258 384 240 316L229 271H349ZM234 696T201 724T168 798Q168 844 201 872T288
900Q342 900 375 872T408 798Q408 752 375 724T288 696Q234 696 201 724ZM304 758T315 769T326 798Q326 816 315 827T288 838Q272 838 261 827T250 798Q250 780 261 769T288 758Q304 758 315 769Z" />
<glyph unicode="&#xc6;" glyph-name="AE" horiz-adv-x="854" d="M800 144V0H380V132H215L158 0H-22L274 650H790V506H552V404H754V260H552V144H800ZM380 265V522H376L356 469Q348 448 334 411T308 348L272 265H380Z" />
<glyph unicode="&#xc7;" glyph-name="Ccedilla" horiz-adv-x="586" d="M269 -12T199 25T86 138T44 320Q44 425 87 502T202 621T358 662Q418 662 470 638T560 576L470 466Q443 490 418 502T362 514Q324 514 292 491T240 426T220 326Q220 236 258 186T360 136Q426
136 478 192L568 84Q527 36 473 12T354 -12Q269 -12 199 25Z" />
<glyph unicode="&#xc8;" glyph-name="Egrave" horiz-adv-x="556" d="M72 650H492V506H244V404H456V260H244V144H502V0H72V650ZM102 794L192 904L374 760L298 674L102 794Z" />
<glyph unicode="&#xc9;" glyph-name="Eacute" horiz-adv-x="556" d="M72 650H492V506H244V404H456V260H244V144H502V0H72V650ZM206 760L388 904L478 794L282 674L206 760Z" />
<glyph unicode="&#xca;" glyph-name="Ecircumflex" horiz-adv-x="556" d="M72 650H492V506H244V404H456V260H244V144H502V0H72V650ZM112 724L196 834H384L468 724L394 680L292 760H288L186 680L112 724Z" />
<glyph unicode="&#xcb;" glyph-name="Edieresis" horiz-adv-x="556" d="M72 650H492V506H244V404H456V260H244V144H502V0H72V650ZM142 694T120 716T98 772Q98 805 120 827T176 850Q210 850 232 828T254 772Q254 739 232 717T176 694Q142 694 120 716ZM370 694T348
716T326 772Q326 805 348 827T404 850Q438 850 460 828T482 772Q482 739 460 717T404 694Q370 694 348 716Z" />
<glyph unicode="&#xcc;" glyph-name="Igrave" horiz-adv-x="316" d="M72 650H244V0H72V650ZM-30 794L60 904L242 760L166 674L-30 794Z" />
<glyph unicode="&#xcd;" glyph-name="Iacute" horiz-adv-x="316" d="M72 650H244V0H72V650ZM74 760L256 904L346 794L150 674L74 760Z" />
<glyph unicode="&#xce;" glyph-name="Icircumflex" horiz-adv-x="316" d="M72 650H244V0H72V650ZM-20 724L64 834H252L336 724L262 680L160 760H156L54 680L-20 724Z" />
<glyph unicode="&#xcf;" glyph-name="Idieresis" horiz-adv-x="316" d="M72 650H244V0H72V650ZM10 694T-12 716T-34 772Q-34 805 -12 827T44 850Q78 850 100 828T122 772Q122 739 100 717T44 694Q10 694 -12 716ZM238 694T216 716T194 772Q194 805 216 827T272
850Q306 850 328 828T350 772Q350 739 328 717T272 694Q238 694 216 716Z" />
<glyph unicode="&#xd0;" glyph-name="Eth" horiz-adv-x="668" d="M446 650T535 572T624 328Q624 162 537 81T300 0H98V294H24V368L98 374V650H290Q446 650 535 572ZM359 138T403 180T448 328Q448 433 404 472T280 512H270V374H386V294H270V138H280Q359 138 403 180Z" />
<glyph unicode="&#xd1;" glyph-name="Ntilde" horiz-adv-x="672" d="M72 650H248L392 360L454 214H458Q457 225 453 254Q436 392 436 462V650H600V0H424L280 291L218 436H214L220 383Q236 257 236 188V0H72V650ZM378 686T357 695T310 721Q299 728 289 733T272
738Q259 738 251 729T240 696L130 704Q134 782 170 819T266 856Q294 856 315 847T362 821Q373 814 383 809T400 804Q413 804 421 813T432 846L542 838Q538 760 502 723T406 686Q378 686 357 695Z" />
<glyph unicode="&#xd2;" glyph-name="Ograve" horiz-adv-x="692" d="M256 -12T188 28T82 146T44 328Q44 433 81 508T187 623T346 662Q436 662 504 623T610 508T648 328Q648 223 611 146T505 29T346 -12Q256 -12 188 28ZM404 136T438 187T472 328Q472 416 439 465T346
514Q287 514 254 465T220 328Q220 239 254 188T346 136Q404 136 438 187ZM158 794L248 904L430 760L354 674L158 794Z" />
<glyph unicode="&#xd3;" glyph-name="Oacute" horiz-adv-x="692" d="M256 -12T188 28T82 146T44 328Q44 433 81 508T187 623T346 662Q436 662 504 623T610 508T648 328Q648 223 611 146T505 29T346 -12Q256 -12 188 28ZM404 136T438 187T472 328Q472 416 439 465T346
514Q287 514 254 465T220 328Q220 239 254 188T346 136Q404 136 438 187ZM262 760L444 904L534 794L338 674L262 760Z" />
<glyph unicode="&#xd4;" glyph-name="Ocircumflex" horiz-adv-x="692" d="M256 -12T188 28T82 146T44 328Q44 433 81 508T187 623T346 662Q436 662 504 623T610 508T648 328Q648 223 611 146T505 29T346 -12Q256 -12 188 28ZM404 136T438 187T472 328Q472 416
439 465T346 514Q287 514 254 465T220 328Q220 239 254 188T346 136Q404 136 438 187ZM168 724L252 834H440L524 724L450 680L348 760H344L242 680L168 724Z" />
<glyph unicode="&#xd5;" glyph-name="Otilde" horiz-adv-x="692" d="M256 -12T188 28T82 146T44 328Q44 433 81 508T187 623T346 662Q436 662 504 623T610 508T648 328Q648 223 611 146T505 29T346 -12Q256 -12 188 28ZM404 136T438 187T472 328Q472 416 439 465T346
514Q287 514 254 465T220 328Q220 239 254 188T346 136Q404 136 438 187ZM388 686T367 695T320 721Q309 728 299 733T282 738Q269 738 261 729T250 696L140 704Q144 782 180 819T276 856Q304 856 325 847T372 821Q383 814 393 809T410 804Q423 804 431 813T442
846L552 838Q548 760 512 723T416 686Q388 686 367 695Z" />
<glyph unicode="&#xd6;" glyph-name="Odieresis" horiz-adv-x="692" d="M256 -12T188 28T82 146T44 328Q44 433 81 508T187 623T346 662Q436 662 504 623T610 508T648 328Q648 223 611 146T505 29T346 -12Q256 -12 188 28ZM404 136T438 187T472 328Q472 416 439
465T346 514Q287 514 254 465T220 328Q220 239 254 188T346 136Q404 136 438 187ZM198 694T176 716T154 772Q154 805 176 827T232 850Q266 850 288 828T310 772Q310 739 288 717T232 694Q198 694 176 716ZM426 694T404 716T382 772Q382 805 404 827T460 850Q494
850 516 828T538 772Q538 739 516 717T460 694Q426 694 404 716Z" />
<glyph unicode="&#xd7;" glyph-name="multiply" horiz-adv-x="540" d="M47 191L185 329L47 467L132 552L270 414L408 552L493 467L355 329L493 191L408 106L270 244L132 106L47 191Z" />
<glyph unicode="&#xd8;" glyph-name="Oslash" horiz-adv-x="692" d="M597 532Q648 450 648 328Q648 223 611 146T505 29T346 -12Q254 -12 186 30L124 -46L36 22L105 106Q44 194 44 328Q44 433 81 508T187 623T346 662Q446 662 520 613L588 696L676 628L597 532ZM220
286T227 255L418 488Q387 514 346 514Q287 514 254 465T220 328Q220 286 227 255ZM472 354T469 375L287 153Q313 136 346 136Q404 136 438 187T472 328Q472 354 469 375Z" />
<glyph unicode="&#xd9;" glyph-name="Ugrave" horiz-adv-x="672" d="M201 -12T135 68T68 314V650H240V294Q240 208 263 172T338 136Q390 136 414 172T438 294V650H604V314Q604 147 539 68T338 -12Q201 -12 135 68ZM148 794L238 904L420 760L344 674L148 794Z" />
<glyph unicode="&#xda;" glyph-name="Uacute" horiz-adv-x="672" d="M201 -12T135 68T68 314V650H240V294Q240 208 263 172T338 136Q390 136 414 172T438 294V650H604V314Q604 147 539 68T338 -12Q201 -12 135 68ZM252 760L434 904L524 794L328 674L252 760Z" />
<glyph unicode="&#xdb;" glyph-name="Ucircumflex" horiz-adv-x="672" d="M201 -12T135 68T68 314V650H240V294Q240 208 263 172T338 136Q390 136 414 172T438 294V650H604V314Q604 147 539 68T338 -12Q201 -12 135 68ZM158 724L242 834H430L514 724L440 680L338
760H334L232 680L158 724Z" />
<glyph unicode="&#xdc;" glyph-name="Udieresis" horiz-adv-x="672" d="M201 -12T135 68T68 314V650H240V294Q240 208 263 172T338 136Q390 136 414 172T438 294V650H604V314Q604 147 539 68T338 -12Q201 -12 135 68ZM188 694T166 716T144 772Q144 805 166 827T222
850Q256 850 278 828T300 772Q300 739 278 717T222 694Q188 694 166 716ZM416 694T394 716T372 772Q372 805 394 827T450 850Q484 850 506 828T528 772Q528 739 506 717T450 694Q416 694 394 716Z" />
<glyph unicode="&#xdd;" glyph-name="Yacute" horiz-adv-x="544" d="M186 224L-10 650H174L222 514L249 433Q254 420 259 404T271 369H275Q290 414 306 456Q309 465 326 514L374 650H554L358 224V0H186V224ZM188 760L370 904L460 794L264 674L188 760Z" />
<glyph unicode="&#xde;" glyph-name="Thorn" horiz-adv-x="630" d="M72 650H244V556H324Q441 556 512 506T584 340Q584 264 549 213T454 137T324 112H244V0H72V650ZM316 248Q366 248 391 272T416 340Q416 382 391 401T316 420H244V248H316Z" />
<glyph unicode="&#xdf;" glyph-name="germandbls" horiz-adv-x="654" d="M391 -12T356 -1T280 32L338 148Q383 114 428 114Q448 114 460 124T472 150Q472 166 457 178T411 208Q378 227 357 242T320 283T304 344Q304 368 312 386T336 429Q352 453 360 471T368 512Q368
538 353 555T312 572Q270 572 249 542T228 458V0H58V476Q58 579 122 642T312 706Q383 706 432 682T507 618T532 532Q532 495 520 470T486 417Q472 399 466 389T460 366Q460 353 472 343T513 316Q549 296 571 279T611 231T628 158Q628 84 578 36T434 -12Q391 -12
356 -1Z" />
<glyph unicode="&#xe0;" glyph-name="agrave" horiz-adv-x="536" d="M143 -12T109 9T56 65T38 142Q38 221 102 265T310 324Q307 351 290 363T240 376Q214 376 184 366T114 334L54 446Q164 512 274 512Q482 512 482 278V0H342L330 48H326Q259 -12 188 -12Q143 -12
109 9ZM267 120T280 128T310 154V222Q202 206 202 156Q202 139 214 130T248 120Q267 120 280 128ZM80 730L196 844L354 656L270 572L80 730Z" />
<glyph unicode="&#xe1;" glyph-name="aacute" horiz-adv-x="536" d="M143 -12T109 9T56 65T38 142Q38 221 102 265T310 324Q307 351 290 363T240 376Q214 376 184 366T114 334L54 446Q164 512 274 512Q482 512 482 278V0H342L330 48H326Q259 -12 188 -12Q143 -12
109 9ZM267 120T280 128T310 154V222Q202 206 202 156Q202 139 214 130T248 120Q267 120 280 128ZM226 656L384 844L500 730L310 572L226 656Z" />
<glyph unicode="&#xe2;" glyph-name="acircumflex" horiz-adv-x="536" d="M143 -12T109 9T56 65T38 142Q38 221 102 265T310 324Q307 351 290 363T240 376Q214 376 184 366T114 334L54 446Q164 512 274 512Q482 512 482 278V0H342L330 48H326Q259 -12 188 -12Q143
-12 109 9ZM267 120T280 128T310 154V222Q202 206 202 156Q202 139 214 130T248 120Q267 120 280 128ZM96 618L202 746H378L484 618L420 558L292 642H288L160 558L96 618Z" />
<glyph unicode="&#xe3;" glyph-name="atilde" horiz-adv-x="536" d="M143 -12T109 9T56 65T38 142Q38 221 102 265T310 324Q307 351 290 363T240 376Q214 376 184 366T114 334L54 446Q164 512 274 512Q482 512 482 278V0H342L330 48H326Q259 -12 188 -12Q143 -12
109 9ZM267 120T280 128T310 154V222Q202 206 202 156Q202 139 214 130T248 120Q267 120 280 128ZM330 572T311 582T267 609Q240 628 230 628Q217 628 210 618T200 582L94 588Q97 746 226 746Q250 746 269 736T313 709Q340 690 350 690Q363 690 370 700T380 736L486
730Q483 572 354 572Q330 572 311 582Z" />
<glyph unicode="&#xe4;" glyph-name="adieresis" horiz-adv-x="536" d="M143 -12T109 9T56 65T38 142Q38 221 102 265T310 324Q307 351 290 363T240 376Q214 376 184 366T114 334L54 446Q164 512 274 512Q482 512 482 278V0H342L330 48H326Q259 -12 188 -12Q143
-12 109 9ZM267 120T280 128T310 154V222Q202 206 202 156Q202 139 214 130T248 120Q267 120 280 128ZM141 562T119 585T96 642Q96 676 118 699T176 722Q211 722 233 699T256 642Q256 608 234 585T176 562Q141 562 119 585ZM369 562T347 585T324 642Q324 676 346
699T404 722Q439 722 461 699T484 642Q484 608 462 585T404 562Q369 562 347 585Z" />
<glyph unicode="&#xe5;" glyph-name="aring" horiz-adv-x="536" d="M143 -12T109 9T56 65T38 142Q38 221 102 265T310 324Q307 351 290 363T240 376Q214 376 184 366T114 334L54 446Q164 512 274 512Q482 512 482 278V0H342L330 48H326Q259 -12 188 -12Q143 -12
109 9ZM267 120T280 128T310 154V222Q202 206 202 156Q202 139 214 130T248 120Q267 120 280 128ZM222 568T186 598T150 674Q150 720 186 750T290 780Q358 780 394 750T430 674Q430 628 394 598T290 568Q222 568 186 598ZM306 630T317 642T328 674Q328 693 317
705T290 718Q274 718 263 706T252 674Q252 655 263 643T290 630Q306 630 317 642Z" />
<glyph unicode="&#xe6;" glyph-name="ae" horiz-adv-x="786" d="M147 -12T113 9T60 65T42 142Q42 221 106 265T312 325Q309 352 293 364T244 376Q218 376 188 366T118 334L58 446Q168 512 268 512Q311 512 346 496T406 448Q440 481 473 496T548 512Q614 512 659
479T727 391T750 266Q750 226 743 198H468Q487 122 574 122Q598 122 620 130T674 156L732 46Q693 18 644 3T550 -12Q449 -12 380 60Q327 19 285 4T192 -12Q147 -12 113 9ZM604 302Q604 338 589 360T542 382Q479 382 468 302H604ZM291 120T324 150Q315 177 312 203L310
222Q206 205 206 156Q206 139 218 130T252 120Q291 120 324 150Z" />
<glyph unicode="&#xe7;" glyph-name="ccedilla" horiz-adv-x="472" d="M344 -69T363 -87T382 -136Q382 -238 172 -244L160 -178Q217 -175 238 -166T260 -136Q260 -121 244 -112T184 -96L229 -7Q140 10 86 77T32 250Q32 330 68 389T166 480T300 512Q384 512 446
460L366 350Q337 374 310 374Q262 374 235 341T208 250Q208 194 235 160T304 126Q341 126 384 158L450 46Q400 2 326 -9L304 -60Q344 -69 363 -87Z" />
<glyph unicode="&#xe8;" glyph-name="egrave" horiz-adv-x="526" d="M490 226T483 198H195Q207 154 239 136T314 118Q362 118 416 148L472 46Q433 18 384 3T290 -12Q216 -12 158 19T66 109T32 250Q32 328 66 387T155 479T272 512Q378 512 434 444T490 270Q490
226 483 198ZM344 310Q344 342 328 362T276 382Q248 382 227 365T195 310H344ZM70 730L186 844L344 656L260 572L70 730Z" />
<glyph unicode="&#xe9;" glyph-name="eacute" horiz-adv-x="526" d="M490 226T483 198H195Q207 154 239 136T314 118Q362 118 416 148L472 46Q433 18 384 3T290 -12Q216 -12 158 19T66 109T32 250Q32 328 66 387T155 479T272 512Q378 512 434 444T490 270Q490
226 483 198ZM344 310Q344 342 328 362T276 382Q248 382 227 365T195 310H344ZM216 656L374 844L490 730L300 572L216 656Z" />
<glyph unicode="&#xea;" glyph-name="ecircumflex" horiz-adv-x="526" d="M490 226T483 198H195Q207 154 239 136T314 118Q362 118 416 148L472 46Q433 18 384 3T290 -12Q216 -12 158 19T66 109T32 250Q32 328 66 387T155 479T272 512Q378 512 434 444T490 270Q490
226 483 198ZM344 310Q344 342 328 362T276 382Q248 382 227 365T195 310H344ZM86 618L192 746H368L474 618L410 558L282 642H278L150 558L86 618Z" />
<glyph unicode="&#xeb;" glyph-name="edieresis" horiz-adv-x="526" d="M490 226T483 198H195Q207 154 239 136T314 118Q362 118 416 148L472 46Q433 18 384 3T290 -12Q216 -12 158 19T66 109T32 250Q32 328 66 387T155 479T272 512Q378 512 434 444T490 270Q490
226 483 198ZM344 310Q344 342 328 362T276 382Q248 382 227 365T195 310H344ZM131 562T109 585T86 642Q86 676 108 699T166 722Q201 722 223 699T246 642Q246 608 224 585T166 562Q131 562 109 585ZM359 562T337 585T314 642Q314 676 336 699T394 722Q429 722
451 699T474 642Q474 608 452 585T394 562Q359 562 337 585Z" />
<glyph unicode="&#xec;" glyph-name="igrave" horiz-adv-x="288" d="M58 500H230V0H58V500ZM-66 730L50 844L208 656L124 572L-66 730Z" />
<glyph unicode="&#xed;" glyph-name="iacute" horiz-adv-x="288" d="M58 500H230V0H58V500ZM80 656L238 844L354 730L164 572L80 656Z" />
<glyph unicode="&#xee;" glyph-name="icircumflex" horiz-adv-x="288" d="M58 500H230V0H58V500ZM-50 618L56 746H232L338 618L274 558L146 642H142L14 558L-50 618Z" />
<glyph unicode="&#xef;" glyph-name="idieresis" horiz-adv-x="288" d="M58 500H230V0H58V500ZM-5 562T-27 585T-50 642Q-50 676 -28 699T30 722Q65 722 87 699T110 642Q110 608 88 585T30 562Q-5 562 -27 585ZM223 562T201 585T178 642Q178 676 200 699T258 722Q293
722 315 699T338 642Q338 608 316 585T258 562Q223 562 201 585Z" />
<glyph unicode="&#xf0;" glyph-name="eth" horiz-adv-x="566" d="M520 464T520 270Q520 189 491 125T405 25T274 -12Q210 -12 156 18T70 103T38 230Q38 300 67 351T142 430T240 458Q298 458 332 427Q307 488 258 536L116 465L72 539L183 595Q149 616 103 640L177
744Q257 703 315 661L458 733L502 658L386 600Q520 464 520 270ZM316 126T338 158T360 260Q360 287 359 299Q326 332 277 332Q240 332 217 308T194 230Q194 180 218 153T280 126Q316 126 338 158Z" />
<glyph unicode="&#xf1;" glyph-name="ntilde" horiz-adv-x="582" d="M58 500H198L210 440H214Q249 473 287 492T372 512Q452 512 490 459T528 308V0H356V286Q356 332 345 349T306 366Q284 366 268 358T230 328V0H58V500ZM360 572T341 582T297 609Q270 628 260
628Q247 628 240 618T230 582L124 588Q127 746 256 746Q280 746 299 736T343 709Q370 690 380 690Q393 690 400 700T410 736L516 730Q513 572 384 572Q360 572 341 582Z" />
<glyph unicode="&#xf2;" glyph-name="ograve" horiz-adv-x="560" d="M215 -12T158 19T67 110T32 250Q32 330 66 389T158 480T280 512Q345 512 402 481T493 390T528 250Q528 170 494 111T402 20T280 -12Q215 -12 158 19ZM352 126T352 250Q352 374 280 374Q208 374
208 250Q208 126 280 126Q352 126 352 250ZM70 730L186 844L344 656L260 572L70 730Z" />
<glyph unicode="&#xf3;" glyph-name="oacute" horiz-adv-x="560" d="M215 -12T158 19T67 110T32 250Q32 330 66 389T158 480T280 512Q345 512 402 481T493 390T528 250Q528 170 494 111T402 20T280 -12Q215 -12 158 19ZM352 126T352 250Q352 374 280 374Q208 374
208 250Q208 126 280 126Q352 126 352 250ZM216 656L374 844L490 730L300 572L216 656Z" />
<glyph unicode="&#xf4;" glyph-name="ocircumflex" horiz-adv-x="560" d="M215 -12T158 19T67 110T32 250Q32 330 66 389T158 480T280 512Q345 512 402 481T493 390T528 250Q528 170 494 111T402 20T280 -12Q215 -12 158 19ZM352 126T352 250Q352 374 280 374Q208
374 208 250Q208 126 280 126Q352 126 352 250ZM86 618L192 746H368L474 618L410 558L282 642H278L150 558L86 618Z" />
<glyph unicode="&#xf5;" glyph-name="otilde" horiz-adv-x="560" d="M215 -12T158 19T67 110T32 250Q32 330 66 389T158 480T280 512Q345 512 402 481T493 390T528 250Q528 170 494 111T402 20T280 -12Q215 -12 158 19ZM352 126T352 250Q352 374 280 374Q208 374
208 250Q208 126 280 126Q352 126 352 250ZM320 572T301 582T257 609Q230 628 220 628Q207 628 200 618T190 582L84 588Q87 746 216 746Q240 746 259 736T303 709Q330 690 340 690Q353 690 360 700T370 736L476 730Q473 572 344 572Q320 572 301 582Z" />
<glyph unicode="&#xf6;" glyph-name="odieresis" horiz-adv-x="560" d="M215 -12T158 19T67 110T32 250Q32 330 66 389T158 480T280 512Q345 512 402 481T493 390T528 250Q528 170 494 111T402 20T280 -12Q215 -12 158 19ZM352 126T352 250Q352 374 280 374Q208
374 208 250Q208 126 280 126Q352 126 352 250ZM131 562T109 585T86 642Q86 676 108 699T166 722Q201 722 223 699T246 642Q246 608 224 585T166 562Q131 562 109 585ZM359 562T337 585T314 642Q314 676 336 699T394 722Q429 722 451 699T474 642Q474 608 452 585T394
562Q359 562 337 585Z" />
<glyph unicode="&#xf7;" glyph-name="divide" horiz-adv-x="540" d="M231 424T205 448T178 510Q178 547 204 571T270 596Q309 596 335 572T362 510Q362 473 336 449T270 424Q231 424 205 448ZM34 390H506V270H34V390ZM231 64T205 88T178 150Q178 187 204 211T270
236Q309 236 335 212T362 150Q362 113 336 89T270 64Q231 64 205 88Z" />
<glyph unicode="&#xf8;" glyph-name="oslash" horiz-adv-x="560" d="M528 354T528 250Q528 170 494 111T402 20T280 -12Q209 -12 149 25L108 -26L46 22L90 77Q32 146 32 250Q32 330 66 389T158 480T280 512Q352 512 410 476L452 528L514 480L469 424Q528 354 528
250ZM198 242T200 214L323 367Q306 380 280 380Q242 380 220 348T198 260Q198 242 200 214ZM319 120T340 152T362 240Q362 266 359 287L236 134Q253 120 280 120Q319 120 340 152Z" />
<glyph unicode="&#xf9;" glyph-name="ugrave" horiz-adv-x="578" d="M130 -12T92 41T54 192V500H226V214Q226 168 237 151T276 134Q300 134 315 144T348 178V500H520V0H380L368 66H364Q332 28 296 8T210 -12Q130 -12 92 41ZM90 730L206 844L364 656L280 572L90 730Z" />
<glyph unicode="&#xfa;" glyph-name="uacute" horiz-adv-x="578" d="M130 -12T92 41T54 192V500H226V214Q226 168 237 151T276 134Q300 134 315 144T348 178V500H520V0H380L368 66H364Q332 28 296 8T210 -12Q130 -12 92 41ZM236 656L394 844L510 730L320 572L236 656Z" />
<glyph unicode="&#xfb;" glyph-name="ucircumflex" horiz-adv-x="578" d="M130 -12T92 41T54 192V500H226V214Q226 168 237 151T276 134Q300 134 315 144T348 178V500H520V0H380L368 66H364Q332 28 296 8T210 -12Q130 -12 92 41ZM106 618L212 746H388L494 618L430
558L302 642H298L170 558L106 618Z" />
<glyph unicode="&#xfc;" glyph-name="udieresis" horiz-adv-x="578" d="M130 -12T92 41T54 192V500H226V214Q226 168 237 151T276 134Q300 134 315 144T348 178V500H520V0H380L368 66H364Q332 28 296 8T210 -12Q130 -12 92 41ZM151 562T129 585T106 642Q106 676
128 699T186 722Q221 722 243 699T266 642Q266 608 244 585T186 562Q151 562 129 585ZM379 562T357 585T334 642Q334 676 356 699T414 722Q449 722 471 699T494 642Q494 608 472 585T414 562Q379 562 357 585Z" />
<glyph unicode="&#xfd;" glyph-name="yacute" horiz-adv-x="542" d="M93 -188T56 -178L86 -48Q89 -49 99 -51T118 -54Q179 -54 196 -4L202 18L12 500H184L244 308Q256 269 273 197Q278 174 280 166H284Q302 250 316 308L366 500H530L362 8Q335 -63 306 -105T235
-167T132 -188Q93 -188 56 -178ZM216 656L374 844L490 730L300 572L216 656Z" />
<glyph unicode="&#xfe;" glyph-name="thorn" horiz-adv-x="580" d="M58 696H230V533L226 468Q249 489 279 500T340 512Q401 512 447 481T519 392T544 258Q544 175 515 114T438 21T336 -12Q301 -12 276 -1T226 32L230 -38V-176H58V696ZM327 128T347 158T368 256Q368
316 351 344T298 372Q278 372 262 364T230 336V152Q257 128 294 128Q327 128 347 158Z" />
<glyph unicode="&#xff;" glyph-name="ydieresis" horiz-adv-x="542" d="M93 -188T56 -178L86 -48Q89 -49 99 -51T118 -54Q179 -54 196 -4L202 18L12 500H184L244 308Q256 269 273 197Q278 174 280 166H284Q302 250 316 308L366 500H530L362 8Q335 -63 306 -105T235
-167T132 -188Q93 -188 56 -178ZM131 562T109 585T86 642Q86 676 108 699T166 722Q201 722 223 699T246 642Q246 608 224 585T166 562Q131 562 109 585ZM359 562T337 585T314 642Q314 676 336 699T394 722Q429 722 451 699T474 642Q474 608 452 585T394 562Q359
562 337 585Z" />
<glyph unicode="&#x2013;" glyph-name="endash" horiz-adv-x="480" d="M44 308H436V200H44V308Z" />
<glyph unicode="&#x2014;" glyph-name="emdash" horiz-adv-x="800" d="M44 308H756V200H44V308Z" />
<glyph unicode="&#x2018;" glyph-name="quoteleft" horiz-adv-x="320" d="M197 478T221 456T246 396Q246 354 222 329T160 304Q108 304 81 342T54 450Q54 604 210 678L246 604Q197 583 174 552T150 477Q153 478 160 478Q197 478 221 456Z" />
<glyph unicode="&#x2019;" glyph-name="quoteright" horiz-adv-x="320" d="M212 696T239 658T266 550Q266 396 110 322L74 396Q123 417 146 448T170 523Q167 522 160 522Q123 522 99 544T74 604Q74 646 98 671T160 696Q212 696 239 658Z" />
<glyph unicode="&#x201a;" glyph-name="quotesinglbase" horiz-adv-x="320" d="M212 196T239 158T266 50Q266 -104 110 -178L74 -104Q123 -83 146 -52T170 23Q167 22 160 22Q123 22 99 44T74 104Q74 146 98 171T160 196Q212 196 239 158Z" />
<glyph unicode="&#x201c;" glyph-name="quotedblleft" horiz-adv-x="580" d="M197 478T221 456T246 396Q246 354 222 329T160 304Q108 304 81 342T54 450Q54 604 210 678L246 604Q197 583 174 552T150 477Q153 478 160 478Q197 478 221 456ZM457 478T481 456T506
396Q506 354 482 329T420 304Q368 304 341 342T314 450Q314 604 470 678L506 604Q457 583 434 552T410 477Q413 478 420 478Q457 478 481 456Z" />
<glyph unicode="&#x201d;" glyph-name="quotedblright" horiz-adv-x="580" d="M212 696T239 658T266 550Q266 396 110 322L74 396Q123 417 146 448T170 523Q167 522 160 522Q123 522 99 544T74 604Q74 646 98 671T160 696Q212 696 239 658ZM472 696T499 658T526
550Q526 396 370 322L334 396Q383 417 406 448T430 523Q427 522 420 522Q383 522 359 544T334 604Q334 646 358 671T420 696Q472 696 499 658Z" />
<glyph unicode="&#x201e;" glyph-name="quotedblbase" horiz-adv-x="580" d="M212 196T239 158T266 50Q266 -104 110 -178L74 -104Q123 -83 146 -52T170 23Q167 22 160 22Q123 22 99 44T74 104Q74 146 98 171T160 196Q212 196 239 158ZM472 196T499 158T526 50Q526
-104 370 -178L334 -104Q383 -83 406 -52T430 23Q427 22 420 22Q383 22 359 44T334 104Q334 146 358 171T420 196Q472 196 499 158Z" />
<glyph unicode="&#x2022;" glyph-name="bullet" horiz-adv-x="360" d="M141 116T109 135T59 188T40 262Q40 303 58 336T109 388T180 408Q219 408 251 389T301 336T320 262Q320 221 302 188T251 136T180 116Q141 116 109 135Z" />
<glyph unicode="&#x2039;" glyph-name="guilsinglleft" horiz-adv-x="300" d="M50 192V312L184 452L246 402L138 252L246 102L184 52L50 192Z" />
<glyph unicode="&#x203a;" glyph-name="guilsinglright" horiz-adv-x="300" d="M54 102L162 252L54 402L116 452L250 312V192L116 52L54 102Z" />
</font>
</defs>
</svg>
