<?xml version="1.0" standalone="no"?>
<!DOCTYPE svg PUBLIC "-//W3C//DTD SVG 1.1//EN" "http://www.w3.org/Graphics/SVG/1.1/DTD/svg11.dtd" >
<svg xmlns="http://www.w3.org/2000/svg">
<metadata>Generated by IcoMoon</metadata>
<defs>
<font id="icomoon" horiz-adv-x="1024">
<font-face units-per-em="1024" ascent="960" descent="-64" />
<missing-glyph horiz-adv-x="1024" />
<glyph unicode="&#x20;" horiz-adv-x="512" d="" />
<glyph unicode="&#xe900;" glyph-name="hamburger" d="M3.657 193.829h1016.686v-101.669h-1016.686v101.669zM3.657 803.84h1016.686v-101.669h-1016.686v101.669zM3.657 498.834h1016.686v-101.669h-1016.686v101.669z" />
<glyph unicode="&#xe901;" glyph-name="search" d="M988.197-17.737l-302.080 329.618c65.509 68.345 105.841 161.272 105.841 263.62 0 210.542-170.678 381.221-381.221 381.221-105.475 0-200.946-42.835-269.964-112.058l-0.009-0.009c-69.069-69.007-111.792-164.371-111.792-269.714 0-210.563 170.695-381.257 381.257-381.257 0.036 0 0.073 0 0.109 0h-0.006c0.32-0.001 0.7-0.002 1.079-0.002 90.155 0 172.942 31.543 237.928 84.196l-0.708-0.555 302.226-329.435c4.457-3.859 10.312-6.211 16.716-6.211 14.138 0 25.6 11.462 25.6 25.6 0 5.598-1.797 10.776-4.845 14.99l0.052-0.075zM79.835 575.086c0 182.488 147.935 330.423 330.423 330.423s330.423-147.935 330.423-330.423c0-182.488-147.935-330.423-330.423-330.423v0c-182.395 0.229-330.194 148.027-330.423 330.4v0.022z" />
<glyph unicode="&#xe903;" glyph-name="long-arrow-right1" d="M1016.101 458.313v0l-174.775 174.665c-2.487 2.017-5.691 3.239-9.179 3.239-8.079 0-14.629-6.549-14.629-14.629 0-3.498 1.228-6.709 3.276-9.226l-0.021 0.027 149.943-149.943h-952.43c-8.079 0-14.629-6.549-14.629-14.629s6.549-14.629 14.629-14.629v0h952.32l-149.943-149.943c-3.323-2.703-5.429-6.793-5.429-11.374 0-8.079 6.549-14.629 14.629-14.629 4.59 0 8.687 2.114 11.369 5.422l0.021 0.027 174.738 174.702c2.75 2.663 4.457 6.389 4.457 10.513 0 4.070-1.662 7.753-4.345 10.404l-0.001 0.001z" />
<glyph unicode="&#xe904;" glyph-name="long-arrow-left" d="M7.899 458.313v0l174.958 174.665c2.703 3.323 6.793 5.429 11.374 5.429 8.079 0 14.629-6.549 14.629-14.629 0-4.59-2.114-8.687-5.422-11.369l-0.027-0.021-149.943-149.943h952.247c8.079 0 14.629-6.549 14.629-14.629s-6.549-14.629-14.629-14.629v0h-952.32l149.943-149.943c3.323-2.703 5.429-6.793 5.429-11.374 0-8.079-6.549-14.629-14.629-14.629-4.59 0-8.687 2.114-11.369 5.422l-0.021 0.027-174.848 175.031c-2.618 2.642-4.236 6.28-4.236 10.295s1.618 7.653 4.237 10.296l-0.001-0.001z" />
<glyph unicode="&#xe905;" glyph-name="arrow-up" d="M493.093 707.657l-481.609-481.536c-4.3-4.732-6.933-11.046-6.933-17.976 0-14.785 11.985-26.77 26.77-26.77 6.948 0 13.277 2.647 18.035 6.987l-0.021-0.019 462.665 462.592 462.629-462.592c4.846-4.853 11.544-7.855 18.944-7.855 14.769 0 26.745 11.96 26.77 26.724v0.002c0 0.027 0 0.058 0 0.090 0 7.366-2.991 14.034-7.826 18.854l-481.61 481.5c-4.842 4.831-11.526 7.819-18.907 7.819s-14.065-2.988-18.908-7.819h0.001z" />
<glyph unicode="&#xe906;" glyph-name="arrow-down" d="M530.907 188.343l481.609 481.536c4.3 4.732 6.933 11.046 6.933 17.976 0 14.785-11.985 26.77-26.77 26.77-6.948 0-13.277-2.647-18.035-6.987l0.021 0.019-462.665-462.592-462.629 462.592c-4.846 4.853-11.544 7.855-18.944 7.855-14.769 0-26.745-11.96-26.77-26.724v-0.002c0-0.027 0-0.058 0-0.090 0-7.366 2.991-14.034 7.826-18.854l481.61-481.5c4.842-4.831 11.526-7.819 18.907-7.819s14.065 2.988 18.908 7.819h-0.001z" />
<glyph unicode="&#xe907;" glyph-name="arrow-right" d="M771.657 466.907l-481.536 481.609c-4.732 4.3-11.046 6.933-17.976 6.933-14.785 0-26.77-11.985-26.77-26.77 0-6.948 2.647-13.277 6.987-18.035l-0.019 0.021 462.592-462.665-462.592-462.629c-4.853-4.846-7.855-11.544-7.855-18.944 0-14.769 11.96-26.745 26.724-26.77h0.002c0.027 0 0.058 0 0.090 0 7.366 0 14.034 2.991 18.854 7.826l481.5 481.61c4.831 4.842 7.819 11.526 7.819 18.907s-2.988 14.065-7.819 18.908v-0.001z" />
<glyph unicode="&#xe908;" glyph-name="arrow-left" d="M252.343 429.093l481.536-481.609c4.732-4.3 11.046-6.933 17.976-6.933 14.785 0 26.77 11.985 26.77 26.77 0 6.948-2.647 13.277-6.987 18.035l0.019-0.021-462.592 462.665 462.592 462.629c4.853 4.846 7.855 11.544 7.855 18.944 0 14.769-11.96 26.745-26.724 26.77h-0.002c-0.027 0-0.058 0-0.090 0-7.366 0-14.034-2.991-18.854-7.826l-481.5-481.61c-4.831-4.842-7.819-11.526-7.819-18.907s2.988-14.065 7.819-18.908v0.001z" />
<glyph unicode="&#xe909;" glyph-name="play" d="M909.934 530.103l-698.953 413.184c-56.795 33.573-143.762 1.024-143.762-82.030v-826.185c0-0.093-0.001-0.202-0.001-0.312 0-52.514 42.571-95.086 95.086-95.086 17.967 0 34.77 4.983 49.103 13.643l-0.426-0.239 698.953 413.001c28.299 16.821 46.967 47.236 46.967 82.011s-18.668 65.19-46.53 81.77l-0.437 0.241z" />
<glyph unicode="&#xe90a;" glyph-name="facebook" d="M663.954 716.471h63.488v123.977c-33.515 5.706-72.486 9.262-112.178 9.831l-0.571 0.006c-115.054 0-190.171-69.742-190.171-195.986v-110.994h-128v-145.591h128v-352h157.257v352h117.358l22.345 145.591h-139.63v94.501c0 39.826 19.529 78.665 82.103 78.665z" />
<glyph unicode="&#xe90b;" glyph-name="twitter" d="M1007.323 754.725c-34.104-15.306-73.662-26.381-115.12-31.233l-1.908-0.182c41.969 25.259 73.528 64.169 88.825 110.478l0.409 1.43c-37.074-22.482-80.266-39.518-126.309-48.625l-2.533-0.418c-37.164 39.508-89.784 64.113-148.151 64.113-112.189 0-203.146-90.907-203.227-203.077v-0.007c0.098-16.516 1.932-32.549 5.326-47.998l-0.279 1.515c-169.184 8.877-317.956 89.351-417.704 211.445l-0.82 1.035c-17.381-29.333-27.652-64.654-27.652-102.375 0-70.25 35.625-132.18 89.795-168.709l0.723-0.46c-33.883 1.272-65.326 10.608-92.813 26.129l1.019-0.529v-2.231c0-0.068 0-0.148 0-0.228 0-97.907 69.284-179.632 161.499-198.82l1.318-0.229c-16.016-4.332-34.416-6.85-53.394-6.912h-0.037c-13.57 0.068-26.827 1.169-39.765 3.229l1.474-0.193c26.85-81.242 101.371-139.138 189.648-140.797l0.194-0.003c-68.419-54.080-155.931-86.749-251.073-86.749-0.33 0-0.661 0-0.991 0.001h0.051c-0.814-0.006-1.776-0.009-2.739-0.009-16.312 0-32.409 0.92-48.243 2.711l1.94-0.178c87.701-57.149 195.035-91.138 310.308-91.138 0.476 0 0.951 0.001 1.427 0.002h-0.073c373.394 0 577.829 309.248 577.829 577.646 0 8.814 0 17.627-0.658 26.405 39.72 29.368 73.4 64.083 100.757 103.516l0.948 1.444z" />
<glyph unicode="&#xe90c;" glyph-name="youtube" d="M972.8 744.448c-11.342 41.733-43.406 73.991-84.178 85.41l-0.851 0.203c-74.971 20.224-375.771 20.224-375.771 20.224s-300.8 0-375.808-20.224c-41.608-11.634-73.657-43.889-84.795-84.766l-0.197-0.847c-20.114-75.483-20.114-297.143-20.114-297.143s0-221.623 20.114-297.143c11.456-41.306 43.551-73.098 84.197-83.926l0.832-0.188c74.971-20.334 375.771-20.334 375.771-20.334s300.8 0 375.808 20.224c41.478 11.017 73.572 42.808 84.83 83.277l0.199 0.837c20.114 75.52 20.114 297.143 20.114 297.143s0 221.769-20.151 297.253zM413.623 304.311v286.025l251.392-143.031z" />
<glyph unicode="&#xe90d;" glyph-name="instagram" d="M911.543 613.888v0c-3.035 64.439-17.774 121.527-64.987 168.594s-104.155 61.733-168.594 64.987c-66.414 3.657-265.509 3.657-331.922 0-64.293-3.072-121.381-17.774-168.594-64.805s-61.769-104.265-64.987-168.594c-3.657-66.414-3.657-265.545 0-331.959 3.035-64.439 17.774-121.527 64.987-168.594s104.155-61.733 168.594-64.987c66.414-3.657 265.509-3.657 331.922 0 64.475 3.072 121.563 17.774 168.594 64.987s61.769 104.155 64.987 168.594c3.767 66.414 3.767 265.362 0 331.776zM825.746 210.834c-14.12-35.087-41.412-62.367-75.595-76.146l-0.913-0.325c-52.955-21.029-178.615-16.165-237.166-16.165s-184.357-4.681-237.129 16.165c-35.103 14.093-62.399 41.377-76.183 75.559l-0.325 0.912c-20.992 52.955-16.165 178.651-16.165 237.166s-4.645 184.393 16.165 237.166c14.109 35.094 41.404 62.378 75.595 76.146l0.912 0.325c52.955 21.029 178.542 16.165 237.056 16.165s184.393 4.681 237.166-16.165c35.103-14.093 62.399-41.377 76.183-75.559l0.325-0.912c21.065-52.955 16.201-178.651 16.201-237.166s4.864-184.393-16.128-237.166zM512 654.299c-113.905-0.042-206.226-92.389-206.226-206.299 0-113.936 92.363-206.299 206.299-206.299s206.299 92.363 206.299 206.299v0c0 0.098 0 0.214 0 0.33 0 113.754-92.216 205.97-205.97 205.97-0.141 0-0.283 0-0.424 0h0.022zM512 313.893c-74.018 0.063-133.998 60.080-133.998 134.107 0 74.065 60.042 134.107 134.107 134.107s134.107-60.042 134.107-134.107v0c-0.146-74.045-60.163-134.024-134.209-134.107h-0.008zM745.226 707.188c24.557-10.172 36.219-38.325 26.047-62.882s-38.325-36.219-62.882-26.047c-24.557 10.172-36.219 38.325-26.047 62.882s38.325 36.219 62.882 26.047z" />
<glyph unicode="&#xe90e;" glyph-name="linkedin" d="M122.99 582.912h166.802v-537.198h-166.802v537.198zM714.459 596.37c-81.189 0-135.57-44.544-157.842-86.747h-2.341v73.143h-160v-537.051h166.656v265.984c0 70.034 13.275 137.765 100.023 137.765 85.467 0 86.711-79.945 86.711-142.263v-261.486h166.619v295.095c0 144.384-31.013 255.561-199.826 255.561zM206.336 850.286c-0.141 0.001-0.307 0.001-0.474 0.001-53.605 0-97.061-43.455-97.061-97.061s43.455-97.061 97.061-97.061c53.605 0 97.061 43.455 97.061 97.061 0 0.167 0 0.333-0.001 0.5v-0.026c0 53.343-43.243 96.585-96.585 96.585v0z" />
<glyph unicode="&#xe912;" glyph-name="download" d="M490.971 157.477c5.315-5.426 12.718-8.79 20.906-8.79 4.154 0 8.106 0.866 11.685 2.427l-0.189-0.073c3.751 1.585 6.956 3.758 9.657 6.438l298.969 299.006c5.424 5.465 8.775 12.992 8.775 21.303s-3.352 15.838-8.777 21.305l0.002-0.002c-5.365 5.461-12.829 8.845-21.083 8.845-8.2 0-15.619-3.34-20.973-8.733l-248.212-248.176v675.547c0.002 0.131 0.003 0.285 0.003 0.44 0 8.069-3.35 15.355-8.735 20.544l-0.009 0.008c-5.365 5.419-12.805 8.774-21.029 8.774s-15.664-3.355-21.026-8.772l-0.002-0.002c-5.394-5.197-8.744-12.484-8.744-20.552 0-0.155 0.001-0.309 0.004-0.463v0.023-675.657l-248.137 248.283c-5.359 5.417-12.793 8.771-21.010 8.771s-15.652-3.354-21.008-8.768l-0.003-0.003c-5.424-5.465-8.775-12.992-8.775-21.303s3.352-15.838 8.777-21.305l-0.002 0.002zM1071.543 170.313c-5.315 5.424-12.716 8.786-20.902 8.786-0.25 0-0.5-0.003-0.748-0.009l0.037 0.001c-0.116 0.002-0.253 0.003-0.39 0.003-8.091 0-15.396-3.364-20.593-8.77l-0.009-0.009c-5.424-5.315-8.786-12.716-8.786-20.902 0-0.25 0.003-0.5 0.009-0.748l-0.001 0.037v-119.113c0.006-0.212 0.009-0.461 0.009-0.711 0-8.186-3.362-15.587-8.781-20.897l-0.005-0.005c-5.22-5.394-12.526-8.743-20.614-8.743-0.133 0-0.266 0.001-0.399 0.003h-956.652c-0.131-0.002-0.287-0.003-0.442-0.003-16.522 0-29.915 13.394-29.915 29.915 0 0.155 0.001 0.311 0.004 0.466v-0.023 119.113c0.006 0.212 0.009 0.461 0.009 0.711 0 8.186-3.362 15.587-8.781 20.897l-0.005 0.005c-5.206 5.415-12.511 8.78-20.602 8.78-0.137 0-0.274-0.001-0.41-0.003h0.021c-0.122 0.002-0.266 0.003-0.41 0.003-8.096 0-15.406-3.364-20.609-8.771l-0.009-0.009c-5.424-5.315-8.786-12.716-8.786-20.902 0-0.25 0.003-0.5 0.009-0.748l-0.001 0.037v-119.113c-0.008-0.428-0.012-0.933-0.012-1.439 0-24.389 10.073-46.425 26.286-62.175l0.021-0.020c15.77-16.234 37.806-26.307 62.195-26.307 0.506 0 1.011 0.004 1.515 0.013l-0.076-0.001h956.562c0.043 0 0.095 0 0.146 0 49.586 0 89.783 40.197 89.783 89.783 0 0.052 0 0.103 0 0.155v-0.008 119.113c0.007 0.243 0.011 0.53 0.011 0.817 0 8.134-3.319 15.492-8.676 20.795l-0.002 0.002z" />
<glyph unicode="&#xe915;" glyph-name="close" d="M704.695 448l288.914 288.914c16.423 16.448 26.579 39.157 26.579 64.238s-10.156 47.79-26.58 64.239l0.001-0.001-64.11 64.366c-16.448 16.423-39.157 26.579-64.238 26.579s-47.79-10.156-64.239-26.58l-288.913-288.913-288.914 288.914c-16.448 16.423-39.157 26.579-64.238 26.579s-47.79-10.156-64.239-26.58l0.001 0.001-64.475-64.256c-16.456-16.453-26.634-39.184-26.634-64.293s10.178-47.839 26.634-64.292l288.914-288.914-288.914-288.914c-16.423-16.448-26.579-39.157-26.579-64.238s10.156-47.79 26.58-64.239l64.255-64.255c16.448-16.423 39.157-26.579 64.238-26.579s47.79 10.156 64.239 26.58l288.913 288.913 288.914-288.914c16.448-16.423 39.157-26.579 64.238-26.579s47.79 10.156 64.239 26.58l64.255 64.255c16.423 16.448 26.579 39.157 26.579 64.238s-10.156 47.79-26.58 64.239l0.001-0.001z" />
<glyph unicode="&#xe926;" glyph-name="location" d="M787.931 841.289c-70.616 70.619-168.173 114.298-275.931 114.298-215.511 0-390.217-174.706-390.217-390.217 0-0.004 0-0.009 0-0.013v0c-0.001-0.386-0.002-0.843-0.002-1.3 0-63.136 15.178-122.727 42.083-175.323l-1.011 2.177c20.187-40.229 65.829-90.551 118.711-148.736 75.557-83.127 169.545-186.514 209.371-287.415 3.412-8.462 11.553-14.327 21.064-14.336h0.001c0.246-0.017 0.533-0.027 0.823-0.027s0.577 0.010 0.861 0.029l-0.038-0.002c9.973 0.781 18.074 7.939 20.267 17.365l0.030 0.152c25.198 106.752 128.658 212.114 211.822 296.96 51.602 52.59 96.183 98.011 115.237 136.046 25.912 50.817 41.094 110.832 41.094 174.392 0 107.776-43.652 205.356-114.241 276.025l0.004-0.004zM820.59 411.173c-15.835-31.671-58.112-74.715-107.045-124.599-73.472-74.898-162.121-165.23-204.8-263.314-49.006 90.295-128 177.189-193.463 249.234-50.615 55.735-94.354 103.863-111.726 138.569-22.874 44.587-36.28 97.278-36.28 153.1 0 0.369 0.001 0.737 0.002 1.106v-0.057c0 190.466 154.403 344.869 344.869 344.869s344.869-154.403 344.869-344.869v0c0-0.175 0.001-0.382 0.001-0.589 0-55.957-13.461-108.77-37.322-155.377l0.896 1.927zM512 774.217c-113.108 0-204.8-91.692-204.8-204.8s91.692-204.8 204.8-204.8c113.108 0 204.8 91.692 204.8 204.8v0c-0.146 113.049-91.751 204.654-204.786 204.8h-0.014zM512 409.966c-88.047 0.021-159.415 71.402-159.415 159.451 0 88.063 71.389 159.451 159.451 159.451s159.451-71.389 159.451-159.451v0c-0.104-88.034-71.451-159.368-159.48-159.451h-0.008z" />
<glyph unicode="&#xe927;" glyph-name="mail" d="M1018.953-40.009c0.251 0.866 0.469 1.919 0.61 2.996l0.012 0.112v606.208c0 0.043 0 0.095 0 0.146 0 7.393-3.538 13.959-9.013 18.098l-0.057 0.041-484.901 363.447c-3.738 2.842-8.472 4.553-13.605 4.553s-9.866-1.711-13.66-4.594l0.056 0.041-484.901-363.593c-5.532-4.181-9.070-10.747-9.070-18.14 0-0.051 0-0.103 0.001-0.154v0.008-606.062c0.153-1.189 0.371-2.242 0.66-3.265l-0.038 0.157c0.157-1.69 0.481-3.243 0.957-4.727l-0.043 0.155c0.667-1.622 1.439-3.019 2.35-4.311l-0.046 0.069c0.465-1.018 0.953-1.882 1.505-2.699l-0.042 0.066c0.219-0.256 0.512-0.366 0.731-0.622 1.089-1.098 2.285-2.085 3.574-2.946l0.084-0.053c0.974-0.802 2.063-1.541 3.218-2.176l0.11-0.055c1.025-0.434 2.247-0.824 3.509-1.106l0.148-0.028c1.367-0.443 2.968-0.779 4.62-0.943l0.098-0.008c0.366 0 0.658-0.183 0.987-0.183h970.094c6.557 0.408 12.386 3.225 16.674 7.568l0.003 0.003c0.219 0.219 0.512 0.293 0.695 0.549 0.51 0.752 0.998 1.615 1.415 2.518l0.048 0.115c0.865 1.224 1.637 2.62 2.251 4.099l0.053 0.144c0.434 1.328 0.757 2.881 0.908 4.484l0.007 0.088zM49.81 516.242l312.759-242.505-312.795-262.034zM512 339.785l422.51-354.011h-845.019zM661.431 273.737l312.795 242.505v-504.686zM512 904.558l451.95-338.871-338.066-262.144-99.255 83.2c-3.926 3.314-9.042 5.328-14.629 5.328s-10.703-2.014-14.663-5.356l0.034 0.028-99.255-83.2-338.066 262.144z" />
<glyph unicode="&#xe928;" glyph-name="callcenter" d="M629.467 493.531c0.011 0 0.024 0 0.037 0 24.5 0 44.361 19.861 44.361 44.361s-19.861 44.361-44.361 44.361c-24.5 0-44.361-19.861-44.361-44.361 0-0.013 0-0.026 0-0.039v0.002c0.021-24.471 19.853-44.304 44.323-44.325h0.002zM439.808 537.856c0-24.5-19.861-44.361-44.361-44.361s-44.361 19.861-44.361 44.361c0 24.5 19.861 44.361 44.361 44.361s44.361-19.861 44.361-44.361zM1020.343 491.264c0 93.184-67.291 171.264-154.112 181.175-15.309 70.804-49.561 131.993-97.154 179.915l0.020-0.020c-63.634 63.781-154.112 103.241-236.105 103.241h-41.106c-81.993 0-172.471-39.461-236.142-103.241-47.503-47.884-81.721-109.013-96.623-177.359l-0.437-2.39c-87.259-9.435-155.026-87.808-155.026-181.321 0-95.305 70.29-175.543 159.963-182.235 0.262-0.017 0.569-0.027 0.878-0.027s0.615 0.010 0.919 0.030l-0.041-0.002c5.456 0.064 10.434 2.059 14.296 5.33l-0.033-0.027c10.455 1.998 18.255 11.055 18.286 21.94v279.957c0 3.657 0.439 7.314 0.622 10.679 86.519 24.493 157.999 78.059 204.913 149.247l0.838 1.354c62.907-55.853 146.207-89.968 237.476-89.968 0.444 0 0.887 0.001 1.331 0.002h-0.068c58.031 0.259 112.759 14.144 161.23 38.616l-2.071-0.948c15.098-31.945 24.194-69.32 24.865-108.747l0.003-0.235v-280.137c0-72.229-37.010-159.671-90.002-212.663-37.998-38.034-93.257-56.539-138.971-65.609-12.005 36.429-45.73 62.26-85.487 62.26-49.606 0-89.819-40.214-89.819-89.819s40.214-89.819 89.819-89.819c43.257 0 79.372 30.579 87.908 71.299l0.103 0.585c71.643 13.202 129.792 40.229 168.558 79.031 55.771 55.735 94.683 141.239 101.778 219.611 84.443 12.142 149.394 88.832 149.394 180.297zM512-14.226c-24.964 0-45.202 20.238-45.202 45.202s20.238 45.202 45.202 45.202c24.926 0 45.14-20.175 45.202-45.087v-0.006c0-0.011 0-0.024 0-0.037 0-24.979-20.229-45.234-45.198-45.275h-0.004zM49.006 491.264c0 66.56 44.8 122.551 104.082 134.473 0-3.182-0.549-6.4-0.549-9.545v-259.291c-59.026 12.142-103.534 68.023-103.534 134.363zM642.999 732.891c-0.312-0.001-0.681-0.002-1.050-0.002-88.865 0-169.107 36.924-226.219 96.267l-0.096 0.1c-4.127 4.258-9.899 6.901-16.289 6.901-8.55 0-15.995-4.733-19.858-11.721l-0.059-0.117c-37.724-68.665-98.267-120.85-171.218-146.951l-2.204-0.688c14.957 56.44 43.441 104.942 81.828 143.597l-0.018-0.018c55.479 55.479 133.705 89.966 204.069 89.966h41.106c70.4 0 148.59-34.487 204.032-89.966 16.137-16.303 30.516-34.402 42.792-53.955l0.764-1.304c-40.165-20.056-87.465-31.886-137.507-32.109h-0.074zM872.338 357.047v259.182c0 3.072-0.439 6.254-0.549 9.362 58.843-12.325 103.205-68.096 103.205-134.29s-44.069-121.673-102.656-134.254zM663.15 347.867c0.513 1.798 0.808 3.864 0.808 5.999 0 12.523-10.152 22.674-22.674 22.674-10.255 0-18.92-6.808-21.722-16.151l-0.041-0.161c-10.971-38.217-56.027-65.829-107.52-65.829s-96.731 27.794-107.557 65.829c-2.987 9.27-11.537 15.859-21.626 15.859-12.523 0-22.674-10.152-22.674-22.674 0-1.943 0.244-3.83 0.704-5.63l-0.034 0.157c16.457-58.514 78.629-99.035 151.186-99.035s134.693 40.631 151.15 98.962z" />
<glyph unicode="&#xe937;" glyph-name="whatsapp1" d="M692.284 924.095c-73.409 29.82-152.971 41.33-231.822 33.538s-154.624-34.653-220.776-78.266c-55.231-36.609-102.552-83.93-139.161-139.161-35.135-53.264-59.453-112.916-71.571-175.564-18.045-93.003-8.72-189.244 26.843-277.052 9.403-23.188 20.587-45.613 33.452-67.075l-89.25-257.569 257.571 89.248c48.623-29.13 101.961-49.534 157.61-60.293 61.603-11.924 124.916-11.924 186.516 0 95.578 18.495 183.438 65.154 252.286 133.981s115.537 156.672 134.063 252.244c18.019 93.003 8.695 189.238-26.844 277.052-12.068 29.749-27.049 58.23-44.728 85.027-36.581 55.254-83.908 102.58-139.162 139.161-26.796 17.679-55.278 32.661-85.028 44.728v0zM846.068 693.711c29.070-44.013 49.188-93.315 59.214-145.1 14.902-76.984 7.15-156.636-22.311-229.304-9.972-24.576-22.35-48.107-36.954-70.249-30.328-45.728-69.518-84.911-115.251-115.233-44.017-29.042-93.323-49.14-145.101-59.145-76.972-14.938-156.624-7.231-229.301 22.191-24.579 9.972-48.11 22.35-70.25 36.954l-17.369 11.481-132.158-45.773 45.775 132.156-11.482 17.369c-29.039 44.026-49.135 93.335-59.145 145.119-14.939 76.972-7.23 156.624 22.192 229.301 9.97 24.573 22.348 48.099 36.953 70.233 30.323 45.733 69.507 84.922 115.235 115.252 44.036 29.070 93.363 49.19 145.168 59.214 76.984 14.901 156.636 7.15 229.304-22.312 24.57-9.97 48.098-22.348 70.231-36.953 45.773-30.281 84.971-69.479 115.251-115.252v0.052zM447.708 589.851c0.91-1.961 1.22-4.147 0.894-6.283-0.328-2.138-1.277-4.132-2.732-5.731-3.072-3.039-13.577-10.126-20.338-15.173-8.84-6.59-17.643-13.231-26.175-20.182-2.47-2.009-4.891-4.051-7.258-6.162-2.37-2.111-5.906-4.668-6.575-7.74-0.19-2.205 0.202-4.415 1.132-6.421 10.442-29.994 25.606-58.13 44.917-83.345 12.321-17.056 27.296-32.027 44.351-44.351 25.205-19.302 53.329-34.458 83.308-44.899 2.006-0.931 4.219-1.322 6.421-1.132 3.072 0.669 5.698 4.292 7.74 6.575s4.153 4.789 6.162 7.258c6.864 8.584 13.592 17.336 20.185 26.175 5.045 6.761 12.134 17.266 15.17 20.338 1.599 1.455 3.593 2.403 5.731 2.732 2.135 0.325 4.322 0.015 6.283-0.894 4.997-2.199 98.211-43.372 109.125-49.775 8.222-4.891 1.512-56.037-4.051-67.021-14.21-28.115-45.122-45.794-75.758-51.32-19.345-3.43-39.288-2.933-58.666-0.172-23.103 3.421-45.728 9.553-67.4 18.263-24.745 9.912-48.411 22.335-70.626 37.072-24.549 16.215-47.417 34.843-68.259 55.609-0.325 0.292-0.635 0.602-0.928 0.928-20.757 20.838-39.382 43.698-55.591 68.241-14.737 22.215-27.16 45.881-37.074 70.629-8.772 21.676-14.959 44.309-18.433 67.433-2.763 19.378-3.33 39.322 0.171 58.666 5.527 30.636 23.206 61.547 51.318 75.758 10.987 5.561 62.133 12.272 67.024 4.051 6.557-10.916 47.73-104.129 49.929-109.125z" />
<glyph unicode="&#xe977;" glyph-name="quotes-left" d="M225 512c123.712 0 224-100.29 224-224 0-123.712-100.288-224-224-224s-224 100.288-224 224l-1 32c0 247.424 200.576 448 448 448v-128c-85.474 0-165.834-33.286-226.274-93.726-11.634-11.636-22.252-24.016-31.83-37.020 11.438 1.8 23.16 2.746 35.104 2.746zM801 512c123.71 0 224-100.29 224-224 0-123.712-100.29-224-224-224s-224 100.288-224 224l-1 32c0 247.424 200.576 448 448 448v-128c-85.474 0-165.834-33.286-226.274-93.726-11.636-11.636-22.254-24.016-31.832-37.020 11.44 1.8 23.16 2.746 35.106 2.746z" />
</font>
</defs>
</svg>
