<?xml version="1.0" standalone="no"?>
<!DOCTYPE svg PUBLIC "-//W3C//DTD SVG 1.1//EN" "http://www.w3.org/Graphics/SVG/1.1/DTD/svg11.dtd" >
<svg xmlns="http://www.w3.org/2000/svg">
<metadata></metadata>
<defs>
<font id="open_sans_hebrewextra_bold" horiz-adv-x="0" >
<font-face units-per-em="2048" ascent="1638" descent="-410" />
<missing-glyph horiz-adv-x="532" />
<glyph unicode="&#xd;" horiz-adv-x="682" />
<glyph unicode=" "  horiz-adv-x="532" />
<glyph unicode="&#x09;" horiz-adv-x="532" />
<glyph unicode="&#xa0;" horiz-adv-x="532" />
<glyph unicode="!" horiz-adv-x="594" d="M463 516h-330l-51 946h432zM140.5 307.5q54.5 50.5 156 50.5t154.5 -50t53 -141t-54.5 -141.5t-153 -50.5t-154.5 50.5t-56 141t54.5 141z" />
<glyph unicode="&#x22;" horiz-adv-x="1073" d="M436 934h-274l-41 528h356zM911 934h-274l-41 528h356z" />
<glyph unicode="#" horiz-adv-x="1356" d="M1319 1073v-260h-277l-30 -168h243v-254h-290l-74 -391h-268l73 391h-168l-71 -391h-267l72 391h-225v254h274l31 168h-238v260h287l72 389h268l-74 -389h166l72 389h268l-73 -389h229zM608 813l-30 -168h165l31 168h-166z" />
<glyph unicode="$" horiz-adv-x="1200" d="M711 1554v-135q195 -10 401 -98l-120 -285q-206 94 -376 94q-78 0 -111.5 -19t-33 -62t50 -71.5t215.5 -88.5q205 -72 298 -167.5t93 -244.5q0 -169 -107.5 -273.5t-309.5 -129.5v-193h-207v187q-222 11 -422 98v332q116 -58 252.5 -98t230.5 -40t133 21t38.5 67 t-56 76.5t-214.5 89.5t-237.5 118.5t-113.5 132t-35 179.5q0 330 424 373v137h207z" />
<glyph unicode="%" horiz-adv-x="1942" d="M134.5 1364q97.5 119 273.5 119t279.5 -122.5t103.5 -338.5t-99 -336.5t-277 -120.5t-278 124t-100 340t97.5 335zM709 0h-297l811 1462h297zM414 1239q-39 0 -57.5 -52t-18.5 -165q0 -217 76 -217q39 0 57 51t18 165.5t-18 166t-57 51.5zM1246.5 782q97.5 119 273.5 119 t279.5 -122.5t103.5 -338t-99.5 -336t-277 -120.5t-277.5 124t-100 339.5t97.5 334.5zM1526 657q-39 0 -57.5 -52t-18.5 -165q0 -217 76 -217t76 217t-76 217z" />
<glyph unicode="&#x26;" horiz-adv-x="1636" d="M590 -20q-229 0 -374 118t-145 296v12q0 261 272 401q-131 147 -131 326q0 159 123 254q124 94 338 94t330 -94q118 -93 118 -254q0 -113 -64 -206.5t-200 -176.5l199 -189q76 117 104 260h406q-29 -135 -94.5 -275.5t-145.5 -238.5l320 -307h-506l-99 102 q-93 -58 -148 -79q-117 -43 -292 -43h-11zM669 1225q-45 0 -75 -26.5t-30 -78.5q0 -76 88 -155q56 32 86.5 76t30.5 91.5t-27.5 70t-72.5 22.5zM474 434q0 -63 45 -103t119 -40q105 0 166 49l-248 252q-82 -61 -82 -158z" />
<glyph unicode="'" horiz-adv-x="598" d="M436 934h-274l-41 528h356z" />
<glyph unicode="(" horiz-adv-x="735" d="M680 1503q-127 -177 -194.5 -414t-67.5 -501t65.5 -498t194.5 -414h-324q-280 323 -280 907.5t280 919.5h326z" />
<glyph unicode=")" horiz-adv-x="735" d="M590.5 1102q71.5 -236 71.5 -519.5t-71.5 -515.5t-209.5 -391h-324q125 171 192.5 407t67.5 502t-66.5 502.5t-195.5 415.5h326q138 -165 209.5 -401z" />
<glyph unicode="*" horiz-adv-x="1100" d="M664 1204l356 101l37 -295l-314 -22l207 -277l-260 -138l-143 283l-123 -281l-272 136l206 277l-313 26l45 291l348 -101l-39 352h303z" />
<glyph unicode="+" horiz-adv-x="1159" d="M713 856h372v-268h-372v-361h-269v361h-372v268h372v367h269v-367z" />
<glyph unicode="," horiz-adv-x="633" d="M498 299l14 -23q-99 -386 -176 -561h-279q25 122 57 306t42 278h342z" />
<glyph unicode="-" horiz-adv-x="651" d="M608 393h-565v312h565v-312z" />
<glyph unicode="." horiz-adv-x="592" d="M140.5 308.5q54.5 49.5 156 49.5t154.5 -50t53 -141t-54.5 -141.5t-152.5 -50.5t-154.5 50.5t-56.5 142t54.5 141z" />
<glyph unicode="/" horiz-adv-x="905" d="M356 -20h-347l546 1503h346z" />
<glyph unicode="0" horiz-adv-x="1200" d="M600 -20q-528 0 -528 758q0 382 130.5 563.5t394.5 181.5t397.5 -190t133.5 -571.5t-131 -561.5q-129 -180 -397 -180zM735 729q0 244 -31.5 341t-104 97t-103.5 -93.5t-31 -343.5t31.5 -342.5t104.5 -92.5t103 96q31 94 31 338z" />
<glyph unicode="1" horiz-adv-x="1200" d="M942 0h-401v774q0 141 6 258q-43 -52 -92 -94l-166 -137l-205 252l502 409h356v-1462z" />
<glyph unicode="2" horiz-adv-x="1200" d="M616 1483q133 0 244 -50.5t172.5 -141.5t61.5 -201v-7q0 -164 -88 -303q-49 -74 -121.5 -150t-315.5 -294v-10h553v-326h-1061v260l357 361q161 169 204 223t61.5 96t18.5 93.5t-37.5 84.5t-104 33t-136 -38t-162.5 -119l-217 255q111 99 190 144q157 90 371 90h10z" />
<glyph unicode="3" horiz-adv-x="1200" d="M588 1483q227 0 356 -90t129 -248q0 -136 -83.5 -233.5t-239.5 -141.5v-6q366 -47 366 -346q0 -203 -162 -322q-161 -116 -448 -116q-115 0 -215.5 16.5t-220.5 62.5v328q189 -96 379 -96q129 0 189 36.5t60 119t-70 116.5t-241 37h-90v297h92q301 0 301 154 q0 56 -43.5 85t-120.5 29q-141 0 -290 -94l-164 264q116 79 236.5 113.5t279.5 34.5z" />
<glyph unicode="4" horiz-adv-x="1200" d="M1008 578h161v-295h-161v-283h-390v283h-583v290l608 889h365v-884zM618 578v170q0 48 3 129q4 81 6 86h-11q-37 -82 -77 -144l-162 -241h241z" />
<glyph unicode="5" horiz-adv-x="1200" d="M492 940q96 18 172 18h6q187 0 311.5 -130t124.5 -328v-13q0 -248 -149 -377.5t-445 -129.5q-257 0 -419 79v324q90 -41 199.5 -66.5t186.5 -25.5q111 0 169.5 47t58.5 134.5t-61 134t-181 46.5q-91 0 -201 -35l-145 72l55 772h834v-329h-498z" />
<glyph unicode="6" horiz-adv-x="1200" d="M438 805q90 169 287.5 169t303.5 -125q108 -125 108 -358t-136 -372t-387.5 -139t-397.5 168.5t-146 469.5q0 454 196 660q99 104 239.5 153.5t330.5 51.5q86 0 208 -17v-309q-99 19 -217 19q-197 0 -294.5 -87t-106.5 -284h12zM616 670q-68 0 -110.5 -46t-42.5 -112 q0 -96 40.5 -157.5t107.5 -61.5t105 49.5t38 149.5q0 178 -138 178z" />
<glyph unicode="7" horiz-adv-x="1200" d="M78 1133v327h1055v-233l-515 -1227h-409l502 1133h-633z" />
<glyph unicode="8" horiz-adv-x="1200" d="M604 1483q232 0 360 -93t128 -264q0 -118 -61 -204.5t-191 -151.5q161 -91 228 -183t67 -198q0 -196 -142 -302q-140 -107 -395.5 -107t-392.5 104.5t-137 300.5q0 128 61 217t205 162q-115 77 -169 166t-54 198q0 168 130.5 261.5t362.5 93.5zM686.5 1168.5 q-34.5 29.5 -85.5 29.5t-85.5 -29.5t-34.5 -76.5q0 -88 117 -152q74 42 97 75q26 35 26 79.5t-34.5 74zM469 502.5q-39 -47.5 -39 -106t44.5 -95.5t121.5 -37q176 0 176 129q0 49 -39 96q-38 48 -137 107q-88 -46 -127 -93.5z" />
<glyph unicode="9" horiz-adv-x="1200" d="M457 481q-191 0 -297.5 127.5t-106.5 349.5q0 244 139 381.5t379 137.5q269 0 414 -178q148 -178 148 -506q0 -428 -184.5 -620.5t-592.5 -192.5q-139 0 -204 11v312q83 -16 172 -16q215 0 328.5 89t123.5 275h-12q-39 -72 -77 -104q-78 -66 -230 -66zM694 1097 q-43 64 -111.5 64t-107.5 -48.5t-39 -141t36 -140t103 -47.5t116 47q48 47 48 113q0 88 -45 153z" />
<glyph unicode=":" horiz-adv-x="592" d="M141.5 1097q55.5 50 156 50t153.5 -50t53 -140.5t-54 -141.5t-153 -51t-155 51t-56 141.5t55.5 140.5zM140.5 308.5q54.5 49.5 156 49.5t154.5 -50t53 -141t-54.5 -141.5t-152.5 -50.5t-154.5 50.5t-56.5 142t54.5 141z" />
<glyph unicode=";" horiz-adv-x="608" d="M146 1097.5q54 49.5 155 49.5t155 -50t54 -140.5t-54 -141.5t-154 -51t-155 50.5t-55 142t54 141zM498 299l14 -23q-99 -386 -176 -561h-279q25 122 57 306t42 278h342z" />
<glyph unicode="&#x3c;" horiz-adv-x="1159" d="M1083 1008l-620 -283l620 -252v-295l-1011 449v172l1011 506v-297z" />
<glyph unicode="=" horiz-adv-x="1159" d="M1087 815h-1015v268h1015v-268zM1087 358h-1015v271h1015v-271z" />
<glyph unicode="&#x3e;" horiz-adv-x="1159" d="M1083 799v-172l-1011 -449v295l620 252l-620 283v297z" />
<glyph unicode="?" horiz-adv-x="1034" d="M520 1483q222 0 349 -97t127 -268q0 -120 -56 -209t-169.5 -161.5t-141 -105.5t-27.5 -75v-51h-307v86q0 98 40.5 165.5t132.5 125.5t126.5 99t34.5 88t-38 71.5t-99 24.5q-150 0 -353 -107l-139 272q248 142 520 142zM305.5 308.5q53.5 49.5 155 49.5t155.5 -50.5 t54 -141t-55 -141t-153.5 -50.5t-154 49.5t-55.5 142t53.5 142z" />
<glyph unicode="@" horiz-adv-x="1837" d="M913 -154q-389 0 -610 202.5t-221 561.5q0 254 115 454t316 308.5t445 108.5t424 -89t276.5 -253.5t96.5 -382.5q0 -143 -49 -263q-48 -123 -134 -191.5t-196 -68.5q-79 0 -143 31.5t-100 87.5h-15q-107 -119 -260 -119q-182 0 -280.5 106.5t-98.5 299.5v12 q0 204 139 333.5t362 129.5h10q79 0 181 -17.5t177 -43.5l-21 -422l-2 -94q0 -86 49 -86q52 0 84 87q33 87 33 220q0 238 -134.5 368.5t-384.5 130.5h-9q-278 0 -443.5 -175.5t-165.5 -465.5v-10q0 -255 142 -393.5t394 -138.5t523 96v-229q-225 -95 -500 -95zM994 895 q-108 0 -171 -67.5t-63 -186.5q0 -96 35 -143t104 -47t107 62q36 62 47 220l10 156q-40 6 -69 6z" />
<glyph unicode="A" horiz-adv-x="1487" d="M1487 0h-432l-73 274h-474l-74 -274h-434l477 1468h527zM901 598l-63 240q-65 229 -95 389q-9 -51 -36 -168q-24 -113 -117 -461h311z" />
<glyph unicode="B" horiz-adv-x="1380" d="M158 1462h510q299 0 443 -89t144 -275q0 -123 -63 -210t-166 -112v-10q134 -36 196 -119t62 -219q0 -198 -149 -313t-408 -115h-569v1462zM553 1163v-262h119q86 0 132 35.5t46 103.5q0 123 -186 123h-111zM553 612v-307h139q185 0 185 156q0 73 -49.5 112t-143.5 39 h-131z" />
<glyph unicode="C" horiz-adv-x="1329" d="M787 -20q-331 0 -508 192q-176 193 -176 555v14q0 332 190.5 537t506.5 205h12q238 0 453 -103l-121 -311q-93 44 -171.5 67t-164.5 23q-140 0 -219.5 -115.5t-79.5 -318.5q0 -422 321 -422q149 0 371 92v-334q-183 -81 -414 -81z" />
<glyph unicode="D" horiz-adv-x="1503" d="M158 1462h506q352 0 543.5 -180t191.5 -520q0 -366 -201.5 -564t-566.5 -198h-473v1462zM553 1143v-819h88q179 0 263 104t84 312.5t-79 305.5t-241 97h-115z" />
<glyph unicode="E" horiz-adv-x="1124" d="M1026 1145h-473v-230h437v-317h-437v-276h473v-322h-868v1462h868v-317z" />
<glyph unicode="F" horiz-adv-x="1104" d="M1022 1145h-475v-279h437v-317h-437v-549h-389v1462h864v-317z" />
<glyph unicode="G" horiz-adv-x="1516" d="M1376 856v-788q-255 -88 -565 -88q-339 0 -523 196t-184 555t202.5 555.5t565.5 196.5q264 0 474 -92l-125 -310q-157 78 -339 78t-276 -112.5t-94 -319.5t85.5 -314.5t246.5 -107.5q86 0 162 17v229h-261v305h631z" />
<glyph unicode="H" horiz-adv-x="1569" d="M1411 0h-397v596h-459v-596h-397v1462h397v-542h459v542h397v-1462z" />
<glyph unicode="I" horiz-adv-x="713" d="M555 0h-397v1462h397v-1462z" />
<glyph unicode="J" horiz-adv-x="721" d="M-162 -131q94 -21 146 -21q96 0 139 58.5t43 202.5v1353h397v-1319q0 -298 -130.5 -450t-389.5 -152q-106 0 -205 21v307z" />
<glyph unicode="K" horiz-adv-x="1407" d="M555 0h-397v1462h397v-635q33 64 121 187l306 448h433l-461 -655l453 -807h-446l-289 559l-117 -70v-489z" />
<glyph unicode="L" horiz-adv-x="1192" d="M553 319h563v-319h-958v1462h395v-1143z" />
<glyph unicode="M" horiz-adv-x="1980" d="M1823 0h-363v641q0 70 1 110.5t14 299.5h-9l-295 -1051h-376l-299 1053h-9q21 -269 21 -418v-635h-350v1462h526l304 -1038h8l300 1038h527v-1462z" />
<glyph unicode="N" horiz-adv-x="1708" d="M1550 0h-518l-534 1030h-9q19 -237 19 -371v-659h-350v1462h516l532 -1016h6q-14 229 -14 355v661h352v-1462z" />
<glyph unicode="O" horiz-adv-x="1632" d="M286 1292q183 193 531.5 193t528.5 -191t180 -560.5t-181 -561.5t-527.5 -192t-530.5 193q-183 193 -183 559.5t182 559.5zM817 1161q-297 0 -297 -426t295 -426q150 0 222.5 103t72.5 321t-73 323t-220 105z" />
<glyph unicode="P" horiz-adv-x="1294" d="M158 1462h506q274 0 414.5 -120t140.5 -346q0 -245 -145 -378t-410 -133h-111v-485h-395v1462zM553 1143v-336h72q89 0 141.5 50t52.5 137q0 149 -164 149h-102z" />
<glyph unicode="Q" horiz-adv-x="1632" d="M287 173q-183 193 -183 559.5t182 559.5q183 193 531.5 193t528.5 -191t180 -561q0 -498 -316 -670l357 -411h-492l-258 325l-1 1v1l-1 1q-344 0 -528 193zM817 1161q-297 0 -297 -426t295 -426q150 0 222.5 103t72.5 321t-73 323t-220 105z" />
<glyph unicode="R" horiz-adv-x="1386" d="M158 1462h479q596 0 596 -432q0 -254 -249 -393l427 -637h-448l-310 532h-100v-532h-395v1462zM553 1163v-334h74q207 0 207 183q0 151 -203 151h-78z" />
<glyph unicode="S" horiz-adv-x="1182" d="M90 424q109 -57 233.5 -90t217.5 -33t135.5 29.5t42.5 79.5q0 55 -70 98q-40 25 -189 92t-220 128q-141 120 -141 324.5t148 317.5t404 113q227 0 463 -105l-122 -305q-203 94 -353 94q-74 0 -110.5 -26t-36.5 -68t44 -78q39 -30 233.5 -118.5t269.5 -187t75 -245.5v-8 q0 -200 -154.5 -328t-406.5 -128h-12q-143 0 -244 20.5t-207 71.5v352z" />
<glyph unicode="T" horiz-adv-x="1210" d="M1159 1139h-356v-1139h-395v1139h-357v323h1108v-323z" />
<glyph unicode="U" horiz-adv-x="1550" d="M1401 1462v-880q0 -288 -162 -445t-465.5 -157t-463.5 153t-160 440v889h397v-858q0 -153 57 -224t175 -71t172.5 69.5t54.5 227.5v856h395z" />
<glyph unicode="V" horiz-adv-x="1421" d="M942 0h-465l-477 1462h444l199 -741q62 -251 68 -344q8 75 29 181t36 159l202 745h443z" />
<glyph unicode="W" horiz-adv-x="2128" d="M1737 0h-467l-140 637q-7 26 -28.5 143.5t-34.5 213.5q-17 -138 -84 -438q-37 -166 -123 -556h-467l-362 1462h381l159 -733q55 -249 74 -387q14 109 47 278.5t62 288.5l129 553h366l125 -553q35 -146 67 -317t42 -250q15 121 71 385l162 735h381z" />
<glyph unicode="X" horiz-adv-x="1481" d="M976 717l499 -717h-457l-285 457l-282 -457h-447l485 748l-456 714h438l264 -452l253 452h452z" />
<glyph unicode="Y" horiz-adv-x="1360" d="M879 0h-398v559l-481 903h430l250 -542l252 542h428l-481 -891v-571z" />
<glyph unicode="Z" horiz-adv-x="1251" d="M1200 319v-319h-1139v244l633 899h-618v319h1108v-243l-633 -900h649z" />
<glyph unicode="[" horiz-adv-x="664" d="M616 1249h-182v-1339h182v-254h-499v1847h499v-254z" />
<glyph unicode="\" horiz-adv-x="905" d="M897 -20h-346l-545 1503h346z" />
<glyph unicode="]" horiz-adv-x="664" d="M547 -344h-500v254h182v1339h-182v254h500v-1847z" />
<glyph unicode="^" horiz-adv-x="1075" d="M1102 502h-295l-289 577l-124 -291l-124 -286h-286l440 966h170z" />
<glyph unicode="_" horiz-adv-x="1024" d="M1028 -379h-1032v246h1032v-246z" />
<glyph unicode="`" horiz-adv-x="1225" d="M264 1569h430q53 -71 203 -233l59 -66v-29h-260q-69 43 -196 132.5t-236 174.5v21z" />
<glyph unicode="a" horiz-adv-x="1276" d="M688 1153q218 0 337.5 -109t119.5 -301v-743h-271l-75 150h-8q-81 -99 -162 -134.5t-211 -35.5q-160 0 -252 96.5t-92 272t123.5 265.5t367.5 101l189 6v16q0 140 -138 140q-124 0 -315 -84l-113 258q198 102 500 102zM473 360q0 -104 111 -104q72 0 122 45t50 117v88 l-90 -4q-193 -7 -193 -142z" />
<glyph unicode="b" horiz-adv-x="1317" d="M526 1556v-352q0 -56 -14 -218h14q108 167 297 167t297 -156q109 -152 109 -427.5t-109.5 -432.5t-304.5 -157q-116 0 -200 51q-38 24 -89 80h-24l-62 -111h-305v1556h391zM526 610v-55q0 -139 38 -199.5t124 -60.5q69 0 106 71t37 207q0 273 -147 273q-82 0 -120 -57 t-38 -179z" />
<glyph unicode="c" horiz-adv-x="1104" d="M651 -20q-277 0 -421 149.5t-144 432t155 435.5q155 156 441 156q196 0 371 -86l-115 -289q-81 35 -138.5 51.5t-117.5 16.5q-95 0 -147 -74t-52 -209q0 -272 201 -272q173 0 330 100v-311q-151 -100 -363 -100z" />
<glyph unicode="d" horiz-adv-x="1317" d="M1182 0h-295l-84 143h-15q-100 -163 -301 -163h-11q-173 0 -282 158t-108.5 431t111.5 427q111 157 305 157q97 0 168 -39t129 -128h8q-19 132 -19 267v303h394v-1556zM821 561q0 148 -42.5 212.5t-135.5 64.5q-77 0 -119.5 -72.5t-42.5 -205.5t43 -202t129 -69 t125.5 57.5t42.5 183.5v31z" />
<glyph unicode="e" horiz-adv-x="1266" d="M682 -20q-282 0 -440 150q-156 152 -156 434.5t145 433.5q145 155 407 155t402 -134t140 -384v-174h-699q4 -95 69.5 -149t175 -54t193.5 19t187 67v-281q-96 -49 -192 -66t-232 -17zM778.5 838q-44.5 49 -118 49t-118.5 -45t-53 -135h336q-2 82 -46.5 131z" />
<glyph unicode="f" horiz-adv-x="846" d="M203 1147q0 225 91.5 322.5t293.5 97.5q78 0 148 -12t161 -42l-84 -253q-74 20 -141 20q-45 0 -65.5 -27.5t-20.5 -89.5v-30h241v-293h-241v-840h-391v840h-150v192l158 96v19z" />
<glyph unicode="g" horiz-adv-x="1241" d="M625 266h188q381 0 381 -321q0 -207 -176 -322t-496 -115q-241 0 -371.5 81t-130.5 231q0 204 252 262q-51 20 -90 70.5t-39 100t29 90.5t121 97q-89 40 -139 123.5t-50 200.5q0 184 126 286.5t360 102.5q36 0 113 -7.5t106 -12.5h395v-189l-155 -57q32 -59 32 -135 q0 -185 -130 -285t-382 -100q-60 0 -100 8q-14 -26 -14 -49q0 -29 46 -44.5t124 -15.5zM594 936q-121 0 -121 -174t121 -174q117 0 117 174t-117 174zM653 -39h-153q-63 0 -107 -29q-43 -30 -43 -75.5t52 -75t139 -29.5q141 0 227 35.5t86 91.5q0 82 -201 82z" />
<glyph unicode="h" horiz-adv-x="1372" d="M526 1556v-221q0 -155 -16 -343h18q55 86 131 123.5t181 37.5q190 0 295.5 -110t105.5 -306v-737h-393v618q0 228 -135 228q-96 0 -141.5 -80t-45.5 -268v-498h-391v1556h391z" />
<glyph unicode="i" horiz-adv-x="666" d="M176.5 1546.5q49.5 42.5 157 42.5t158.5 -43.5t51 -130.5q0 -172 -208 -172t-208 172q0 89 49.5 131.5zM528 0h-391v1133h391v-1133z" />
<glyph unicode="j" horiz-adv-x="664" d="M174.5 1546.5q49.5 42.5 157 42.5t158.5 -43.5t51 -130.5q0 -172 -208 -172t-208 172q0 89 49.5 131.5zM526 1133v-1225q0 -186 -110 -293t-310 -107q-44 0 -111 8t-99 17v305q64 -18 120 -18q119 0 119 171v1142h391z" />
<glyph unicode="k" horiz-adv-x="1350" d="M528 1556v-612q0 -160 -22 -307h8q68 109 121 176l254 320h436l-393 -482l418 -651h-447l-248 406l-127 -97v-309h-393v1556h393z" />
<glyph unicode="l" horiz-adv-x="662" d="M526 0h-391v1556h391v-1556z" />
<glyph unicode="m" horiz-adv-x="2048" d="M1524 1153q200 0 296.5 -102.5t96.5 -313.5v-737h-391v616q0 116 -31.5 173t-99.5 57q-90 0 -132 -77t-42 -241v-528h-392v616q0 116 -30.5 173t-96.5 57q-93 0 -134.5 -82.5t-41.5 -267.5v-496h-391v1133h295l49 -141h23q45 78 130 119.5t195 41.5q245 0 344 -149h31 q48 70 133.5 109.5t188.5 39.5z" />
<glyph unicode="n" horiz-adv-x="1372" d="M844 1153q189 0 293 -110t104 -306v-737h-391v618q0 115 -33 171.5t-104 56.5q-100 0 -143.5 -79.5t-43.5 -270.5v-496h-391v1133h295l49 -141h23q100 161 342 161z" />
<glyph unicode="o" horiz-adv-x="1305" d="M664 1153q159 0 286 -71t197 -203t70 -300v-10q0 -278 -150 -433.5t-413 -155.5t-416 159q-152 160 -152 433.5t149 425.5q149 155 420 155h9zM780 790q-39 72 -128 72t-129 -72t-40 -221.5t40 -224t129 -74.5t128 74t39 224t-39 222z" />
<glyph unicode="p" horiz-adv-x="1317" d="M526 988q110 165 300 165t296 -157q107 -155 107 -428.5t-111.5 -430.5t-302.5 -157q-89 0 -156.5 29.5t-132.5 101.5h-18q18 -118 18 -148v-455h-391v1625h318l55 -145h18zM526 571q0 -145 39 -210.5t118.5 -65.5t113.5 65t34 212t-34 210.5t-115 63.5t-117 -59 t-39 -185v-31z" />
<glyph unicode="q" horiz-adv-x="1317" d="M791 143q-96 -163 -292.5 -163t-304.5 156t-108 430.5t110.5 430.5t301.5 156q206 0 309 -161h8l29 141h338v-1625h-391v469q0 34 12 166h-12zM821 524v47q0 150 -41 214.5t-135 64.5q-162 0 -162 -291q0 -146 40.5 -211t129 -65t128.5 55.5t40 185.5z" />
<glyph unicode="r" horiz-adv-x="961" d="M819 1153q47 0 97 -8l22 -4l-35 -369q-48 12 -133 12q-126 0 -185 -57t-59 -170v-557h-391v1133h291l61 -181h19q49 90 137 145.5t176 55.5z" />
<glyph unicode="s" horiz-adv-x="1092" d="M514 264q127 0 127 58q0 30 -36 53q-36 25 -206 92q-157 65 -218.5 146.5t-61.5 205.5q0 157 121.5 245.5t333.5 88.5t427 -96l-106 -252q-81 36 -165.5 60t-141.5 24q-96 0 -96 -47q0 -29 33 -50q40 -22 194 -83q119 -49 177 -96q114 -92 114 -269t-123.5 -270.5 t-356.5 -93.5q-123 0 -218 14t-191 49v313q92 -41 201.5 -66.5t191.5 -25.5z" />
<glyph unicode="t" horiz-adv-x="942" d="M584 1133h278v-293h-278v-441q0 -110 106 -110q80 0 189 39v-285q-80 -35 -151 -48q-71 -15 -167 -15q-195 0 -283 95.5t-88 297.5v467h-137v158l174 124l101 238h256v-227z" />
<glyph unicode="u" horiz-adv-x="1372" d="M1237 0h-295l-49 141h-23q-49 -78 -136.5 -119.5t-205.5 -41.5q-188 0 -291.5 109t-103.5 306v738h391v-619q0 -113 32 -169t103 -56q101 0 144 79t43 269v496h391v-1133z" />
<glyph unicode="v" horiz-adv-x="1251" d="M618 348h7q0 51 18 113l201 672h407l-432 -1133h-387l-432 1133h408l192 -670l5 -23q13 -60 13 -92z" />
<glyph unicode="w" horiz-adv-x="1864" d="M1528 0h-418l-129 540l-29 163l-20 131h-6q-49 -276 -66 -353l-115 -481h-411l-309 1133h385l92 -435q44 -224 51 -372h6q3 95 55 350l105 457h432l96 -463q45 -216 58 -344h6q5 64 19 179.5t32 192.5l100 435h377z" />
<glyph unicode="x" horiz-adv-x="1290" d="M911 578l369 -578h-444l-191 344l-190 -344h-446l366 578l-346 555h444l172 -318l176 318h445z" />
<glyph unicode="y" horiz-adv-x="1249" d="M262 -492q-75 0 -160 17v307q53 -12 112 -12q110 0 168 77q29 37 62 119l-446 1117h412l192 -650q15 -56 19 -123h8q7 68 24 121l197 652h399l-448 -1205q-86 -230 -211.5 -325t-327.5 -95z" />
<glyph unicode="z" horiz-adv-x="1038" d="M986 299v-299h-937v223l469 611h-442v299h889v-242l-449 -592h470z" />
<glyph unicode="{" horiz-adv-x="887" d="M821 1483v-279q-88 -3 -121 -14q-69 -22 -69 -92v-271q0 -114 -57 -174t-183 -78v-12q127 -20 183.5 -78.5t56.5 -167.5v-276q0 -39 20 -60.5t56.5 -32.5t113.5 -14v-278q-196 0 -306.5 32t-159 101.5t-48.5 210.5v248q0 80 -66.5 125t-179.5 45v301q115 0 180.5 44.5 t65.5 125.5v254q0 140 49 208.5t159.5 100t305.5 31.5z" />
<glyph unicode="|" horiz-adv-x="1042" d="M655 -446h-268v2002h268v-2002z" />
<glyph unicode="}" horiz-adv-x="887" d="M66 1483q195 0 305.5 -32t159.5 -100t49 -208v-254q0 -81 65 -125.5t180 -44.5v-301q-112 0 -178.5 -45.5t-66.5 -124.5v-248q0 -140 -49 -210t-159.5 -102t-305.5 -32v278q105 4 147.5 29t42.5 78v276q0 109 56.5 167.5t183.5 78.5v12q-126 18 -183 78t-57 174v271 q0 69 -70 92q-32 11 -120 14v279z" />
<glyph unicode="~" horiz-adv-x="1159" d="M821 528q-71 0 -135.5 15.5t-144.5 48.5q-129 55 -238 55t-231 -121v281q104 108 264 108q66 0 130 -14t150 -49q129 -55 238 -55q51 0 113 32.5t118 88.5v-281q-105 -109 -264 -109z" />
<glyph unicode="&#xa1;" horiz-adv-x="594" d="M146 1103q54 50 154 50t155 -50t55 -141t-54 -141.5t-156 -50.5t-155 50t-53 141.5t54 141.5zM514 -334h-432l51 946h330z" />
<glyph unicode="&#xa2;" horiz-adv-x="1200" d="M772 1483v-154q169 -9 324 -84l-116 -289q-82 35 -138.5 51.5t-116.5 16.5q-95 0 -147 -74t-52 -209q0 -272 201 -272q173 0 330 100v-311q-127 -81 -285 -98v-180h-207v186q-213 31 -324.5 176.5t-111.5 390.5t112.5 394t323.5 190v166h207z" />
<glyph unicode="&#xa3;" horiz-adv-x="1200" d="M268 926v118q0 215 117 328t332.5 113t410.5 -82l-110 -289q-147 55 -252 55q-58 0 -85.5 -33t-27.5 -104v-106h343v-277h-343v-96q0 -151 -159 -227h671v-326h-1061v313q77 44 109 76q55 56 55 162v98h-166v277h166z" />
<glyph unicode="&#xa5;" horiz-adv-x="1200" d="M1024 750v-211h-242v-117h242v-209h-242v-213h-364v213h-246v209h246v117h-246v211h190l-354 712h400l192 -504l193 504h399l-363 -712h195z" />
<glyph unicode="&#xa6;" horiz-adv-x="1042" d="M655 717h-268v839h268v-839zM655 -446h-268v839h268v-839z" />
<glyph unicode="&#xa7;" horiz-adv-x="1024" d="M471 197q139 0 139 96q0 42 -31 72.5t-157 86.5t-188 104q-128 98 -128 247q0 64 43 124.5t121 108.5q-141 102 -141 242t110.5 219.5t298 79.5t367.5 -86l-98 -221q-157 86 -270 86t-113 -74q0 -78 173 -148.5t252 -151.5t79 -179q0 -80 -33 -140t-115 -118 q125 -95 125 -244t-116 -237.5t-319.5 -88.5t-352.5 86v244q85 -46 186 -77t168 -31zM397 834q0 -50 42 -89.5t157 -99.5q41 47 41 105.5t-42 101.5t-140 84q-58 -31 -58 -102z" />
<glyph unicode="&#xa8;" horiz-adv-x="1233" d="M393 1571q79 0 125.5 -42.5t46.5 -114.5t-46.5 -114.5t-125.5 -42.5t-124.5 41t-45.5 115t45.5 116t124.5 42zM747.5 1529.5q45.5 41.5 125.5 41.5t127 -43t47 -114.5t-47 -114t-127 -42.5t-125.5 41.5t-45.5 115.5t45.5 115.5z" />
<glyph unicode="&#xa9;" horiz-adv-x="1688" d="M192 1106q101 176 276 276.5t374.5 100.5t373 -98t276.5 -273.5t103 -380t-100.5 -377t-273.5 -273.5t-378.5 -101t-380.5 103t-272.5 276t-97.5 372t100 375zM844 1319q-159 0 -295 -79q-135 -77 -214 -214.5t-79 -295.5t79.5 -295t216 -214.5t293.5 -77.5t293 78.5 t215 214.5t79 294t-76.5 293t-214.5 215.5t-297 80.5zM879 262q-212 0 -329 124q-116 125 -116 344.5t113 343.5t321 124q166 0 322 -78l-92 -205q-106 55 -211 55q-82 0 -127 -61.5t-45 -183t43 -179t135 -57.5q137 0 258 68v-231q-125 -64 -272 -64z" />
<glyph unicode="&#xab;" horiz-adv-x="1395" d="M743 922l-272 -347l272 -348l-280 -147l-389 481v27l389 483zM1319 922l-275 -347l275 -348l-283 -147l-387 481v27l387 483z" />
<glyph unicode="&#xac;" horiz-adv-x="1159" d="M1085 238h-270v350h-743v268h1013v-618z" />
<glyph unicode="&#xad;" horiz-adv-x="651" d="M608 393h-565v312h565v-312z" />
<glyph unicode="&#xae;" horiz-adv-x="1688" d="M192 1106q101 176 276 276.5t374.5 100.5t373 -98t276.5 -273.5t103 -380t-100.5 -377t-273.5 -273.5t-378.5 -101t-380.5 103t-272.5 276t-97.5 372t100 375zM844 1319q-159 0 -295 -79q-135 -77 -214 -214.5t-79 -295.5t79.5 -295t216 -214.5t293.5 -77.5t293 78.5 t215 214.5t79 294t-76.5 293t-214.5 215.5t-297 80.5zM506 1188h291q407 0 407 -270q0 -88 -33.5 -147.5t-107.5 -94.5l194 -363h-290l-146 320h-35v-320h-280v875zM786 992v-183h11q125 0 125 98q0 47 -27.5 66t-95.5 19h-13z" />
<glyph unicode="&#xaf;" horiz-adv-x="1024" d="M1030 1556h-1036v246h1036v-246z" />
<glyph unicode="&#xb0;" horiz-adv-x="864" d="M438 1483q93 0 178.5 -50.5t134.5 -134.5t49 -173v-10.5v-7.5q0 -91 -48.5 -174.5t-133.5 -133t-179 -49.5h-8h-7q-93 0 -178 49t-134.5 131.5t-49.5 172.5v11v11q0 89 49 173t134.5 134.5t178.5 50.5h7h7zM524 1206q-38 41 -93.5 41t-93 -40.5t-37.5 -91t38 -90.5 q39 -39 93.5 -39t91.5 40q39 39 39 89t-38 91z" />
<glyph unicode="&#xb1;" horiz-adv-x="1159" d="M713 952h372v-268h-372v-360h-269v360h-372v268h372v367h269v-367zM1085 0h-1013v268h1013v-268z" />
<glyph unicode="&#xb2;" horiz-adv-x="817" d="M228 1453.5q87 31.5 216 31.5t207 -63t78 -175q0 -86 -54 -172q-24 -39 -74 -92q-54 -52 -198 -172h347v-225h-674v207l215 213q86 86 117.5 130t31.5 78q0 58 -65 58q-81 0 -172 -88l-142 166q80 72 167 103.5z" />
<glyph unicode="&#xb3;" horiz-adv-x="817" d="M406 1481q147 0 232 -58q87 -57 87 -157q0 -80 -38 -134t-124 -85v-9q97 -24 144 -76.5t47 -138.5q0 -120 -98 -187t-280 -67t-306 70v233q117 -81 297 -81q116 0 116 67q0 40 -31.5 56t-103.5 16h-104v194h80q72 0 105.5 18.5t33.5 59.5q0 28 -22.5 48t-69.5 20 q-92 0 -191 -74l-117 170q148 115 343 115z" />
<glyph unicode="&#xb4;" horiz-adv-x="1225" d="M956 1569v-21q-68 -55 -212 -157t-220 -150h-260v29q154 165 194.5 212t69.5 87h428z" />
<glyph unicode="&#xb6;" horiz-adv-x="1317" d="M1186 -260h-192v1587h-156v-1587h-191v819q-54 -18 -125 -18q-215 0 -317.5 124t-102.5 380t109 383.5t342 127.5h633v-1816z" />
<glyph unicode="&#xb7;" horiz-adv-x="592" d="M140.5 865.5q54.5 49.5 156 49.5t154.5 -50t53 -141t-54.5 -142.5t-152.5 -51.5t-154.5 51t-56.5 143t54.5 141.5z" />
<glyph unicode="&#xb8;" horiz-adv-x="383" d="M397 -252q0 -110 -75 -175t-204.5 -65t-207.5 29v205q82 -27 147 -27q52 0 52 47q0 32 -40 58t-108 41l72 139h203l-9 -29q93 -38 131.5 -90.5t38.5 -132.5z" />
<glyph unicode="&#xb9;" horiz-adv-x="817" d="M616 586h-282v356q0 36 4 120t6 97q-8 -17 -33.5 -44t-107.5 -97l-146 170l340 274h219v-876z" />
<glyph unicode="&#xbb;" horiz-adv-x="1395" d="M745 588v-27l-387 -481l-282 147l272 348l-272 347l282 149zM1321 588v-27l-387 -481l-285 147l275 348l-275 347l285 149z" />
<glyph unicode="&#xbc;" horiz-adv-x="1919" d="M547 586h-282v356q0 36 4 120t6 97q-8 -17 -33.5 -44t-107.5 -97l-146 170l340 274h219v-876zM658 0h-301l753 1462h302zM1673 341h125v-201h-125v-140h-275v140h-370v188l350 555h295v-542zM1398 341v166q0 73 7 135q-41 -103 -62 -133l-102 -168h157z" />
<glyph unicode="&#xbd;" horiz-adv-x="1921" d="M547 586h-282v356q0 36 4 120t6 97q-8 -17 -33.5 -44t-107.5 -97l-146 170l340 274h219v-876zM682 0h-301l753 1462h302zM1307 868.5q87 31.5 216 31.5t207 -63t78 -175q0 -132 -128 -263q-49 -49 -198 -173h347v-226h-674v208l215 213q86 86 117.5 130t31.5 78 q0 58 -65 58q-81 0 -172 -88l-142 166q80 72 167 103.5z" />
<glyph unicode="&#xbe;" horiz-adv-x="1921" d="M426 1481q147 0 232 -58q87 -57 87 -157q0 -80 -38 -134t-124 -85v-9q97 -24 144 -76.5t47 -138.5q0 -120 -98 -187t-280 -67t-306 70v233q117 -81 297 -81q116 0 116 67q0 40 -31.5 56t-103.5 16h-104v194h80q72 0 105.5 18.5t33.5 59.5q0 28 -22.5 48t-69.5 20 q-92 0 -191 -74l-117 170q148 115 343 115zM766 0h-301l753 1462h302zM1745 341h125v-201h-125v-140h-275v140h-370v188l350 555h295v-542zM1470 341v166q0 73 7 135q-41 -103 -62 -133l-102 -168h157z" />
<glyph unicode="&#xbf;" horiz-adv-x="1034" d="M419 1103q54 50 153.5 50t154.5 -49.5t55 -142t-53.5 -142t-156 -49.5t-155 50t-52.5 141.5t54 141.5zM739 612v-86q0 -99 -40 -165.5t-142 -131.5q-90 -61 -120 -96.5t-31 -89.5q0 -42 37 -66t100 -24q149 0 352 106l139 -272q-243 -141 -520 -141q-222 0 -349.5 97.5 t-127.5 265.5q0 121 55.5 209.5t181.5 168.5q101 65 129.5 98t28.5 76v51h307z" />
<glyph unicode="&#xc0;" horiz-adv-x="1487" d="M398 1913h430q53 -71 203 -233l59 -66v-29h-260q-69 43 -196 132.5t-236 174.5v21zM1055 0l-73 274h-474l-74 -274h-434l477 1468h527l483 -1468h-432zM901 598l-63 240q-65 229 -95 389q-9 -51 -36 -168q-24 -113 -117 -461h311z" />
<glyph unicode="&#xc1;" horiz-adv-x="1487" d="M1090 1913v-21q-68 -55 -212 -157t-220 -150h-260v29q154 165 194.5 212t69.5 87h428zM1055 0l-73 274h-474l-74 -274h-434l477 1468h527l483 -1468h-432zM901 598l-63 240q-65 229 -95 389q-9 -51 -36 -168q-24 -113 -117 -461h311z" />
<glyph unicode="&#xc2;" horiz-adv-x="1487" d="M1198 1585h-254q-84 48 -201 150q-123 -105 -194 -150h-258v29q69 64 146 154t112 145h393q97 -140 256 -299v-29zM1055 0l-73 274h-474l-74 -274h-434l477 1468h527l483 -1468h-432zM901 598l-63 240q-65 229 -95 389q-9 -51 -36 -168q-24 -113 -117 -461h311z" />
<glyph unicode="&#xc3;" horiz-adv-x="1487" d="M919 1583q-63 0 -180 48t-164 48q-54 0 -72 -98h-180q11 175 72 258.5t180 83.5q51 0 168 -48t168 -48q54 0 72 98h182q-11 -167 -74 -254.5t-172 -87.5zM1055 0l-73 274h-474l-74 -274h-434l477 1468h527l483 -1468h-432zM901 598l-63 240q-65 229 -95 389 q-9 -51 -36 -168q-24 -113 -117 -461h311z" />
<glyph unicode="&#xc4;" horiz-adv-x="1487" d="M502 1915q79 0 125.5 -42.5t46.5 -114.5t-46.5 -114.5t-125.5 -42.5t-124.5 41t-45.5 115t45.5 116t124.5 42zM856.5 1873.5q45.5 41.5 125.5 41.5t127 -43t47 -114.5t-47 -114t-127 -42.5t-125.5 41.5t-45.5 115.5t45.5 115.5zM1055 0l-73 274h-474l-74 -274h-434 l477 1468h527l483 -1468h-432zM901 598l-63 240q-65 229 -95 389q-9 -51 -36 -168q-24 -113 -117 -461h311z" />
<glyph unicode="&#xc5;" horiz-adv-x="1487" d="M481 1573q0 116 71.5 185t191 69t196.5 -70.5t77 -181.5q0 -57 -22 -107h9l483 -1468h-432l-73 274h-474l-74 -274h-434l477 1468h23q-19 49 -19 105zM745 1657q-36 0 -60 -23t-24 -61t21.5 -61t60 -23t62.5 24t24 61t-24 60t-60 23zM901 598l-63 240q-65 229 -95 389 q-9 -51 -36 -168q-24 -113 -117 -461h311z" />
<glyph unicode="&#xc6;" horiz-adv-x="1937" d="M1839 1145h-473v-230h438v-317h-438v-276h473v-322h-870v274h-437l-100 -274h-442l628 1462h1221v-317zM969 602v526h-111l-205 -526h316z" />
<glyph unicode="&#xc7;" horiz-adv-x="1329" d="M808 1159q-140 0 -219.5 -115.5t-79.5 -318.5q0 -422 321 -422q149 0 371 92v-334q-183 -81 -414 -81q-31 0 -46 1l-3 -10q93 -38 131.5 -90.5t38.5 -132.5q0 -110 -75 -175t-204.5 -65t-207.5 29v205q82 -27 147 -27q52 0 52 47q0 32 -40 58t-108 41l72 139h45 q-190 42 -310 172q-176 193 -176 555v14q0 332 190.5 537t506.5 205h12q238 0 453 -103l-121 -311q-93 44 -171.5 67t-164.5 23z" />
<glyph unicode="&#xc8;" horiz-adv-x="1124" d="M216 1913h430q53 -71 203 -233l59 -66v-29h-260q-69 43 -196 132.5t-236 174.5v21zM553 1145v-230h437v-317h-437v-276h473v-322h-868v1462h868v-317h-473z" />
<glyph unicode="&#xc9;" horiz-adv-x="1124" d="M908 1913v-21q-68 -55 -212 -157t-220 -150h-260v29q154 165 194.5 212t69.5 87h428zM553 1145v-230h437v-317h-437v-276h473v-322h-868v1462h868v-317h-473z" />
<glyph unicode="&#xca;" horiz-adv-x="1124" d="M1015 1585h-254q-84 48 -201 150q-123 -105 -194 -150h-258v29q69 64 146 154t112 145h393q97 -140 256 -299v-29zM553 1145v-230h437v-317h-437v-276h473v-322h-868v1462h868v-317h-473z" />
<glyph unicode="&#xcb;" horiz-adv-x="1124" d="M320 1915q79 0 125.5 -42.5t46.5 -114.5t-46.5 -114.5t-125.5 -42.5t-124.5 41t-45.5 115t45.5 116t124.5 42zM674.5 1873.5q45.5 41.5 125.5 41.5t127 -43t47 -114.5t-47 -114t-127 -42.5t-125.5 41.5t-45.5 115.5t45.5 115.5zM553 1145v-230h437v-317h-437v-276h473 v-322h-868v1462h868v-317h-473z" />
<glyph unicode="&#xcc;" horiz-adv-x="713" d="M11 1913h430q53 -71 203 -233l59 -66v-29h-260q-69 43 -196 132.5t-236 174.5v21zM158 0v1462h397v-1462h-397z" />
<glyph unicode="&#xcd;" horiz-adv-x="713" d="M703 1913v-21q-68 -55 -212 -157t-220 -150h-260v29q155 165 195 212t69 87h428zM158 0v1462h397v-1462h-397z" />
<glyph unicode="&#xce;" horiz-adv-x="713" d="M810 1585h-254q-84 48 -201 150q-123 -105 -194 -150h-258v29q69 64 146 154t112 145h393q97 -140 256 -299v-29zM158 0v1462h397v-1462h-397z" />
<glyph unicode="&#xcf;" horiz-adv-x="713" d="M115 1915q79 0 125.5 -42.5t46.5 -114.5t-46.5 -114.5t-125.5 -42.5t-124.5 41t-45.5 115t45.5 116t124.5 42zM469.5 1873.5q45.5 41.5 125.5 41.5t127 -43t47 -114.5t-47 -114t-127 -42.5t-125.5 41.5t-45.5 115.5t45.5 115.5zM158 0v1462h397v-1462h-397z" />
<glyph unicode="&#xd0;" horiz-adv-x="1503" d="M158 1462h506q353 0 544 -180.5t191 -519.5q0 -365 -201 -563.5t-567 -198.5h-473v563h-127v320h127v579zM553 1143v-260h211v-320h-211v-239h88q179 0 263.5 104t84.5 312.5t-79.5 305.5t-241.5 97h-115z" />
<glyph unicode="&#xd1;" horiz-adv-x="1708" d="M1029 1583q-63 0 -180 48t-164 48q-54 0 -72 -98h-180q11 175 72 258.5t180 83.5q50 0 167.5 -48t168.5 -48q54 0 72 98h182q-11 -167 -74 -254.5t-172 -87.5zM508 659v-659h-350v1462h516l532 -1016h6q-14 229 -14 355v661h352v-1462h-518l-534 1030h-9q19 -237 19 -371 z" />
<glyph unicode="&#xd2;" horiz-adv-x="1632" d="M470 1913h430q53 -71 203 -233l59 -66v-29h-260q-69 43 -196 132.5t-236 174.5v21zM286 1292q183 193 531.5 193t528.5 -191t180 -560.5t-181 -561.5t-527.5 -192t-530.5 193q-183 193 -183 559.5t182 559.5zM817 1161q-297 0 -297 -426t295 -426q150 0 222.5 103 t72.5 321t-73 323t-220 105z" />
<glyph unicode="&#xd3;" horiz-adv-x="1632" d="M1162 1913v-21q-68 -55 -212 -157t-220 -150h-260v29q154 165 194.5 212t69.5 87h428zM286 1292q183 193 531.5 193t528.5 -191t180 -560.5t-181 -561.5t-527.5 -192t-530.5 193q-183 193 -183 559.5t182 559.5zM817 1161q-297 0 -297 -426t295 -426q150 0 222.5 103 t72.5 321t-73 323t-220 105z" />
<glyph unicode="&#xd4;" horiz-adv-x="1632" d="M1270 1585h-254q-84 48 -201 150q-123 -105 -194 -150h-258v29q69 64 146 154t112 145h393q97 -140 256 -299v-29zM286 1292q183 193 531.5 193t528.5 -191t180 -560.5t-181 -561.5t-527.5 -192t-530.5 193q-183 193 -183 559.5t182 559.5zM817 1161q-297 0 -297 -426 t295 -426q150 0 222.5 103t72.5 321t-73 323t-220 105z" />
<glyph unicode="&#xd5;" horiz-adv-x="1632" d="M991 1583q-63 0 -180 48t-164 48q-54 0 -72 -98h-180q11 175 72 258.5t180 83.5q51 0 168 -48t168 -48q54 0 72 98h182q-11 -167 -74 -254.5t-172 -87.5zM286 1292q183 193 531.5 193t528.5 -191t180 -560.5t-181 -561.5t-527.5 -192t-530.5 193q-183 193 -183 559.5 t182 559.5zM817 1161q-297 0 -297 -426t295 -426q150 0 222.5 103t72.5 321t-73 323t-220 105z" />
<glyph unicode="&#xd6;" horiz-adv-x="1632" d="M574 1915q79 0 125.5 -42.5t46.5 -114.5t-46.5 -114.5t-125.5 -42.5t-124.5 41t-45.5 115t45.5 116t124.5 42zM928.5 1873.5q45.5 41.5 125.5 41.5t127 -43t47 -114.5t-47 -114t-127 -42.5t-125.5 41.5t-45.5 115.5t45.5 115.5zM286 1292q183 193 531.5 193t528.5 -191 t180 -560.5t-181 -561.5t-527.5 -192t-530.5 193q-183 193 -183 559.5t182 559.5zM817 1161q-297 0 -297 -426t295 -426q150 0 222.5 103t72.5 321t-73 323t-220 105z" />
<glyph unicode="&#xd7;" horiz-adv-x="1159" d="M1036 996l-274 -273l270 -272l-184 -185l-275 271l-270 -269l-180 187l264 268l-266 267l182 190l270 -267l275 267z" />
<glyph unicode="&#xd8;" horiz-adv-x="1632" d="M1331 1309q195 -189 195 -567t-181 -570t-530 -192q-178 0 -307 43l-84 -132l-193 125l84 125q-211 193 -211 594q0 365 182.5 557.5t530.5 192.5q192 0 330 -55l76 118l190 -114zM817 1161q-297 0 -297 -428q0 -154 29 -239l403 639q-66 28 -135 28zM815 309 q150 0 222.5 103t72.5 321q0 125 -18 211l-394 -620q54 -15 117 -15z" />
<glyph unicode="&#xd9;" horiz-adv-x="1550" d="M429 1913h430q53 -71 203 -233l59 -66v-29h-260q-69 43 -196 132.5t-236 174.5v21zM1401 1462v-880q0 -288 -162 -445t-465.5 -157t-463.5 153t-160 440v889h397v-858q0 -153 57 -224t175 -71t172.5 69.5t54.5 227.5v856h395z" />
<glyph unicode="&#xda;" horiz-adv-x="1550" d="M1121 1913v-21q-68 -55 -212 -157t-220 -150h-260v29q155 165 195 212t69 87h428zM1401 1462v-880q0 -288 -162 -445t-465.5 -157t-463.5 153t-160 440v889h397v-858q0 -153 57 -224t175 -71t172.5 69.5t54.5 227.5v856h395z" />
<glyph unicode="&#xdb;" horiz-adv-x="1550" d="M1229 1585h-254q-84 48 -201 150q-123 -105 -194 -150h-258v29q69 64 146 154t112 145h393q97 -140 256 -299v-29zM1401 1462v-880q0 -288 -162 -445t-465.5 -157t-463.5 153t-160 440v889h397v-858q0 -153 57 -224t175 -71t172.5 69.5t54.5 227.5v856h395z" />
<glyph unicode="&#xdc;" horiz-adv-x="1550" d="M533 1915q79 0 125.5 -42.5t46.5 -114.5t-46.5 -114.5t-125.5 -42.5t-124.5 41t-45.5 115t45.5 116t124.5 42zM887.5 1873.5q45.5 41.5 125.5 41.5t127 -43t47 -114.5t-47 -114t-127 -42.5t-125.5 41.5t-45.5 115.5t45.5 115.5zM1401 1462v-880q0 -288 -162 -445 t-465.5 -157t-463.5 153t-160 440v889h397v-858q0 -153 57 -224t175 -71t172.5 69.5t54.5 227.5v856h395z" />
<glyph unicode="&#xdd;" horiz-adv-x="1360" d="M1026 1913v-21q-68 -55 -212 -157t-220 -150h-260v29q154 165 194.5 212t69.5 87h428zM879 0h-398v559l-481 903h430l250 -542l252 542h428l-481 -891v-571z" />
<glyph unicode="&#xde;" horiz-adv-x="1284" d="M553 1249h111q274 0 414.5 -120t140.5 -345q0 -245 -144.5 -378.5t-410.5 -133.5h-111v-272h-395v1462h395v-213zM553 930v-336h72q90 0 142 50.5t52 137.5q0 148 -164 148h-102z" />
<glyph unicode="&#xdf;" horiz-adv-x="1536" d="M135 0v1100q0 215 166.5 341t445 126t435.5 -100t157 -277q0 -99 -69 -187q-36 -45 -129 -119q-20 -15 -28.5 -22.5t-20.5 -17.5q-21 -19 -21 -37.5t23.5 -39t94.5 -58.5q168 -95 228 -173t60 -202q0 -174 -115 -264t-338 -90q-139 0 -224 13t-147 46v291 q51 -31 133.5 -55.5t144.5 -24.5t100 23.5t38 62.5q0 27 -14 46.5t-54.5 45t-117.5 66.5q-126 67 -175 124.5t-49 137.5q0 122 140 218q76 52 107.5 91.5t31.5 87.5t-50.5 81.5t-139.5 33.5q-222 0 -222 -209v-1059h-391z" />
<glyph unicode="&#xe0;" horiz-adv-x="1276" d="M292 1569h430q53 -71 203 -233l59 -66v-29h-260q-69 43 -196 132.5t-236 174.5v21zM688 1153q218 0 337.5 -109t119.5 -301v-743h-271l-75 150h-8q-81 -99 -162 -134.5t-211 -35.5q-160 0 -252 96.5t-92 272t123.5 265.5t367.5 101l189 6v16q0 140 -138 140 q-124 0 -315 -84l-113 258q198 102 500 102zM473 360q0 -104 111 -104q72 0 122 45t50 117v88l-90 -4q-193 -7 -193 -142z" />
<glyph unicode="&#xe1;" horiz-adv-x="1276" d="M984 1569v-21q-68 -55 -212 -157t-220 -150h-260v29q154 165 194.5 212t69.5 87h428zM688 1153q218 0 337.5 -109t119.5 -301v-743h-271l-75 150h-8q-81 -99 -162 -134.5t-211 -35.5q-160 0 -252 96.5t-92 272t123.5 265.5t367.5 101l189 6v16q0 140 -138 140 q-124 0 -315 -84l-113 258q198 102 500 102zM473 360q0 -104 111 -104q72 0 122 45t50 117v88l-90 -4q-193 -7 -193 -142z" />
<glyph unicode="&#xe2;" horiz-adv-x="1276" d="M1092 1241h-254q-84 48 -201 150q-123 -105 -194 -150h-258v29q69 64 146 154t112 145h393q97 -140 256 -299v-29zM688 1153q218 0 337.5 -109t119.5 -301v-743h-271l-75 150h-8q-81 -99 -162 -134.5t-211 -35.5q-160 0 -252 96.5t-92 272t123.5 265.5t367.5 101l189 6 v16q0 140 -138 140q-124 0 -315 -84l-113 258q198 102 500 102zM473 360q0 -104 111 -104q72 0 122 45t50 117v88l-90 -4q-193 -7 -193 -142z" />
<glyph unicode="&#xe3;" horiz-adv-x="1276" d="M813 1239q-63 0 -180 48t-164 48q-54 0 -72 -98h-180q11 175 72 258.5t180 83.5q51 0 168 -48t168 -48q54 0 72 98h182q-11 -167 -74 -254.5t-172 -87.5zM688 1153q218 0 337.5 -109t119.5 -301v-743h-271l-75 150h-8q-81 -99 -162 -134.5t-211 -35.5q-160 0 -252 96.5 t-92 272t123.5 265.5t367.5 101l189 6v16q0 140 -138 140q-124 0 -315 -84l-113 258q198 102 500 102zM473 360q0 -104 111 -104q72 0 122 45t50 117v88l-90 -4q-193 -7 -193 -142z" />
<glyph unicode="&#xe4;" horiz-adv-x="1276" d="M396 1571q79 0 125.5 -42.5t46.5 -114.5t-46.5 -114.5t-125.5 -42.5t-124.5 41t-45.5 115t45.5 116t124.5 42zM750.5 1529.5q45.5 41.5 125.5 41.5t127 -43t47 -114.5t-47 -114t-127 -42.5t-125.5 41.5t-45.5 115.5t45.5 115.5zM688 1153q218 0 337.5 -109t119.5 -301 v-743h-271l-75 150h-8q-81 -99 -162 -134.5t-211 -35.5q-160 0 -252 96.5t-92 272t123.5 265.5t367.5 101l189 6v16q0 140 -138 140q-124 0 -315 -84l-113 258q198 102 500 102zM473 360q0 -104 111 -104q72 0 122 45t50 117v88l-90 -4q-193 -7 -193 -142z" />
<glyph unicode="&#xe5;" horiz-adv-x="1276" d="M364.5 1674q71.5 69 191 69t196.5 -70.5t77 -182.5t-76 -182.5t-196.5 -70.5t-192 68.5t-71.5 184t71.5 184.5zM557 1573q-36 0 -60 -23t-24 -61t21.5 -61t60 -23t62.5 24t24 61t-24 60t-60 23zM688 1153q218 0 337.5 -109t119.5 -301v-743h-271l-75 150h-8 q-81 -99 -162 -134.5t-211 -35.5q-160 0 -252 96.5t-92 272t123.5 265.5t367.5 101l189 6v16q0 140 -138 140q-124 0 -315 -84l-113 258q198 102 500 102zM473 360q0 -104 111 -104q72 0 122 45t50 117v88l-90 -4q-193 -7 -193 -142z" />
<glyph unicode="&#xe6;" horiz-adv-x="1915" d="M649 1153q202 0 336 -94q134 94 358 94t355 -137t131 -383v-172h-696q4 -91 74.5 -147t185.5 -56q194 0 364 86v-281q-91 -46 -187 -64.5t-229 -18.5q-280 0 -430 190q-80 -83 -141 -120.5t-137 -53.5t-199 -16q-162 0 -261 102t-99 270q0 345 497 363l183 6v18 q0 138 -136 138t-313 -80l-110 256q190 100 454 100zM1315 887q-163 0 -176 -180h340q-2 81 -48 130.5t-116 49.5zM473 356q0 -100 113 -100q71 0 120.5 45.5t49.5 116.5v88l-84 -4q-105 -4 -152 -38.5t-47 -107.5z" />
<glyph unicode="&#xe7;" horiz-adv-x="1104" d="M682 846q-95 0 -147 -74t-52 -209q0 -272 201 -272q173 0 330 100v-311q-151 -100 -363 -100h-22l-3 -9q93 -38 131.5 -90.5t38.5 -132.5q0 -110 -75 -175t-204.5 -65t-207.5 29v205q83 -27 147 -27q52 0 52 47q0 32 -40 58t-108 41l72 139h35q-188 45 -284.5 187.5 t-96.5 373.5q0 283 155 436q155 156 441 156q196 0 371 -86l-115 -289q-81 35 -138.5 51.5t-117.5 16.5z" />
<glyph unicode="&#xe8;" horiz-adv-x="1266" d="M287 1569h430q53 -71 203 -233l59 -66v-29h-260q-69 43 -196 132.5t-236 174.5v21zM682 -20q-282 0 -440 150q-156 152 -156 434.5t145 433.5q145 155 407 155t402 -134t140 -384v-174h-699q4 -95 69.5 -149t175 -54t193.5 19t187 67v-281q-96 -49 -192 -66t-232 -17z M778.5 838q-44.5 49 -118 49t-118.5 -45t-53 -135h336q-2 82 -46.5 131z" />
<glyph unicode="&#xe9;" horiz-adv-x="1266" d="M979 1569v-21q-68 -55 -212 -157t-220 -150h-260v29q155 165 195 212t69 87h428zM682 -20q-282 0 -440 150q-156 152 -156 434.5t145 433.5q145 155 407 155t402 -134t140 -384v-174h-699q4 -95 69.5 -149t175 -54t193.5 19t187 67v-281q-96 -49 -192 -66t-232 -17z M778.5 838q-44.5 49 -118 49t-118.5 -45t-53 -135h336q-2 82 -46.5 131z" />
<glyph unicode="&#xea;" horiz-adv-x="1266" d="M1087 1241h-254q-84 48 -201 150q-123 -105 -194 -150h-258v29q69 64 146 154t112 145h393q97 -140 256 -299v-29zM682 -20q-282 0 -440 150q-156 152 -156 434.5t145 433.5q145 155 407 155t402 -134t140 -384v-174h-699q4 -95 69.5 -149t175 -54t193.5 19t187 67v-281 q-96 -49 -192 -66t-232 -17zM778.5 838q-44.5 49 -118 49t-118.5 -45t-53 -135h336q-2 82 -46.5 131z" />
<glyph unicode="&#xeb;" horiz-adv-x="1266" d="M391 1571q79 0 125.5 -42.5t46.5 -114.5t-46.5 -114.5t-125.5 -42.5t-124.5 41t-45.5 115t45.5 116t124.5 42zM745.5 1529.5q45.5 41.5 125.5 41.5t127 -43t47 -114.5t-47 -114t-127 -42.5t-125.5 41.5t-45.5 115.5t45.5 115.5zM682 -20q-282 0 -440 150 q-156 152 -156 434.5t145 433.5q145 155 407 155t402 -134t140 -384v-174h-699q4 -95 69.5 -149t175 -54t193.5 19t187 67v-281q-96 -49 -192 -66t-232 -17zM778.5 838q-44.5 49 -118 49t-118.5 -45t-53 -135h336q-2 82 -46.5 131z" />
<glyph unicode="&#xec;" horiz-adv-x="666" d="M-130 1569h430q53 -71 203 -233l59 -66v-29h-260q-79 51 -212.5 144.5t-219.5 162.5v21zM528 0h-391v1133h391v-1133z" />
<glyph unicode="&#xed;" horiz-adv-x="666" d="M799 1569v-21q-79 -63 -219 -162t-213 -145h-260v29q147 157 196 213q41 49 68 86h428zM528 0h-391v1133h391v-1133z" />
<glyph unicode="&#xee;" horiz-adv-x="666" d="M787 1241h-254q-84 48 -201 150q-123 -105 -194 -150h-258v29q68 64 143.5 152t114.5 147h393q97 -140 256 -299v-29zM528 0h-391v1133h391v-1133z" />
<glyph unicode="&#xef;" horiz-adv-x="666" d="M109 1571q79 0 125.5 -42.5t46.5 -114.5t-46.5 -114.5t-125.5 -42.5t-124.5 41t-45.5 115t45.5 116t124.5 42zM463.5 1529.5q45.5 41.5 126 41.5t127 -43t46.5 -115t-46.5 -114t-127 -42t-126 41.5t-45.5 115.5t45.5 115.5zM528 0h-391v1133h391v-1133z" />
<glyph unicode="&#xf0;" horiz-adv-x="1313" d="M1217 580q0 -276 -152.5 -438t-413.5 -162t-412 139t-151 378t130 378t349 139q191 0 244 -84l8 4q-69 133 -143 207l-182 -119l-117 184l143 92l-149 93l108 182q175 -74 266 -135l209 137l115 -182l-145 -97q157 -154 225 -324t68 -392zM772 681q-45 52 -127 52 t-119 -54.5t-37 -178.5q0 -242 164 -242q89 0 126.5 69.5t37.5 217.5q0 84 -45 136z" />
<glyph unicode="&#xf1;" horiz-adv-x="1372" d="M861 1239q-63 0 -180 48t-164 48q-54 0 -72 -98h-180q11 175 72 258.5t180 83.5q51 0 168 -48t168 -48q54 0 72 98h182q-11 -167 -74 -254.5t-172 -87.5zM844 1153q189 0 293 -110t104 -306v-737h-391v618q0 115 -33 171.5t-104 56.5q-100 0 -143.5 -79.5t-43.5 -270.5 v-496h-391v1133h295l49 -141h23q100 161 342 161z" />
<glyph unicode="&#xf2;" horiz-adv-x="1305" d="M307 1569h430q53 -71 203 -233l59 -66v-29h-260q-69 43 -196 132.5t-236 174.5v21zM664 1153q159 0 286 -71t197 -203t70 -300v-10q0 -278 -150 -433.5t-413 -155.5t-416 159q-152 160 -152 433.5t149 425.5q149 155 420 155h9zM780 790q-39 72 -128 72t-129 -72 t-40 -221.5t40 -224t129 -74.5t128 74t39 224t-39 222z" />
<glyph unicode="&#xf3;" horiz-adv-x="1305" d="M999 1569v-21q-68 -55 -212 -157t-220 -150h-260v29q155 165 195 212t69 87h428zM664 1153q159 0 286 -71t197 -203t70 -300v-10q0 -278 -150 -433.5t-413 -155.5t-416 159q-152 160 -152 433.5t149 425.5q149 155 420 155h9zM780 790q-39 72 -128 72t-129 -72 t-40 -221.5t40 -224t129 -74.5t128 74t39 224t-39 222z" />
<glyph unicode="&#xf4;" horiz-adv-x="1305" d="M1107 1241h-254q-84 48 -201 150q-123 -105 -194 -150h-258v29q69 64 146 154t112 145h393q97 -140 256 -299v-29zM664 1153q159 0 286 -71t197 -203t70 -300v-10q0 -278 -150 -433.5t-413 -155.5t-416 159q-152 160 -152 433.5t149 425.5q149 155 420 155h9zM780 790 q-39 72 -128 72t-129 -72t-40 -221.5t40 -224t129 -74.5t128 74t39 224t-39 222z" />
<glyph unicode="&#xf5;" horiz-adv-x="1305" d="M828 1239q-63 0 -180 48t-164 48q-54 0 -72 -98h-180q11 175 72 258.5t180 83.5q50 0 168 -48t168 -48q54 0 72 98h182q-11 -167 -74 -254.5t-172 -87.5zM664 1153q159 0 286 -71t197 -203t70 -300v-10q0 -278 -150 -433.5t-413 -155.5t-416 159q-152 160 -152 433.5 t149 425.5q149 155 420 155h9zM780 790q-39 72 -128 72t-129 -72t-40 -221.5t40 -224t129 -74.5t128 74t39 224t-39 222z" />
<glyph unicode="&#xf6;" horiz-adv-x="1305" d="M411 1571q79 0 125.5 -42.5t46.5 -114.5t-46.5 -114.5t-125.5 -42.5t-124.5 41t-45.5 115t45.5 116t124.5 42zM765.5 1529.5q45.5 41.5 125.5 41.5t127 -43t47 -114.5t-47 -114t-127 -42.5t-125.5 41.5t-45.5 115.5t45.5 115.5zM664 1153q159 0 286 -71t197 -203t70 -300 v-10q0 -278 -150 -433.5t-413 -155.5t-416 159q-152 160 -152 433.5t149 425.5q149 155 420 155h9zM780 790q-39 72 -128 72t-129 -72t-40 -221.5t40 -224t129 -74.5t128 74t39 224t-39 222z" />
<glyph unicode="&#xf7;" horiz-adv-x="1159" d="M461.5 1238q39.5 44 115.5 44t117 -43.5t41 -124.5t-43 -126.5t-114.5 -45.5t-113.5 44.5t-42 126t39.5 125.5zM1085 588h-1013v268h1013v-268zM461.5 458q39.5 44 115.5 44t117 -43.5t41 -124.5t-43 -126.5t-114.5 -45.5t-113.5 44.5t-42 126t39.5 125.5z" />
<glyph unicode="&#xf8;" horiz-adv-x="1362" d="M1090 1016q184 -157 184 -442t-156.5 -439.5t-439.5 -154.5q-127 0 -229 34l-84 -131l-170 107l79 123q-188 158 -188 456q0 277 157 430.5t441 153.5q124 0 234 -39l71 111l168 -105zM680 883q-114 0 -166.5 -74.5t-52.5 -239.5q0 -99 12 -147l289 448q-35 13 -82 13z M682 250q115 0 166 73.5t51 245.5q0 88 -10 131l-283 -442q29 -8 76 -8z" />
<glyph unicode="&#xf9;" horiz-adv-x="1372" d="M340 1569h430q53 -71 203 -233l59 -66v-29h-260q-69 43 -196 132.5t-236 174.5v21zM528 -20q-188 0 -291.5 109t-103.5 306v738h391v-619q0 -113 32 -169t103 -56q101 0 144 79t43 269v496h391v-1133h-295l-49 141h-23q-49 -78 -136.5 -119.5t-205.5 -41.5z" />
<glyph unicode="&#xfa;" horiz-adv-x="1372" d="M1032 1569v-21q-68 -55 -212 -157t-220 -150h-260v29q154 165 194.5 212t69.5 87h428zM528 -20q-188 0 -291.5 109t-103.5 306v738h391v-619q0 -113 32 -169t103 -56q101 0 144 79t43 269v496h391v-1133h-295l-49 141h-23q-49 -78 -136.5 -119.5t-205.5 -41.5z" />
<glyph unicode="&#xfb;" horiz-adv-x="1372" d="M1140 1241h-254q-84 48 -201 150q-123 -105 -194 -150h-258v29q69 64 146 154t112 145h393q97 -140 256 -299v-29zM528 -20q-188 0 -291.5 109t-103.5 306v738h391v-619q0 -113 32 -169t103 -56q101 0 144 79t43 269v496h391v-1133h-295l-49 141h-23 q-49 -78 -136.5 -119.5t-205.5 -41.5z" />
<glyph unicode="&#xfc;" horiz-adv-x="1372" d="M444 1571q79 0 125.5 -42.5t46.5 -114.5t-46.5 -114.5t-125.5 -42.5t-124.5 41t-45.5 115t45.5 116t124.5 42zM798.5 1529.5q45.5 41.5 125.5 41.5t127 -43t47 -114.5t-47 -114t-127 -42.5t-125.5 41.5t-45.5 115.5t45.5 115.5zM528 -20q-188 0 -291.5 109t-103.5 306 v738h391v-619q0 -113 32 -169t103 -56q101 0 144 79t43 269v496h391v-1133h-295l-49 141h-23q-49 -78 -136.5 -119.5t-205.5 -41.5z" />
<glyph unicode="&#xfd;" horiz-adv-x="1249" d="M971 1569v-21q-68 -55 -212 -157t-220 -150h-260v29q155 165 195 212t69 87h428zM262 -492q-75 0 -160 17v307q53 -12 112 -12q110 0 168 77q29 37 62 119l-446 1117h412l192 -650q15 -56 19 -123h8q7 68 24 121l197 652h399l-448 -1205q-86 -230 -211.5 -325t-327.5 -95 z" />
<glyph unicode="&#xfe;" horiz-adv-x="1317" d="M526 1556v-344q0 -106 -18 -225h18q43 78 122.5 122t178.5 44q186 0 294 -155t108 -427.5t-112 -431.5t-304 -159q-173 0 -287 129h-14l7 -60l7 -92v-449h-391v2048h391zM526 571q0 -145 39 -210.5t120 -65.5t113.5 68t32.5 208.5t-34 207.5t-115.5 67t-117 -59.5 t-38.5 -186.5v-29z" />
<glyph unicode="&#x131;" horiz-adv-x="666" d="M528 0h-391v1133h391v-1133z" />
<glyph unicode="&#x152;" horiz-adv-x="1960" d="M1862 0h-844q-33 -8 -109 -14t-135 -6q-318 0 -494 199.5t-176 557t175 553t497 195.5q67 0 143.5 -7t106.5 -16h836v-317h-473v-230h436v-317h-436v-276h473v-322zM778 1161q-125 0 -191.5 -109.5t-66.5 -317t65 -316.5t191 -109q141 0 217 43v760q-71 49 -215 49z" />
<glyph unicode="&#x153;" horiz-adv-x="2007" d="M1434 -20q-237 0 -383 137q-152 -137 -406 -137t-406.5 159t-152.5 433t149.5 427.5t419.5 153.5q227 0 375 -127q154 127 391.5 127t368.5 -137t131 -383v-172h-696q4 -91 74.5 -147t185.5 -56q194 0 364 86v-281q-90 -46 -184.5 -64.5t-230.5 -18.5zM1407 887 q-162 0 -176 -180h340q-2 81 -48 130.5t-116 49.5zM780 790q-39 72 -127.5 72t-128 -72.5t-39.5 -222t39 -223.5t128 -74t128 74t39 224t-39 222z" />
<glyph unicode="&#x160;" horiz-adv-x="1182" d="M1085 1907v-29q-165 -165 -256 -299h-393q-83 127 -258 299v29h258q71 -45 194 -150q117 102 201 150h254zM325 333.5q122 -32.5 215.5 -32.5t136 29.5t42.5 79.5q0 29 -16 51.5t-53 46.5q-44 26 -190 92t-218 127q-142 120 -142 324.5t146.5 318t404.5 113.5 q227 0 463 -105l-121 -305q-204 94 -354 94q-74 0 -110.5 -26t-36.5 -68.5t43 -75.5t236 -121t268 -185t75 -240t-69.5 -248.5t-200 -164t-289.5 -58.5t-258 20.5t-207 71.5v352q113 -58 235 -90.5z" />
<glyph unicode="&#x161;" horiz-adv-x="1092" d="M1004 1569v-29q-165 -165 -256 -299h-393q-83 127 -258 299v29h258q71 -45 194 -150q117 102 201 150h254zM514 264q127 0 127 58q0 30 -35 54q-40 25 -207 91q-154 63 -217 144t-63 208q0 159 122.5 246.5t333.5 87.5t426 -96l-106 -252q-79 36 -166 60t-141 24 q-96 0 -96 -47q0 -30 34 -49q34 -22 193 -84q117 -48 176.5 -95t87 -111t27.5 -155q0 -181 -123.5 -274.5t-356.5 -93.5q-129 0 -221.5 14t-187.5 49v313q92 -40 201 -66t192 -26z" />
<glyph unicode="&#x178;" horiz-adv-x="1360" d="M438 1915q79 0 125.5 -42.5t46.5 -114.5t-46.5 -114.5t-125.5 -42.5t-124.5 41t-45.5 115t45.5 116t124.5 42zM792.5 1873.5q45.5 41.5 125.5 41.5t127 -43t47 -114.5t-47 -114t-127 -42.5t-125.5 41.5t-45.5 115.5t45.5 115.5zM879 0h-398v559l-481 903h430l250 -542 l252 542h428l-481 -891v-571z" />
<glyph unicode="&#x17d;" horiz-adv-x="1251" d="M1091 1907v-29q-165 -165 -256 -299h-393q-83 127 -258 299v29h258q71 -45 194 -150q117 102 201 150h254zM1200 319v-319h-1139v244l633 899h-618v319h1108v-243l-633 -900h649z" />
<glyph unicode="&#x17e;" horiz-adv-x="1038" d="M984 1569v-29q-165 -165 -256 -299h-393q-83 127 -258 299v29h258q71 -45 194 -150q117 102 201 150h254zM987 299v-299h-938v223l469 611h-442v299h889v-242l-449 -592h471z" />
<glyph unicode="&#x192;" horiz-adv-x="1137" d="M352 1165q0 213 87 307.5t286 94.5q165 0 326 -54l-77 -258q-76 25 -134 25t-81.5 -33t-23.5 -110v-4h255v-293h-255v-924q0 -197 -99 -302.5t-282 -105.5q-38 0 -105 8t-110 21v301q61 -18 111 -18q94 0 94 143v877h-149v192l157 96v37z" />
<glyph unicode="&#x2c6;" horiz-adv-x="1237" d="M1071 1241h-254q-84 48 -201 150q-123 -105 -194 -150h-258v29q69 64 146 154t112 145h393q97 -140 256 -299v-29z" />
<glyph unicode="&#x2c7;" horiz-adv-x="1237" d="M1071 1569v-29q-165 -165 -256 -299h-393q-83 127 -258 299v29h258q71 -45 194 -150q117 102 201 150h254z" />
<glyph unicode="&#x2d8;" horiz-adv-x="1225" d="M899.5 1340.5q-108.5 -99.5 -292.5 -99.5t-286.5 95t-111.5 276h211q20 -79 57.5 -105t125.5 -26t132.5 31t63.5 100h219q-10 -172 -118.5 -271.5z" />
<glyph unicode="&#x2d9;" horiz-adv-x="666" d="M176.5 1546.5q49.5 42.5 157 42.5t158.5 -43.5t51 -130.5q0 -172 -208 -172t-208 172q0 89 49.5 131.5z" />
<glyph unicode="&#x2da;" horiz-adv-x="1120" d="M364.5 1674q71.5 69 191 69t196.5 -70.5t77 -182.5t-76 -182.5t-196.5 -70.5t-192 68.5t-71.5 184t71.5 184.5zM557 1573q-36 0 -60 -23t-24 -61t21.5 -61t60 -23t62.5 24t24 61t-24 60t-60 23z" />
<glyph unicode="&#x2db;" horiz-adv-x="434" d="M248 -199q0 -67 74.5 -67t121.5 22v-221q-82 -27 -174 -27q-122 0 -199 64.5t-77 167.5q0 70 41 132.5t133 127.5h213q-78 -72 -105.5 -116.5t-27.5 -82.5z" />
<glyph unicode="&#x2dc;" horiz-adv-x="1225" d="M772 1239q-63 0 -180 48t-164 48q-54 0 -72 -98h-180q11 175 72 258.5t180 83.5q50 0 168 -48t168 -48q54 0 72 98h182q-11 -167 -74 -254.5t-172 -87.5z" />
<glyph unicode="&#x2dd;" horiz-adv-x="1198" d="M655 1569v-21q-24 -39 -126.5 -123t-247.5 -184h-203v29l49 67q115 157 158 232h370zM1120 1569v-21q-25 -41 -137 -131t-240 -176h-202v29l49 67q115 154 158 232h372z" />
<glyph unicode="&#x3bc;" horiz-adv-x="1376" d="M1241 0h-293l-53 152h-16q-33 -85 -89 -128.5t-117.5 -43.5t-95.5 19.5t-63 63.5q12 -90 12 -235v-320h-391v1625h391v-615q0 -117 34.5 -173t111.5 -56q93 0 134.5 82.5t41.5 265.5v496h393v-1133z" />
<glyph unicode="&#x5b0;" d="M562 -124.5q25 23.5 68.5 23.5t68.5 -23.5t25 -63.5t-25 -63t-68.5 -23t-68.5 23t-25 63t25 63.5zM562 -365.5q25 23.5 68.5 23.5t68.5 -23.5t25 -63t-25 -63t-68.5 -23.5t-68.5 23t-25 63t25 63.5z" />
<glyph unicode="&#x5b1;" d="M378 -116q43 0 68.5 -23.5t25.5 -63.5t-25.5 -63t-68.5 -23t-68 23t-25 63t25 63.5t68 23.5zM606 -139q25 23 68.5 23t69.5 -24t26 -63.5t-26 -62.5t-70 -23t-68.5 22.5t-24.5 63.5t25 64zM872 -139.5q25 23.5 68.5 23.5t68.5 -23.5t25 -63.5t-25 -63t-68.5 -23t-68.5 23 t-25 63t25 63.5zM530 -357q43 0 68 -23.5t25 -63t-25 -63t-68.5 -23.5t-68 23t-24.5 63.5t25 63.5t68 23zM872 -380.5q25 23.5 68.5 23.5t68.5 -23.5t25 -63t-25 -63t-68.5 -23.5t-68.5 23t-25 63t25 63.5z" />
<glyph unicode="&#x5b2;" d="M896 -116q43 0 68 -23.5t25 -63.5t-25 -63t-68.5 -23t-68 23t-24.5 63.5t25 63.5t68 23zM718 -259h-367v117h367v-117zM896 -357q43 0 68 -23.5t25 -63t-25 -63t-68.5 -23.5t-68 23t-24.5 63.5t25 63.5t68 23z" />
<glyph unicode="&#x5b3;" d="M831 -139.5q25 23.5 68.5 23.5t68.5 -23.5t25 -63.5t-25 -63t-68.5 -23t-68.5 23t-25 63t25 63.5zM718 -259h-128v-202h-111v202h-128v117h367v-117zM831 -380.5q25 23.5 68.5 23.5t68.5 -23.5t25 -63t-25 -63t-68.5 -23.5t-68.5 23t-25 63t25 63.5z" />
<glyph unicode="&#x5b4;" d="M559 -134q25 23 68.5 23t69.5 -24t26 -63t-26 -62.5t-70 -23.5t-68.5 22.5t-24.5 63.5t25 64z" />
<glyph unicode="&#x5b5;" d="M480 -92q43 0 68 -23.5t25 -63t-25 -63t-68.5 -23.5t-68 23t-24.5 63.5t25 63.5t68 23zM707 -115q25 23 69 23t70 -24t26 -63t-26 -62.5t-70 -23.5t-69 22.5t-25 63.5t25 64z" />
<glyph unicode="&#x5b6;" d="M480 -116q43 0 68 -23.5t25 -63.5t-25 -63t-68.5 -23t-68 23t-24.5 63.5t25 63.5t68 23zM707 -139q25 23 69 23t70 -24t26 -63.5t-26 -62.5t-70 -23t-69 22.5t-25 63.5t25 64zM563 -380.5q25 23.5 68.5 23.5t68.5 -23.5t25 -63t-25 -63t-68.5 -23.5t-68.5 23t-25 63 t25 63.5z" />
<glyph unicode="&#x5b7;" d="M825 -234h-393v116h393v-116z" />
<glyph unicode="&#x5b8;" d="M820 -255h-136v-202h-111v202h-135v117h382v-117z" />
<glyph unicode="&#x5b9;" d="M560 1560q25 23 68.5 23t69.5 -24t26 -63t-26 -62.5t-70 -23.5t-68.5 22.5t-24.5 63.5t25 64z" />
<glyph unicode="&#x5ba;" d="M560 1560q25 23 68.5 23t69.5 -24t26 -63t-26 -62.5t-70 -23.5t-68.5 22.5t-24.5 63.5t25 64z" />
<glyph unicode="&#x5bb;" d="M487 -127q43 0 68 -23.5t25 -63.5t-25 -63t-68.5 -23t-68 23t-24.5 63.5t25 63.5t68 23zM600 -326.5q25 23.5 68.5 23.5t68.5 -23.5t25 -63t-25 -63t-68.5 -23.5t-68.5 23t-25 63t25 63.5zM785 -501q25 23 68.5 23t69.5 -24t26 -63t-26 -62.5t-70 -23.5t-68.5 22.5 t-24.5 63.5t25 64z" />
<glyph unicode="&#x5bc;" d="M559 720q25 23 68.5 23t69.5 -24t26 -63t-26 -62.5t-70 -23.5t-68.5 22.5t-24.5 63.5t25 64z" />
<glyph unicode="&#x5bd;" horiz-adv-x="1256" d="M679 -509h-103v352h103v-352z" />
<glyph unicode="&#x5be;" horiz-adv-x="651" d="M608 982h-565v313h565v-313z" />
<glyph unicode="&#x5c1;" d="M507 1560q25 23 68.5 23t69.5 -24t26 -63t-26 -62.5t-70 -23.5t-68.5 22.5t-24.5 63.5t25 64z" />
<glyph unicode="&#x5c2;" d="M560 1560q25 23 68.5 23t69.5 -24t26 -63t-26 -62.5t-70 -23.5t-68.5 22.5t-24.5 63.5t25 64z" />
<glyph unicode="&#x5c7;" d="M521 -210h-161v-234h-93v234h-156v100h410v-100z" />
<glyph unicode="&#x5d0;" horiz-adv-x="1378" d="M1258 1295v-471q0 -62 -7.5 -107.5t-30.5 -98.5q-45 -110 -200 -168q191 -302 286 -450h-433l-351 584q-19 -30 -19 -110v-474h-387v471q0 60 8 107t32 100q48 110 202 168q-127 199 -286 449h432l258 -438l92 -144q16 35 16 108v474h388z" />
<glyph unicode="&#x5d1;" horiz-adv-x="1196" d="M479 1315q182 0 287 -33q117 -36 166 -94q58 -66 76 -150q19 -83 19 -199v-540h141v-299h-1086v299h557v523q0 193 -197 193q-124 0 -298 -17l-62 -6v297q121 26 397 26z" />
<glyph unicode="&#x5d2;" horiz-adv-x="984" d="M282 2q-53 -22 -105.5 -22t-126.5 20l33 343q68 -15 128 -15q110 0 180.5 53.5t70.5 167.5v335q0 125 -83 125q-89 0 -173 -22l-26 -7v303q126 32 242 32t193 -21.5t122 -56t71 -90.5t34 -112t8 -133v-902h-291l-61 182h-17q-12 -25 -46 -65t-67 -66.5t-86 -48.5z" />
<glyph unicode="&#x5d3;" horiz-adv-x="1135" d="M1108 1295v-274q-98 -38 -133.5 -86.5t-35.5 -155.5v-779h-388v786q0 131 93 210h-621v299h1085z" />
<glyph unicode="&#x5d4;" horiz-adv-x="1349" d="M672 1315q240 0 354 -62q59 -32 98 -72.5t59.5 -99.5t28 -118.5t7.5 -140.5v-822h-389v822q0 193 -196 193q-176 0 -416 -26l-83 -9v297q238 38 537 38zM523 0h-387v755h387v-755z" />
<glyph unicode="&#x5d5;" horiz-adv-x="658" d="M523 0h-388v1295h388v-1295z" />
<glyph unicode="&#x5d6;" horiz-adv-x="731" d="M708 1295v-279q-51 -40 -88.5 -102.5t-57 -117.5t-27.5 -120t-9.5 -108t-1.5 -123v-445h-388v445q0 373 213 551h-257v299h616z" />
<glyph unicode="&#x5d7;" horiz-adv-x="1349" d="M135 0v1277q238 38 537 38q239 0 354 -59q60 -30 98.5 -69t59 -98t28 -120.5t7.5 -146.5v-822h-389v822q0 193 -196 193q-52 0 -111 -3v-1012h-388z" />
<glyph unicode="&#x5d8;" horiz-adv-x="1351" d="M654 1302q84 13 160.5 13t149.5 -18.5t132 -63t95 -119.5q74 -153 74 -449q0 -325 -151 -504.5t-429 -179.5q-116 0 -217.5 46.5t-176.5 132.5t-118 216.5t-43 288.5v630h389v-630q0 -374 175 -374q91 0 136 88.5t45 283t-39 270t-134 75.5l-48 -5v299z" />
<glyph unicode="&#x5d9;" horiz-adv-x="635" d="M127 419v876h388v-604l-215 -272h-173z" />
<glyph unicode="&#x5da;" horiz-adv-x="1108" d="M431 1315q124 0 220.5 -33t156.5 -87.5t99 -132.5q70 -139 70 -333v-1221h-387v1223q0 52 -4.5 89t-19 76t-40.5 63q-57 54 -179 54q-130 0 -275 -13l-49 -5v304q170 16 408 16z" />
<glyph unicode="&#x5db;" horiz-adv-x="1104" d="M474 1315q124 0 220.5 -33t157 -87.5t99.5 -132.5q70 -139 70 -333v-164q0 -96 -12.5 -174.5t-48.5 -157.5t-95 -132.5t-158.5 -87t-232.5 -33.5q-263 0 -408 27v303q155 -18 371 -18q108 0 152 72.5t44 200.5v166q0 52 -4.5 89t-19 76t-39.5 63q-58 54 -180 54 q-130 0 -276 -13l-48 -5v304q170 16 408 16z" />
<glyph unicode="&#x5dc;" horiz-adv-x="1131" d="M438 1295h652v-237l-170 -577l1 1l-109 -482h-382l113 495l149 501h-642v555h388v-256z" />
<glyph unicode="&#x5dd;" horiz-adv-x="1349" d="M135 0v1277q238 37 535 37t423 -99t126 -332v-883h-1084zM830 299v596q0 67 -49.5 93t-146.5 26l-111 -4v-711h307z" />
<glyph unicode="&#x5de;" horiz-adv-x="1425" d="M445 1295q35 -59 45 -132h14q17 20 57 49.5t78.5 49.5t100 36.5t144 16.5t158 -29.5t123.5 -79.5t77 -126q53 -135 53 -351v-729h-626v299h231v430q0 105 -11.5 153t-28.5 71q-38 54 -121 54q-35 0 -68 -13.5t-55 -33.5q-48 -43 -65 -72l-8 -14l-75 -874h-382l75 818 q7 72 7 133q0 170 -63 344h340z" />
<glyph unicode="&#x5df;" horiz-adv-x="619" d="M484 821v-1294h-389v1294q0 124 -16.5 242.5t-33.5 174.5l-17 57h389q8 -22 19 -63t29.5 -165t18.5 -246z" />
<glyph unicode="&#x5e0;" horiz-adv-x="905" d="M129 1299q80 16 203 16t198 -23t121 -61.5t74.5 -95.5t39 -117.5t10.5 -134.5v-478q0 -94 -11.5 -195.5t-22.5 -155.5l-11 -54h-658v299h303q12 49 12 106v478q0 52 -22.5 88.5t-73.5 36.5q-65 0 -136 -10l-26 -3v304z" />
<glyph unicode="&#x5e1;" horiz-adv-x="1308" d="M99 1292q283 23 553.5 23t420 -175.5t149.5 -491t-151.5 -491.5t-420.5 -176t-416.5 174t-147.5 492q0 214 120 346l-107 -7v306zM479 647q0 -184 41.5 -271t133 -87t133.5 87.5t42 271.5t-42 275t-133 91l-78 -4q-97 -141 -97 -363z" />
<glyph unicode="&#x5e2;" horiz-adv-x="1314" d="M1228 1295l-51 -570q-15 -173 -58 -283q-141 -366 -622 -442l-447 -70v308l311 47l-274 1010h387l157 -562l65 -324q75 87 94 298l52 588h386z" />
<glyph unicode="&#x5e3;" horiz-adv-x="1309" d="M43 862q0 91 35 173.5t90.5 134t131.5 84.5q139 61 311 61q200 0 331 -87q49 -32 94 -84t76 -120q67 -150 67 -376v-1140h-393v1140q0 204 -27 265q-29 66 -79 83q-29 10 -72.5 10t-79 -13.5t-52.5 -30.5t-27 -40q-14 -33 -14 -69t14 -67t36 -47q36 -26 73 -35l82 -17 l-62 -276l-97 3q-197 5 -313 106q-125 109 -125 342z" />
<glyph unicode="&#x5e4;" horiz-adv-x="1308" d="M86 848q0 105 35 187.5t90.5 134t132.5 84.5q138 61 310 61q200 0 332 -87q48 -32 93 -84t75 -120q68 -150 68 -376q0 -162 -31 -282.5t-81.5 -193t-126.5 -117t-154 -60t-189.5 -15.5t-225 7t-164.5 15l-52 7v293q228 -22 456 -22q101 0 139 91q24 56 28.5 113.5 t5.5 87.5t1 76t-1 76t-4.5 71.5t-10 68t-19.5 56.5t-31 46q-43 40 -99 40t-91.5 -13.5t-52.5 -30.5t-27 -40q-14 -33 -14 -69t14 -67t36 -47q36 -26 73 -35l82 -17l-62 -279l-97 6q-438 28 -438 434z" />
<glyph unicode="&#x5e5;" horiz-adv-x="1213" d="M1127 1295v-471q0 -215 -125 -320q-46 -38 -122.5 -62t-175.5 -24h-31v-910h-388v1074l-285 713h418l217 -603h9q51 0 73.5 34.5t22.5 112.5v456h387z" />
<glyph unicode="&#x5e6;" horiz-adv-x="1307" d="M1228 0h-1153v299h526l143 -9l-237 296l-462 709h428l310 -499q30 81 41 201l25 298h386l-24 -261q-5 -50 -8.5 -81t-18.5 -96.5t-37 -115.5t-64 -113.5t-98 -115.5l243 -292v-220z" />
<glyph unicode="&#x5e7;" horiz-adv-x="1388" d="M1040 61v-61h-385v61q0 77 25.5 218.5t63.5 243.5l178 473h-787v299h1213v-224l-210 -556q-98 -259 -98 -454zM523 -492h-388v1272h388v-1272z" />
<glyph unicode="&#x5e8;" horiz-adv-x="1126" d="M51 1294q204 21 359.5 21t244 -15t148 -47t98 -72t59 -99.5t28 -119t7.5 -140.5v-822h-388v822q0 193 -196 193q-148 0 -360 -22v301z" />
<glyph unicode="&#x5e9;" horiz-adv-x="1616" d="M763 0h-568l-109 1295h377l50 -602q12 0 28 7t27.5 20t23 41.5t14.5 67.5l40 466h374l-39 -461q-6 -81 -28 -146.5t-51.5 -108t-69.5 -74.5t-76 -48t-78 -26q-60 -14 -126 -14h-16l12 -118h260q125 0 207.5 98.5t101.5 315.5l50 582h377l-53 -591q-15 -171 -63 -298 t-113.5 -203.5t-158.5 -123t-185.5 -63t-207.5 -16.5z" />
<glyph unicode="&#x5ea;" horiz-adv-x="1437" d="M1176 1220q41 -33 66 -69.5t40 -88.5q25 -87 25 -224v-838h-389v821q0 193 -196 193q-50 0 -70 -1v-618q0 -74 -10.5 -133t-39 -113t-74.5 -90q-100 -78 -295 -78q-44 0 -90 10.5t-69 20.5l-24 11v279q75 -14 127 -14t69.5 24.5t17.5 82.5v595l-138 -11v298 q335 37 632 37t418 -94z" />
<glyph unicode="&#x5f3;" horiz-adv-x="512" d="M477 1295l15 -22q-92 -366 -177 -561h-278q68 320 98 583h342z" />
<glyph unicode="&#x5f4;" horiz-adv-x="1022" d="M477 1295l15 -22q-92 -366 -177 -561h-278q68 320 98 583h342zM986 1295l15 -22q-92 -368 -176 -561h-278q68 320 98 583h341z" />
<glyph unicode="&#x2013;" horiz-adv-x="1024" d="M950 414h-876v276h876v-276z" />
<glyph unicode="&#x2014;" horiz-adv-x="2048" d="M1970 414h-1896v276h1896v-276z" />
<glyph unicode="&#x2018;" horiz-adv-x="512" d="M197 1460h278q-65 -303 -98 -583h-342l-15 22q100 391 177 561z" />
<glyph unicode="&#x2019;" horiz-adv-x="512" d="M477 1460l15 -22q-92 -366 -177 -561h-278q68 320 98 583h342z" />
<glyph unicode="&#x201a;" horiz-adv-x="633" d="M498 299l14 -23q-99 -386 -176 -561h-279q25 122 57 306t42 278h342z" />
<glyph unicode="&#x201c;" horiz-adv-x="1022" d="M197 1460h278q-65 -303 -98 -583h-342l-15 22q100 391 177 561zM707 1460h277q-65 -307 -97 -583h-342l-15 22q100 391 177 561z" />
<glyph unicode="&#x201d;" horiz-adv-x="1022" d="M477 1460l15 -22q-92 -366 -177 -561h-278q68 320 98 583h342zM986 1460l15 -22q-92 -368 -176 -561h-278q68 320 98 583h341z" />
<glyph unicode="&#x201e;" horiz-adv-x="1143" d="M498 299l14 -23q-99 -386 -176 -561h-279q25 122 57 306t42 278h342zM1008 299l14 -23q-99 -386 -176 -561h-279q75 361 99 584h342z" />
<glyph unicode="&#x2020;" horiz-adv-x="1051" d="M621 1139l319 30v-286l-319 30l59 -913h-330l60 913l-299 -30v286l299 -30l-60 417h330z" />
<glyph unicode="&#x2021;" horiz-adv-x="1073" d="M643 1182l320 30v-286l-320 30l49 -170l-49 -186l320 31v-287l-320 31l59 -375h-327l59 375l-323 -31v287l323 -31l-51 186l51 170l-323 -30v286l323 -30l-59 374h327z" />
<glyph unicode="&#x2022;" horiz-adv-x="803" d="M158.5 1014.5q84.5 93.5 242 93.5t243 -94.5t85.5 -265.5t-87 -266t-242 -95t-240.5 93.5t-85.5 267t84.5 267z" />
<glyph unicode="&#x2026;" horiz-adv-x="1776" d="M140.5 308.5q54.5 49.5 156 49.5t154.5 -50t53 -141t-54.5 -141.5t-152.5 -50.5t-154.5 50.5t-56.5 142t54.5 141zM732.5 308.5q54.5 49.5 156 49.5t154.5 -50t53 -141t-54.5 -141.5t-152.5 -50.5t-154.5 50.5t-56.5 142t54.5 141zM1324.5 308.5q54.5 49.5 156 49.5 t154.5 -50t53 -141t-54.5 -141.5t-152.5 -50.5t-154.5 50.5t-56.5 142t54.5 141z" />
<glyph unicode="&#x2030;" horiz-adv-x="2757" d="M134.5 1364q97.5 119 273.5 119t279.5 -122.5t103.5 -338.5t-99 -336.5t-277 -120.5t-278 124t-100 340t97.5 335zM709 0h-297l811 1462h297zM414 1239q-39 0 -57.5 -52t-18.5 -165q0 -217 76 -217q39 0 57 51t18 165.5t-18 166t-57 51.5zM1246.5 782q97.5 119 273.5 119 t279.5 -122.5t103.5 -338t-99.5 -336t-277 -120.5t-277.5 124t-100 339.5t97.5 334.5zM2063.5 782q97.5 119 274 119t279.5 -122.5t103 -339t-100 -336t-275.5 -119.5t-277.5 124q-101 125 -101 340t97.5 334zM1526 657q-39 0 -57.5 -52t-18.5 -165q0 -217 76 -217t76 217 t-76 217zM2343 657q-76 0 -76 -217t76 -217t76 217t-76 217z" />
<glyph unicode="&#x2039;" horiz-adv-x="819" d="M743 922l-272 -347l272 -348l-280 -147l-389 481v27l389 483z" />
<glyph unicode="&#x203a;" horiz-adv-x="819" d="M745 588v-27l-387 -481l-282 147l272 348l-272 347l282 149z" />
<glyph unicode="&#x20aa;" horiz-adv-x="2082" d="M135 1295h641q304 0 464 -91q52 -30 87.5 -61.5t61 -74t40 -80.5t22.5 -87q13 -80 13 -175v-217h-335v199q0 130 -33 188q-19 32 -42 51.5t-61 30.5q-62 18 -177 18h-295v-996h-386v1295zM1962 1295v-500q0 -136 -26.5 -251t-88.5 -217.5t-158 -173.5t-242.5 -112 t-333.5 -41h-461v833h346v-534h115q270 0 375 131q53 68 75.5 160t22.5 223v482h376z" />
<glyph unicode="&#x20ac;" horiz-adv-x="1200" d="M55 963h148q51 254 212 387t414 133q181 0 349 -76l-119 -299q-121 51 -230 51t-170 -52t-73 -144h338v-205h-353l-2 -29v-14l2 -43h287v-205h-264q33 -164 260 -164q146 0 266 55v-323q-101 -55 -291 -55q-252 0 -411.5 126t-206.5 361h-156v205h129l-2 21v22l2 43h-129 v205z" />
<glyph unicode="&#x2122;" horiz-adv-x="1577" d="M573 1286h-170v-545h-196v545h-170v176h536v-176zM1495 741h-195v400q0 71 7 110h-9l-151 -510h-165l-142 510h-9q7 -52 7 -110v-400h-193v721h287l137 -480l150 480h276v-721z" />
<glyph unicode="&#x25fc;" horiz-adv-x="1135" d="M0 1135h1135v-1135h-1135v1135z" />
<glyph unicode="&#xfb2a;" horiz-adv-x="1616" d="M1398 1539q25 23 68.5 23t69.5 -24t26 -63t-26 -62.5t-70 -23.5t-68.5 22.5t-24.5 63.5t25 64zM763 0h-568l-109 1295h377l50 -602q12 0 28 7t27.5 20t23 41.5t14.5 67.5l40 466h374l-39 -461q-6 -81 -28 -146.5t-51.5 -108t-69.5 -74.5t-76 -48t-78 -26 q-60 -14 -126 -14h-16l12 -118h260q125 0 207.5 98.5t101.5 315.5l50 582h377l-53 -591q-15 -171 -63 -298t-113.5 -203.5t-158.5 -123t-185.5 -63t-207.5 -16.5z" />
<glyph unicode="&#xfb2b;" horiz-adv-x="1616" d="M58 1539q25 23 68.5 23t69.5 -24t26 -63t-26 -62.5t-70 -23.5t-68.5 22.5t-24.5 63.5t25 64zM763 0h-568l-109 1295h377l50 -602q12 0 28 7t27.5 20t23 41.5t14.5 67.5l40 466h374l-39 -461q-6 -81 -28 -146.5t-51.5 -108t-69.5 -74.5t-76 -48t-78 -26q-60 -14 -126 -14 h-16l12 -118h260q125 0 207.5 98.5t101.5 315.5l50 582h377l-53 -591q-15 -171 -63 -298t-113.5 -203.5t-158.5 -123t-185.5 -63t-207.5 -16.5z" />
<glyph unicode="&#xfb2c;" horiz-adv-x="1616" d="M1390 1539q25 23 68.5 23t69.5 -24t26 -63t-26 -62.5t-70 -23.5t-68.5 22.5t-24.5 63.5t25 64zM763 0h-568l-109 1295h377l50 -602q12 0 28 7t27.5 20t23 41.5t14.5 67.5l40 466h374l-39 -461q-6 -81 -28 -146.5t-51.5 -108t-69.5 -74.5t-76 -48t-78 -26 q-60 -14 -126 -14h-16l12 -118h260q125 0 207.5 98.5t101.5 315.5l50 582h377l-53 -591q-15 -171 -63 -298t-113.5 -203.5t-158.5 -123t-185.5 -63t-207.5 -16.5zM915 499q30 0 48 -16.5t18 -43t-18 -42.5t-48.5 -16t-47 15.5t-16.5 43t17 43.5t47 16z" />
<glyph unicode="&#xfb2d;" horiz-adv-x="1616" d="M94 1530q25 23 68.5 23t69.5 -24t26 -63t-26 -62.5t-70 -23.5t-68.5 22.5t-24.5 63.5t25 64zM763 0h-568l-109 1295h377l50 -602q12 0 28 7t27.5 20t23 41.5t14.5 67.5l40 466h374l-39 -461q-6 -81 -28 -146.5t-51.5 -108t-69.5 -74.5t-76 -48t-78 -26q-60 -14 -126 -14 h-16l12 -118h260q125 0 207.5 98.5t101.5 315.5l50 582h377l-53 -591q-15 -171 -63 -298t-113.5 -203.5t-158.5 -123t-185.5 -63t-207.5 -16.5zM915 499q30 0 48 -16.5t18 -43t-18 -42.5t-48.5 -16t-47 15.5t-16.5 43t17 43.5t47 16z" />
<glyph unicode="&#xfb2e;" horiz-adv-x="1378" d="M1258 1295v-471q0 -62 -7.5 -107.5t-30.5 -98.5q-45 -110 -200 -168q191 -302 286 -450h-433l-351 584q-19 -30 -19 -110v-474h-387v471q0 60 8 107t32 100q48 110 202 168q-127 199 -286 449h432l258 -438l92 -144q16 35 16 108v474h388zM886 -242h-393v116h393v-116z " />
<glyph unicode="&#xfb2f;" horiz-adv-x="1378" d="M1258 1295v-471q0 -62 -7.5 -107.5t-30.5 -98.5q-45 -110 -200 -168q191 -302 286 -450h-433l-351 584q-19 -30 -19 -110v-474h-387v471q0 60 8 107t32 100q48 110 202 168q-127 199 -286 449h432l258 -438l92 -144q16 35 16 108v474h388zM881 -243h-136v-202h-111v202 h-135v117h382v-117z" />
<glyph unicode="&#xfb30;" horiz-adv-x="1378" d="M1258 1295v-471q0 -62 -7.5 -107.5t-30.5 -98.5q-45 -110 -200 -168q191 -302 286 -450h-433l-351 584q-19 -30 -19 -110v-474h-387v471q0 60 8 107t32 100q48 110 202 168q-127 199 -286 449h432l258 -438l92 -144q16 35 16 108v474h388zM569 225q25 23 68.5 23 t69.5 -24t26 -63t-26 -62.5t-70 -23.5t-68.5 22.5t-24.5 63.5t25 64z" />
<glyph unicode="&#xfb31;" horiz-adv-x="1196" d="M479 1315q182 0 287 -33q117 -36 166 -94q58 -66 76 -150q19 -83 19 -199v-540h141v-299h-1086v299h557v523q0 193 -197 193q-124 0 -298 -17l-62 -6v297q121 26 397 26zM311 737q25 23 68.5 23t69.5 -24t26 -63t-26 -62.5t-70 -23.5t-68.5 22.5t-24.5 63.5t25 64z" />
<glyph unicode="&#xfb32;" horiz-adv-x="984" d="M282 2q-53 -22 -105.5 -22t-126.5 20l33 343q68 -15 128 -15q110 0 180.5 53.5t70.5 167.5v335q0 125 -83 125q-89 0 -173 -22l-26 -7v303q126 32 242 32t193 -21.5t122 -56t71 -90.5t34 -112t8 -133v-902h-291l-61 182h-17q-12 -25 -46 -65t-67 -66.5t-86 -48.5z M211 737q25 23 68.5 23t69.5 -24t26 -63t-26 -62.5t-70 -23.5t-68.5 22.5t-24.5 63.5t25 64z" />
<glyph unicode="&#xfb33;" horiz-adv-x="1135" d="M1108 1295v-274q-98 -38 -133.5 -86.5t-35.5 -155.5v-779h-388v786q0 131 93 210h-621v299h1085zM207 737q25 23 68.5 23t69.5 -24t26 -63t-26 -62.5t-70 -23.5t-68.5 22.5t-24.5 63.5t25 64z" />
<glyph unicode="&#xfb34;" horiz-adv-x="1349" d="M672 1315q240 0 354 -62q59 -32 98 -72.5t59.5 -99.5t28 -118.5t7.5 -140.5v-822h-389v822q0 193 -196 193q-176 0 -416 -26l-83 -9v297q238 38 537 38zM606 737q25 23 68.5 23t69.5 -24t26 -63t-26 -62.5t-70 -23.5t-68.5 22.5t-24.5 63.5t25 64zM136 0v755h387v-755 h-387z" />
<glyph unicode="&#xfb35;" horiz-adv-x="658" d="M135 0v1295h388v-1295h-388zM-69 737q25 23 68.5 23t69.5 -24t26 -63t-26 -62.5t-70 -23.5t-68.5 22.5t-24.5 63.5t25 64z" />
<glyph unicode="&#xfb36;" horiz-adv-x="731" d="M708 1295v-279q-51 -40 -88.5 -102.5t-57 -117.5t-27.5 -120t-9.5 -108t-1.5 -123v-445h-388v445q0 373 213 551h-257v299h616zM-65 737q25 23 68.5 23t69.5 -24t26 -63t-26 -62.5t-70 -23.5t-68.5 22.5t-24.5 63.5t25 64z" />
<glyph unicode="&#xfb38;" horiz-adv-x="1351" d="M654 1302q84 13 160.5 13t149.5 -18.5t132 -63t95 -119.5q74 -153 74 -449q0 -325 -151 -504.5t-429 -179.5q-116 0 -217.5 46.5t-176.5 132.5t-118 216.5t-43 288.5v630h389v-630q0 -374 175 -374q91 0 136 88.5t45 283t-39 270t-134 75.5l-48 -5v299zM623 737 q25 23 68.5 23t69.5 -24t26 -63t-26 -62.5t-70 -23.5t-68.5 22.5t-24.5 63.5t25 64z" />
<glyph unicode="&#xfb39;" horiz-adv-x="635" d="M127 419v876h388v-604l-215 -272h-173zM-81 989q25 23 68.5 23t69.5 -24t26 -63t-26 -62.5t-70 -23.5t-68.5 22.5t-24.5 63.5t25 64z" />
<glyph unicode="&#xfb3a;" horiz-adv-x="1108" d="M431 1315q124 0 220.5 -33t156.5 -87.5t99 -132.5q70 -139 70 -333v-1221h-387v1223q0 52 -4.5 89t-19 76t-40.5 63q-57 54 -179 54q-130 0 -275 -13l-49 -5v304q170 16 408 16zM211 737q25 23 68.5 23t69.5 -24t26 -63t-26 -62.5t-70 -23.5t-68.5 22.5t-24.5 63.5t25 64 z" />
<glyph unicode="&#xfb3b;" horiz-adv-x="1104" d="M474 1315q124 0 220.5 -33t157 -87.5t99.5 -132.5q70 -139 70 -333v-164q0 -96 -12.5 -174.5t-48.5 -157.5t-95 -132.5t-158.5 -87t-232.5 -33.5q-263 0 -408 27v303q155 -18 371 -18q108 0 152 72.5t44 200.5v166q0 52 -4.5 89t-19 76t-39.5 63q-58 54 -180 54 q-130 0 -276 -13l-48 -5v304q170 16 408 16zM283 737q25 23 68.5 23t69.5 -24t26 -63t-26 -62.5t-70 -23.5t-68.5 22.5t-24.5 63.5t25 64z" />
<glyph unicode="&#xfb3c;" horiz-adv-x="1131" d="M1090 1295v-237l-170 -577l1 1l-109 -482h-382l113 495l149 501h-642v555h388v-256h652zM237 737q25 23 68.5 23t69.5 -24t26 -63t-26 -62.5t-70 -23.5t-68.5 22.5t-24.5 63.5t25 64z" />
<glyph unicode="&#xfb3e;" horiz-adv-x="1425" d="M445 1295q35 -59 45 -132h14q17 20 57 49.5t78.5 49.5t100 36.5t144 16.5t158 -29.5t123.5 -79.5t77 -126q53 -135 53 -351v-729h-626v299h231v430q0 105 -11.5 153t-28.5 71q-38 54 -121 54q-35 0 -68 -13.5t-55 -33.5q-48 -43 -65 -72l-8 -14l-75 -874h-382l75 818 q7 72 7 133q0 170 -63 344h340zM644 737q25 23 68.5 23t69.5 -24t26 -63t-26 -62.5t-70 -23.5t-68.5 22.5t-24.5 63.5t25 64z" />
<glyph unicode="&#xfb40;" horiz-adv-x="905" d="M129 1299q80 16 203 16t198 -23t121 -61.5t74.5 -95.5t39 -117.5t10.5 -134.5v-478q0 -94 -11.5 -195.5t-22.5 -155.5l-11 -54h-658v299h303q12 49 12 106v478q0 52 -22.5 88.5t-73.5 36.5q-65 0 -136 -10l-26 -3v304zM129 737q25 23 68.5 23t69.5 -24t26 -63t-26 -62.5 t-70 -23.5t-68.5 22.5t-24.5 63.5t25 64z" />
<glyph unicode="&#xfb41;" horiz-adv-x="1308" d="M99 1292q283 23 553.5 23t420 -175.5t149.5 -491t-151.5 -491.5t-420.5 -176t-416.5 174t-147.5 492q0 214 120 346l-107 -7v306zM479 647q0 -184 41.5 -271t133 -87t133.5 87.5t42 271.5t-42 275t-133 91l-78 -4q-97 -141 -97 -363zM585 737q25 23 68.5 23t69.5 -24 t26 -63t-26 -62.5t-70 -23.5t-68.5 22.5t-24.5 63.5t25 64z" />
<glyph unicode="&#xfb43;" horiz-adv-x="1309" d="M43 862q0 91 35 173.5t90.5 134t131.5 84.5q139 61 311 61q200 0 331 -87q49 -32 94 -84t76 -120q67 -150 67 -376v-1140h-393v1140q0 204 -27 265q-29 66 -79 83q-29 10 -72.5 10t-79 -13.5t-52.5 -30.5t-27 -40q-14 -33 -14 -69t14 -67t36 -47q36 -26 73 -35l82 -17 l-62 -276l-97 3q-197 5 -313 106q-125 109 -125 342zM531 931q25 23 68.5 23t69.5 -24t26 -63t-26 -62.5t-70 -23.5t-68.5 22.5t-24.5 63.5t25 64z" />
<glyph unicode="&#xfb44;" horiz-adv-x="1308" d="M86 848q0 105 35 187.5t90.5 134t132.5 84.5q138 61 310 61q200 0 332 -87q48 -32 93 -84t75 -120q68 -150 68 -376q0 -162 -31 -282.5t-81.5 -193t-126.5 -117t-154 -60t-189.5 -15.5t-225 7t-164.5 15l-52 7v293q228 -22 456 -22q101 0 139 91q24 56 28.5 113.5 t5.5 87.5t1 76t-1 76t-4.5 71.5t-10 68t-19.5 56.5t-31 46q-43 40 -99 40t-91.5 -13.5t-52.5 -30.5t-27 -40q-14 -33 -14 -69t14 -67t36 -47q36 -26 73 -35l82 -17l-62 -279l-97 6q-438 28 -438 434zM585 910q25 23 68.5 23t69.5 -24t26 -63t-26 -62.5t-70 -23.5t-68.5 22.5 t-24.5 63.5t25 64z" />
<glyph unicode="&#xfb46;" horiz-adv-x="1307" d="M1228 0h-1153v299h526l143 -9l-237 296l-462 709h428l310 -499q30 81 41 201l25 298h386l-24 -261q-5 -50 -8.5 -81t-18.5 -96.5t-37 -115.5t-64 -113.5t-98 -115.5l243 -292v-220zM195 592q25 23 68.5 23t69.5 -24t26 -63t-26 -62.5t-70 -23.5t-68.5 22.5t-24.5 63.5 t25 64z" />
<glyph unicode="&#xfb47;" horiz-adv-x="1388" d="M1040 61v-61h-385v61q0 77 25.5 218.5t63.5 243.5l178 473h-787v299h1213v-224l-210 -556q-98 -259 -98 -454zM135 -492v1272h388v-1272h-388zM579 737q25 23 68.5 23t69.5 -24t26 -63t-26 -62.5t-70 -23.5t-68.5 22.5t-24.5 63.5t25 64z" />
<glyph unicode="&#xfb48;" horiz-adv-x="1126" d="M51 1294q204 21 359.5 21t244 -15t148 -47t98 -72t59 -99.5t28 -119t7.5 -140.5v-822h-388v822q0 193 -196 193q-148 0 -360 -22v301zM291 737q25 23 68.5 23t69.5 -24t26 -63t-26 -62.5t-70 -23.5t-68.5 22.5t-24.5 63.5t25 64z" />
<glyph unicode="&#xfb49;" horiz-adv-x="1616" d="M763 0h-568l-109 1295h377l50 -602q12 0 28 7t27.5 20t23 41.5t14.5 67.5l40 466h374l-39 -461q-6 -81 -28 -146.5t-51.5 -108t-69.5 -74.5t-76 -48t-78 -26q-60 -14 -126 -14h-16l12 -118h260q125 0 207.5 98.5t101.5 315.5l50 582h377l-53 -591q-15 -171 -63 -298 t-113.5 -203.5t-158.5 -123t-185.5 -63t-207.5 -16.5zM915 499q30 0 48 -16.5t18 -43t-18 -42.5t-48.5 -16t-47 15.5t-16.5 43t17 43.5t47 16z" />
<glyph unicode="&#xfb4a;" horiz-adv-x="1437" d="M1176 1220q41 -33 66 -69.5t40 -88.5q25 -87 25 -224v-838h-389v821q0 193 -196 193q-50 0 -70 -1v-618q0 -74 -10.5 -133t-39 -113t-74.5 -90q-100 -78 -295 -78q-44 0 -90 10.5t-69 20.5l-24 11v279q75 -14 127 -14t69.5 24.5t17.5 82.5v595l-138 -11v298 q335 37 632 37t418 -94zM711 727q25 23 68.5 23t69.5 -24t26 -63t-26 -62.5t-70 -23.5t-68.5 22.5t-24.5 63.5t25 64z" />
<glyph unicode="&#xfb4b;" horiz-adv-x="658" d="M154 1539q25 23 68.5 23t69.5 -24t26 -63t-26 -62.5t-70 -23.5t-68.5 22.5t-24.5 63.5t25 64zM135 0v1295h388v-1295h-388z" />
<glyph horiz-adv-x="666" d="M528 0h-391v1133h391v-1133z" />
<glyph />
</font>
</defs>
</svg>
