<?xml version="1.0" standalone="no"?>
<!DOCTYPE svg PUBLIC "-//W3C//DTD SVG 1.1//EN" "http://www.w3.org/Graphics/SVG/1.1/DTD/svg11.dtd" >
<svg xmlns="http://www.w3.org/2000/svg">
<metadata></metadata>
<defs>
<font id="open_sans_hebrewitalic" horiz-adv-x="1128" >
<font-face units-per-em="2048" ascent="1638" descent="-410" />
<missing-glyph horiz-adv-x="532" />
<glyph unicode="&#xd;" horiz-adv-x="1044" />
<glyph unicode=" "  horiz-adv-x="532" />
<glyph unicode="&#x09;" horiz-adv-x="532" />
<glyph unicode="&#xa0;" horiz-adv-x="532" />
<glyph unicode="!" horiz-adv-x="530" d="M281 403h-109q68 423 176 1059h207zM43 78q0 76 39.5 120t107.5 44q46 0 73.5 -28t27.5 -89t-39 -107.5t-105 -46.5q-49 0 -76.5 28t-27.5 79z" />
<glyph unicode="&#x22;" horiz-adv-x="791" d="M332 934h-107l72 528h188zM680 934h-107l72 528h189z" />
<glyph unicode="#" horiz-adv-x="1323" d="M938 559h285l-13 -129h-309l-125 -430h-139l129 430h-303l-127 -430h-133l121 430h-261l13 129h284l101 340h-277l13 127h301l123 436h139l-125 -436h305l127 436h133l-125 -436h264l-12 -127h-291zM803 559l96 340h-303l-96 -340h303z" />
<glyph unicode="$" d="M942 492q0 -162 -113 -263t-309 -123l-49 -225h-133l49 223q-195 14 -315 72v154q87 -43 177 -64.5t165 -21.5l98 452q-138 49 -201 123.5t-63 188.5q0 159 108.5 255.5t298.5 112.5l39 176h133l-39 -178q160 -12 283 -76l-63 -135q-122 63 -248 72l-94 -440 q151 -56 212 -125q64 -70 64 -178zM401 1010q0 -55 35.5 -98.5t106.5 -69.5l84 393q-109 -11 -167.5 -69t-58.5 -156zM782 479q0 56 -34 97.5t-113 72.5l-86 -399q107 14 170 75t63 154z" />
<glyph unicode="%" horiz-adv-x="1624" d="M791 1206q0 -105 -31.5 -235t-83.5 -220q-107 -186 -277 -186q-110 0 -170.5 76t-60.5 230t50 307q102 305 337 305q115 0 175.5 -71.5t60.5 -205.5zM383 0h-152l1086 1462h151zM543 1358q-67 0 -120 -64t-84.5 -188.5t-31.5 -241.5q0 -172 107 -172q104 0 167 153 q32 75 51 174t19 173q0 166 -108 166zM1532 621q0 -105 -32 -236t-82 -218q-107 -187 -277 -187q-111 0 -171.5 75t-60.5 229.5t50 307.5q102 305 337 305q116 0 176 -71t60 -205zM1284 772q-67 0 -120 -65t-84 -188t-31 -240q0 -173 106 -173q64 0 116 64t87 199t35 237 q0 166 -109 166z" />
<glyph unicode="&#x26;" horiz-adv-x="1372" d="M436 -20q-168 0 -269 96t-101 266q0 148 90.5 257.5t302.5 211.5q-103 164 -103 309q0 164 106.5 264.5t280.5 100.5q150 0 237 -79t87 -212q0 -79 -41 -154q-28 -51 -111 -118q-48 -38 -119.5 -77t-129.5 -69l278 -389q126 108 199 295h168q-101 -236 -283 -412 l203 -270h-201l-117 166q-117 -98 -227.5 -142t-249.5 -44zM737 1348q-105 0 -163 -60t-58 -175t82 -230q134 68 191 110q114 86 114 189q0 78 -43 122t-123 44zM229 354q0 -106 66 -171q67 -64 176 -64q87 0 168.5 33.5t194.5 123.5l-306 433q-133 -70 -184 -116 q-115 -100 -115 -239z" />
<glyph unicode="'" horiz-adv-x="444" d="M332 934h-107l72 528h188z" />
<glyph unicode="(" horiz-adv-x="584" d="M229 -324q-147 266 -147 600.5t120 623t384 562.5h157q-497 -545 -497 -1188q0 -338 114 -598h-131z" />
<glyph unicode=")" horiz-adv-x="584" d="M354 1462q146 -269 146 -603t-122 -624t-382 -559h-156q496 550 496 1188q0 340 -113 598h131z" />
<glyph unicode="*" horiz-adv-x="1130" d="M731 1145l422 18l-8 -157l-393 47l180 -383l-166 -52l-113 406l-258 -344l-116 121l309 284l-373 109l55 154l371 -185l41 400l172 -35z" />
<glyph unicode="+" d="M127 651v142h389v391h141v-391h390v-142h-390v-387h-141v387h-389z" />
<glyph unicode="," horiz-adv-x="492" d="M291 238l8 -23q-111 -232 -270 -479h-129q127 289 204 502h187z" />
<glyph unicode="-" horiz-adv-x="639" d="M90 627h479l-34 -158h-480z" />
<glyph unicode="." horiz-adv-x="518" d="M43 74q0 78 40.5 123t111.5 45q44 0 70 -26.5t26 -88.5t-40.5 -109t-107.5 -47q-47 0 -73.5 26.5t-26.5 76.5z" />
<glyph unicode="/" horiz-adv-x="717" d="M80 0h-174l813 1462h174z" />
<glyph unicode="0" d="M1092 1014q0 -296 -78.5 -539t-213.5 -369t-313.5 -126t-272 127.5t-93.5 384t81.5 500t215.5 368.5t309 125q365 0 365 -471zM717 1341q-113 0 -209 -116t-155.5 -324t-59.5 -422q0 -356 211 -356q114 0 209 114t151 328.5t56 452.5q0 323 -203 323z" />
<glyph unicode="1" d="M416 0l196 913q56 248 88 359q-48 -51 -139 -111l-178 -110l-80 127l449 284h149l-313 -1462h-172z" />
<glyph unicode="2" d="M903 1124q0 99 -60 157t-163 58q-78 0 -151.5 -29t-161.5 -96l-82 115q190 154 413 154q175 0 278 -88.5t103 -243.5q0 -112 -39.5 -204.5t-132 -197.5t-293.5 -280l-352 -307v-8h678l-29 -154h-899l31 147l465 420q196 178 256 245q108 119 131 227q8 40 8 85z" />
<glyph unicode="3" d="M698 1483q180 0 277.5 -87t97.5 -239.5t-101 -262.5q-101 -108 -280 -140v-9q124 -22 195 -106t71 -209v-6q0 -197 -141 -320.5t-381 -123.5h-4q-211 0 -385 79v164q93 -49 199.5 -75.5t189.5 -26.5q161 0 251.5 79t90.5 213.5t-78 202.5t-221 68h-131l31 143h139 q164 0 274 87q109 87 109 227q0 92 -58 146t-148 54t-167 -27.5t-174 -92.5l-80 118q195 144 424 144z" />
<glyph unicode="4" d="M834 334l-72 -334h-164l74 334h-656l29 158l834 978h196l-207 -983h232l-33 -153h-233zM705 487l78 373q30 145 116 445h-8q-15 -27 -66 -96t-73 -97l-533 -625h486z" />
<glyph unicode="5" d="M541 758q-97 0 -236 -37l-74 57l197 684h668l-33 -153h-522l-127 -439q89 23 184 23q182 0 289 -105q108 -104 108 -274t-73 -291q-145 -243 -512 -243q-194 0 -330 79v164q163 -102 344.5 -102t288 96t106.5 268q0 125 -74 199t-204 74z" />
<glyph unicode="6" d="M688 918q154 0 244 -98t90 -265.5t-66.5 -300.5t-180.5 -203.5t-261 -70.5q-183 0 -282 115.5t-99 327t61 418t163 349.5q206 293 573 293q109 0 184 -23l-35 -145q-66 22 -170 22q-213 0 -357 -149.5t-212 -442.5h8q61 81 149 127t191 46zM541 121q133 0 223 118t90 286 v7q0 248 -221 248q-133 0 -238 -105q-48 -46 -72 -103.5t-24 -155.5q0 -138 61 -216.5t172 -78.5h9z" />
<glyph unicode="7" d="M942 1313h-719l31 149h891l-27 -139l-764 -1323h-180z" />
<glyph unicode="8" d="M1110 1163q0 -129 -78 -225t-266 -176q128 -78 180.5 -165.5t52.5 -201.5v-5q0 -183 -133 -296.5t-349 -113.5h-15q-189 0 -298 98q-108 99 -108 268q0 148 95.5 256.5t295.5 183.5q-94 68 -135 143t-41 173v10q0 158 121 265.5t299 107.5h10q173 0 271 -86.5t98 -235.5z M882.5 1288q-57.5 53 -163 53t-173 -65.5t-67.5 -175.5q0 -82 39.5 -144t126.5 -116q160 60 228 131q67 71 67 167.5t-57.5 149.5zM608 700q-186 -60 -262 -143t-76 -196.5t69 -176.5t181 -63q139 0 222 74t83 196q0 100 -52 174.5t-165 134.5z" />
<glyph unicode="9" d="M537 545q-170 0 -261.5 99t-91.5 288q0 153 64.5 281t179.5 198q116 72 260 72q181 0 280 -115.5t99 -333.5q0 -192 -55.5 -404t-148.5 -363q-177 -287 -523 -287q-137 0 -242 34v158q135 -47 246 -47q202 0 327 141t189 441h-10q-52 -76 -133.5 -119t-179.5 -43z M682 1341q-149 0 -240.5 -112.5t-91.5 -290.5q0 -125 55 -190.5t162 -65.5q157 0 248 110q46 54 66 115t20 150q0 130 -59 207t-160 77z" />
<glyph unicode=":" horiz-adv-x="518" d="M203 956q0 78 40 123t111 45q97 0 97 -104q0 -74 -41 -120t-107 -46q-46 0 -73 27t-27 75zM43 74q0 78 40.5 123t111.5 45q44 0 70 -26.5t26 -88.5t-40.5 -109t-107.5 -47q-47 0 -73.5 26.5t-26.5 76.5z" />
<glyph unicode=";" horiz-adv-x="518" d="M203 956q0 78 40 123t111 45q97 0 97 -104q0 -74 -41 -120t-107 -46q-46 0 -73 27t-27 75zM291 238l8 -23q-111 -232 -270 -479h-129q127 289 204 502h187z" />
<glyph unicode="&#x3c;" d="M121 664v98l919 479v-149l-747 -371l747 -328v-151z" />
<glyph unicode="=" d="M127 997h920v-139h-920v139zM127 586h920v-142h-920v142z" />
<glyph unicode="&#x3e;" d="M866 721l-745 371v149l919 -479v-98l-919 -422v151z" />
<glyph unicode="?" horiz-adv-x="874" d="M752 1141q0 93 -51.5 143.5t-147.5 50.5q-119 0 -295 -82l-61 129q90 50 190.5 75.5t183.5 25.5q167 0 259 -84t92 -238q0 -123 -66 -227q-64 -103 -208.5 -210t-185.5 -161q-45 -57 -67 -160h-135q22 131 72.5 214t172 179t161.5 139q86 96 86 206zM158 74q0 78 40 123 t111 45q45 0 71 -26.5t26 -78.5q0 -73 -41 -119.5t-107 -46.5q-47 0 -73.5 26.5t-26.5 76.5z" />
<glyph unicode="@" horiz-adv-x="1735" d="M786 -186q-313 0 -494 184.5t-181 505.5q0 262 127 486.5t343.5 347t485.5 122.5h10q276 0 439 -166t163 -435v-7q0 -180 -55 -324.5t-155 -226.5t-222 -82q-197 0 -213 184h-8q-111 -184 -291 -184q-115 0 -180.5 75.5t-65.5 220.5t67.5 272t188.5 200q121 72 261 72 q66 0 127.5 -12t150.5 -48q-16 -60 -50.5 -190.5t-56.5 -211t-22 -130.5v-8q0 -117 102 -117q78 0 141 66.5t100.5 182.5t37.5 245q0 240 -128 367.5t-363 127.5t-413 -106.5t-277 -295.5t-99 -417q0 -270 143 -419q144 -148 410 -148q195 0 420 86v-127q-219 -90 -443 -90z M985 938q-95 0 -174 -55t-125.5 -152t-46.5 -201t32.5 -146t98.5 -42q186 0 272 315l70 258q-64 23 -127 23z" />
<glyph unicode="A" horiz-adv-x="1137" d="M317 465l-245 -465h-189l799 1462h174l184 -1462h-170l-57 465h-496zM795 621l-35 299q-25 183 -29 350q-36 -85 -80.5 -173.5t-249.5 -475.5h394z" />
<glyph unicode="B" horiz-adv-x="1225" d="M770 1462q432 0 432 -336q0 -140 -87 -237.5t-245 -126.5v-10q114 -32 176 -110t62 -189q0 -211 -152 -333q-152 -120 -407 -120h-463l309 1462h375zM682 836q157 0 249.5 73t92.5 199q0 105 -67 156t-209 51h-211l-103 -479h248zM553 145q180 0 277.5 80.5t97.5 227.5 q0 116 -74.5 177.5t-214.5 61.5h-236l-116 -547h266z" />
<glyph unicode="C" horiz-adv-x="1198" d="M942 1331q-175 0 -312 -97.5t-217.5 -285.5t-80.5 -407q0 -187 97 -298.5t269 -111.5q139 0 322 57v-149q-85 -31 -165 -45t-187 -14q-242 0 -380 149.5t-138 409t106 484t283 342.5q178 118 403 118q196 0 348 -80l-69 -141q-138 69 -279 69z" />
<glyph unicode="D" horiz-adv-x="1364" d="M737 1462q276 0 419.5 -149.5t143.5 -435.5q0 -261 -105 -461t-300 -308t-457 -108h-352l309 1462h342zM449 147q203 0 355 91t234 257.5t82 382.5t-103 326.5t-302 110.5h-178l-250 -1168h162z" />
<glyph unicode="E" horiz-adv-x="1047" d="M86 0l309 1462h735l-32 -153h-566l-98 -469h527l-29 -152h-529l-114 -536h565l-33 -152h-735z" />
<glyph unicode="F" horiz-adv-x="967" d="M86 0l309 1462h735l-30 -153h-568l-110 -533h528l-32 -153h-529l-131 -623h-172z" />
<glyph unicode="G" horiz-adv-x="1386" d="M707 -20q-264 0 -411 144q-146 146 -146 408.5t101 484.5q103 222 282.5 344t403 122t421.5 -84l-66 -152q-192 84 -360 84t-307 -101.5t-216 -284t-77 -406.5q0 -189 102 -299q103 -109 287 -109q153 0 260 39l96 444h-289l33 152h459l-154 -711q-216 -75 -419 -75z" />
<glyph unicode="H" horiz-adv-x="1389" d="M918 0l143 688h-660l-145 -688h-170l309 1462h170l-131 -622h660l133 622h168l-310 -1462h-167z" />
<glyph unicode="I" horiz-adv-x="559" d="M397 1462h168l-311 -1462h-168z" />
<glyph unicode="J" horiz-adv-x="547" d="M-166 -385q-106 0 -153 25l6 147q71 -20 145 -20q100 0 165.5 62.5t90.5 182.5l307 1450h170l-309 -1468q-79 -379 -422 -379z" />
<glyph unicode="K" horiz-adv-x="1141" d="M1034 0h-186q-43 109 -142.5 350t-150.5 371l-174 -131l-125 -590h-170l309 1462h170l-151 -710l700 710h209l-639 -637z" />
<glyph unicode="L" horiz-adv-x="971" d="M395 1462h170l-276 -1308h565l-33 -154h-735z" />
<glyph unicode="M" horiz-adv-x="1714" d="M510 1296h-8q-9 -85 -30.5 -210t-35.5 -187l-190 -899h-162l309 1462h244l149 -1204h9l659 1204h266l-303 -1462h-174l193 905q68 320 94 393h-6l-717 -1298h-131z" />
<glyph unicode="N" horiz-adv-x="1438" d="M958 0l-460 1223h-6q-31 -216 -74 -418l-172 -805h-162l309 1462h180l459 -1220h6q30 224 72 405l174 815h164l-309 -1462h-181z" />
<glyph unicode="O" horiz-adv-x="1475" d="M887 1485q245 0 384.5 -154.5t139.5 -424t-88.5 -481.5t-251.5 -329q-164 -116 -379 -116q-256 0 -399 149q-143 151 -143 418t96 484t263 335.5t378 118.5zM400 951q-68 -181 -68 -388.5t97.5 -319.5t258.5 -112t280 96.5t190 278.5t71 393.5t-94 322.5t-255.5 111 t-285.5 -100.5t-194 -281.5z" />
<glyph unicode="P" horiz-adv-x="1159" d="M725 1462q214 0 324 -94.5t110 -282.5q0 -249 -164.5 -379.5t-480.5 -130.5h-135l-123 -575h-170l309 1462h330zM543 721q216 0 328 91t112 267q0 124 -68.5 180t-214.5 56h-163l-127 -594h133z" />
<glyph unicode="Q" horiz-adv-x="1475" d="M692 -20q-256 0 -399 149q-143 151 -143 418t96 484t263 335.5t378 118.5q245 0 384.5 -154.5t139.5 -423.5q0 -334 -139.5 -576.5t-374.5 -320.5l274 -358h-219l-227 330l-17 -2h-16zM1162 511q67 180 67 390t-94 321t-255.5 111t-285.5 -100.5t-194 -281.5 q-68 -181 -68 -388.5t97.5 -319.5t261 -112t284.5 100t187 280z" />
<glyph unicode="R" horiz-adv-x="1165" d="M715 1462q446 0 446 -366q0 -348 -368 -449l239 -647h-186l-209 608h-252l-129 -608h-170l309 1462h320zM584 754q193 0 297 85t104 244q0 121 -67.5 175.5t-219.5 54.5h-166l-116 -559h168z" />
<glyph unicode="S" horiz-adv-x="1028" d="M694 1331q-134 0 -215.5 -69.5t-81.5 -188.5q0 -53 16.5 -92t53 -72.5t143.5 -95.5q147 -89 198 -138q105 -102 105 -251q0 -211 -140.5 -327.5t-395.5 -116.5q-205 0 -338 63v170q162 -84 332.5 -84t265 76t94.5 207q0 78 -52.5 137.5t-200.5 143t-205.5 168 t-57.5 200.5q0 187 131.5 304.5t347.5 117.5q190 0 365 -84l-66 -150q-66 38 -147.5 60t-151.5 22z" />
<glyph unicode="T" horiz-adv-x="1020" d="M315 0l277 1311h-406l33 151h985l-30 -151h-408l-279 -1311h-172z" />
<glyph unicode="U" horiz-adv-x="1384" d="M1004.5 106q-142.5 -126 -379 -126t-349 102.5t-112.5 300.5q0 81 24 201l189 878h170l-191 -891q-22 -104 -22 -188q0 -119 74.5 -185.5t216.5 -66.5q173 0 268.5 88t138.5 289l205 954h170l-205 -966q-55 -264 -197.5 -390z" />
<glyph unicode="V" horiz-adv-x="1122" d="M475 197h4q63 147 162 338l479 927h191l-781 -1462h-180l-162 1462h170l97 -930q20 -202 20 -335z" />
<glyph unicode="W" horiz-adv-x="1745" d="M1030 1247h-6q-29 -81 -63 -159t-502 -1088h-174l-62 1462h170l31 -901l2 -88q0 -105 -10 -258h6q89 245 156 383l405 864h178l43 -860q8 -144 8 -217v-87v-83h9q73 218 131 354l387 893h182l-664 -1462h-170l-49 965q-8 146 -8 282z" />
<glyph unicode="X" horiz-adv-x="1063" d="M776 0l-213 641l-481 -641h-186l596 776l-263 686h172l203 -563l443 563h186l-555 -694l278 -768h-180z" />
<glyph unicode="Y" horiz-adv-x="1030" d="M1026 1462h193l-627 -921l-113 -541h-172l119 549l-238 913h170l179 -747z" />
<glyph unicode="Z" horiz-adv-x="1087" d="M-16 0l28 137l924 1170h-655l32 155h858l-26 -139l-924 -1169h697l-33 -154h-901z" />
<glyph unicode="[" horiz-adv-x="586" d="M-16 -324l381 1786h387l-31 -141h-227l-318 -1503h227l-32 -142h-387z" />
<glyph unicode="\" horiz-adv-x="717" d="M592 0h-154l-217 1462h154z" />
<glyph unicode="]" horiz-adv-x="586" d="M106 -182l320 1503h-227l30 141h389l-380 -1786h-388l31 142h225z" />
<glyph unicode="^" horiz-adv-x="1059" d="M651 1473h109l266 -920h-145l-201 747l-467 -747h-160z" />
<glyph unicode="_" horiz-adv-x="807" d="M-188 -324l30 140h811l-30 -140h-811z" />
<glyph unicode="`" horiz-adv-x="1135" d="M903 1241h-104q-63 63 -128.5 153t-95.5 154v21h181q44 -137 147 -303v-25z" />
<glyph unicode="a" horiz-adv-x="1157" d="M395 -20q-138 0 -217.5 98.5t-79.5 271.5q0 206 70.5 384.5t196 280t274.5 101.5q93 0 164.5 -49.5t111.5 -142.5h11l67 172h127l-233 -1096h-133l26 209h-8q-178 -229 -377 -229zM316.5 176.5q46.5 -57.5 137.5 -57.5t188 92q96 93 156 241t60 298q0 102 -55.5 163.5 t-153 61.5t-188.5 -86q-89 -86 -140 -233t-51 -310q0 -112 46.5 -169.5z" />
<glyph unicode="b" horiz-adv-x="1182" d="M782 1114q140 0 219.5 -98.5t79.5 -272.5q0 -209 -68 -386t-190.5 -277t-277.5 -100q-96 0 -170 50.5t-111 139.5h-10l-70 -170h-125l330 1556h168q-64 -304 -85 -401t-69 -270h9q181 229 370 229zM731 975q-95 0 -196 -95q-99 -95 -157.5 -238.5t-58.5 -295.5 q0 -110 55.5 -168.5t157.5 -58.5t187 81t138 230q52 149 52 318q0 227 -178 227z" />
<glyph unicode="c" horiz-adv-x="922" d="M506 -20q-194 0 -301 107t-107 303.5t73.5 366t204.5 264.5t294 95q138 0 268 -51l-47 -141q-120 51 -225 51t-199 -77q-93 -78 -145 -213t-52 -296q0 -128 66.5 -199t179 -71t266.5 67v-143q-124 -63 -276 -63z" />
<glyph unicode="d" horiz-adv-x="1182" d="M393 -20q-139 0 -217 98t-78 272q0 214 71.5 391t194 275t275.5 98q194 0 281 -190h10q17 156 45 274l78 358h166l-330 -1556h-139l22 209h-8q-100 -125 -188.5 -177t-182.5 -52zM449 119q93 0 194 93q100 94 158.5 240t58.5 296q0 111 -54 169t-155.5 58t-189.5 -83 q-87 -84 -139 -231.5t-52 -314.5q0 -227 179 -227z" />
<glyph unicode="e" horiz-adv-x="1010" d="M492 -20q-184 0 -289 109.5t-105 298.5t74.5 362.5t197.5 269.5t272.5 96t227.5 -65.5t78 -186.5q0 -180 -166 -282.5t-475 -102.5h-33l-4 -80q0 -134 62.5 -206t189.5 -72q63 0 129 18t166 66v-146q-99 -46 -168.5 -62.5t-156.5 -16.5zM311 618q228 0 349.5 59.5 t121.5 172.5q0 56 -38 89.5t-113 33.5q-103 0 -194 -94q-90 -95 -138 -261h12z" />
<glyph unicode="f" horiz-adv-x="641" d="M-104 -492q-70 0 -125 21v141q63 -22 112 -22q73 0 115 59t68 180l227 1082h-193l13 67l206 66l23 100q47 200 127 282q83 83 242 83q40 0 96 -11t92 -26l-43 -129q-78 29 -137 29q-88 0 -134.5 -48.5t-74.5 -177.5l-25 -108h238l-25 -127h-237l-232 -1098 q-39 -188 -119.5 -275.5t-213.5 -87.5z" />
<glyph unicode="g" horiz-adv-x="1026" d="M905 807q0 -191 -116.5 -304.5t-311.5 -113.5q-54 0 -84 8q-139 -52 -139 -131q0 -38 29 -52.5t100 -23.5l117 -14q182 -23 263 -88.5t81 -193.5q0 -184 -146 -285t-411 -101q-194 0 -304 74t-110 207q0 107 73 183.5t232 129.5q-78 41 -78 121q0 66 48.5 116t144.5 95 q-65 33 -104 96t-39 144q0 193 119 318q120 124 306 124q76 0 154 -20h371l-25 -107l-211 -24q41 -62 41 -158zM492 506q109 0 180 91t71 219v7q0 82 -44 125t-126 43h-7q-71 0 -130 -41.5t-91 -112t-32 -152.5v-5q0 -84 44.5 -129t125.5 -45h9zM99.5 -42.5 q-64.5 -62.5 -64.5 -147t66 -128.5t192 -44q183 0 285 63.5t102 179.5q0 63 -55 98.5t-183 49.5l-159 16q-119 -25 -183.5 -87.5z" />
<glyph unicode="h" horiz-adv-x="1182" d="M895 827q0 148 -147 148q-138 0 -255 -134.5t-165 -367.5l-101 -473h-168l330 1556h168q-11 -51 -33 -155t-36 -165q-36 -164 -85 -351h11q92 120 183.5 174.5t193.5 54.5q131 0 202.5 -72t71.5 -204q0 -60 -33.5 -221.5t-134.5 -616.5h-168l148 692q18 94 18 135z" />
<glyph unicode="i" horiz-adv-x="520" d="M365.5 1307q-25.5 25 -25.5 75t32 85.5t83 35.5q88 0 88 -90q0 -56 -33.5 -93.5t-76 -37.5t-68 25zM59 0l234 1096h168l-234 -1096h-168z" />
<glyph unicode="j" horiz-adv-x="520" d="M365.5 1307q-25.5 25 -25.5 75t32 85.5t83 35.5q86 0 86 -90q0 -56 -33.5 -93.5t-75 -37.5t-67 25zM-135 -492q-69 0 -123 21v141q60 -22 119 -22q125 0 168 205l264 1243h166l-266 -1258q-36 -171 -114.5 -250.5t-213.5 -79.5z" />
<glyph unicode="k" horiz-adv-x="999" d="M856 1096h201l-469 -467l295 -629h-187l-235 524l-152 -123l-82 -401h-170l330 1556h170l-129 -602q-57 -267 -102 -395h4z" />
<glyph unicode="l" horiz-adv-x="520" d="M57 0l332 1556h168l-332 -1556h-168z" />
<glyph unicode="m" horiz-adv-x="1786" d="M862 827q0 73 -32.5 110.5t-104.5 37.5q-130 0 -239 -135t-158 -365l-101 -475h-168l234 1096h139l-22 -203h10q163 223 352 223q111 0 173 -63.5t73 -182.5h8q169 246 379 246q127 0 196.5 -68.5t69.5 -197.5q0 -71 -22 -178l-144 -672h-170l148 692q20 106 20 146 q0 65 -35.5 101t-107.5 36h-2q-123 0 -233.5 -131t-153.5 -344l-107 -500h-168l148 692q18 94 18 135z" />
<glyph unicode="n" horiz-adv-x="1182" d="M897 836q0 66 -36.5 102.5t-112.5 36.5q-138 0 -255 -135t-165 -365l-101 -475h-168l234 1096h139l-22 -203h10q93 119 182.5 171t188.5 52q128 0 201 -70t73 -194q0 -77 -23 -180l-143 -672h-170l148 692q20 106 20 144z" />
<glyph unicode="o" horiz-adv-x="1149" d="M643 1110q190 0 300 -113t110 -305t-72 -359t-195 -258t-278 -91q-191 0 -300.5 112.5t-109.5 307t72.5 360.5t196.5 256t276 90zM816 897q-62 72 -169.5 72t-195.5 -74q-86 -74 -133.5 -206t-47.5 -292q0 -132 63.5 -203t182.5 -71h8q97 0 179.5 73t129 207.5 t46.5 300.5v7q0 115 -63 186z" />
<glyph unicode="p" horiz-adv-x="1182" d="M786 1114q136 0 215.5 -97.5t79.5 -273.5q0 -212 -69 -388.5t-191 -276.5q-122 -98 -276 -98q-96 0 -169.5 49.5t-113.5 140.5h-10l-4 -38q-2 -14 -10.5 -65.5t-114.5 -558.5h-166l336 1588h139l-26 -209h8q179 227 372 227zM731 975q-95 0 -196 -95 q-99 -95 -157.5 -238.5t-58.5 -295.5q0 -110 55.5 -168.5t157.5 -58.5t187 81t138 230q52 149 52 318q0 227 -178 227z" />
<glyph unicode="q" horiz-adv-x="1182" d="M397 -20q-141 0 -220 97t-79 273q0 212 72 391.5t195.5 277t275.5 97.5q94 0 165.5 -50.5t108.5 -141.5h13l67 172h125l-336 -1588h-166l101 480q9 47 57 221h-8q-94 -119 -184 -174t-187 -55zM449 119q92 0 190 92t158.5 236.5t60.5 300.5q0 106 -54.5 166.5t-154 60.5 t-187.5 -85q-87 -82 -139.5 -231t-52.5 -313q0 -227 179 -227z" />
<glyph unicode="r" horiz-adv-x="811" d="M752 1116q67 0 120 -14l-36 -150q-51 13 -105 13q-91 0 -170.5 -60t-139 -166.5t-87.5 -236.5l-107 -502h-168l234 1096h139l-22 -203h10q73 96 119 136q98 87 213 87z" />
<glyph unicode="s" horiz-adv-x="877" d="M506 973q-92 0 -145.5 -43t-53.5 -113q0 -55 35 -96q35 -39 145 -101.5t155 -104.5q93 -84 93 -204q0 -156 -111 -243.5t-311 -87.5q-169 0 -305 69v158q69 -41 150 -64.5t151 -23.5q123 0 188.5 48.5t65.5 129.5q0 56 -34.5 95.5t-151.5 107.5q-131 74 -184.5 144 t-53.5 165q0 138 100.5 222.5t268.5 84.5t328 -74l-54 -137l-56 25q-99 43 -220 43z" />
<glyph unicode="t" horiz-adv-x="664" d="M303 365q-18 -87 -18 -137.5t29 -80.5t82 -30t143 26v-129q-35 -14 -83 -24t-81 -10q-126 0 -192 60t-66 177q0 66 18 150l127 602h-172l14 73l185 78l125 228h98l-55 -252h274l-26 -127h-273z" />
<glyph unicode="u" horiz-adv-x="1182" d="M283 262q0 -143 147 -143h2q135 0 254 136.5t166 365.5l100 475h166l-231 -1096h-139l22 203h-12q-97 -124 -186 -173.5t-185 -49.5q-129 0 -201.5 70t-72.5 198q0 65 22 172l146 676h170l-150 -695q-18 -89 -18 -139z" />
<glyph unicode="v" horiz-adv-x="946" d="M354 121h6q135 290 179 371l325 604h178l-591 -1096h-228l-125 1096h168l64 -613q24 -258 24 -362z" />
<glyph unicode="w" horiz-adv-x="1468" d="M795 774v156h-9l-50 -118l-83 -189l-291 -623h-202l-43 1096h164l18 -594v-88q0 -139 -8 -269h6q43 116 137 322l295 629h182l37 -594q6 -168 6 -262v-53l-2 -42h6q33 99 91 237.5t315 713.5h178l-506 -1096h-205l-32 602q-4 84 -4 172z" />
<glyph unicode="x" horiz-adv-x="979" d="M121 0h-195l475 565l-239 531h170l174 -412l330 412h194l-455 -539l252 -557h-168l-192 434z" />
<glyph unicode="y" horiz-adv-x="946" d="M369 131h6q36 90 89.5 205.5t74.5 150.5l325 609h178l-696 -1282q-92 -171 -183.5 -238.5t-219.5 -67.5q-73 0 -140 21v135q63 -18 136.5 -18t132.5 48.5t116 151.5l76 136l-166 1114h168l74 -545q10 -63 19.5 -197t9.5 -223z" />
<glyph unicode="z" horiz-adv-x="909" d="M-29 0l23 117l694 854h-479l27 125h657l-29 -140l-680 -831h531l-25 -125h-719z" />
<glyph unicode="{" horiz-adv-x="715" d="M465 -324h-23q-145 0 -218.5 53.5t-73.5 170.5q0 50 13.5 112t24 107.5t15.5 67.5t13 57t10 47t6.5 36.5t3.5 26.5t0 17q0 143 -209 143l32 143q122 0 192 45t91 146l68 326q34 159 117 223.5t255 64.5h33l-31 -141q-105 0 -151.5 -36.5t-65.5 -123.5l-71 -321 q-27 -121 -89.5 -182.5t-168.5 -79.5v-5q151 -40 151 -213q0 -59 -18 -131l-47 -211q-15 -58 -15 -105t36.5 -71t119.5 -24v-142z" />
<glyph unicode="|" d="M680 1556v-2052h-139v2052h139z" />
<glyph unicode="}" horiz-adv-x="715" d="M285 1462q147 0 222 -54t75 -169q0 -48 -21 -141l-49 -219q-16 -65 -16 -111q0 -143 209 -143l-33 -144q-123 0 -192.5 -44.5t-90.5 -145.5l-67 -326q-36 -164 -119 -226.5t-264 -62.5h-13v142q114 0 166 35.5t72 123.5l72 322q25 116 87.5 179t170.5 81v6 q-150 42 -150 211q0 59 18 131l50 213q14 67 14 99q0 54 -41 78t-139 24l28 141h11z" />
<glyph unicode="~" d="M831 592q-125 0 -270 65q-78 33 -121.5 44.5t-94.5 11.5t-116.5 -35.5t-113.5 -85.5v151q97 109 243 109q68 0 127 -14t166.5 -60.5t188.5 -46.5q55 0 119.5 33t115.5 88v-150q-101 -110 -244 -110z" />
<glyph unicode="&#xa1;" horiz-adv-x="530" d="M250 950q0 76 41 122t110 46q46 0 71.5 -26.5t25.5 -88.5t-40.5 -108.5t-105.5 -46.5q-49 0 -75.5 26t-26.5 76zM369 684l-176 -1057h-207l274 1057h109z" />
<glyph unicode="&#xa2;" d="M225 590q0 185 63 344q64 159 179 258.5t260 120.5l35 170h123l-37 -168q121 -9 217 -49l-47 -142q-108 52 -219 52t-205 -77q-93 -78 -145 -213t-52 -296q0 -124 66 -197.5t179.5 -73.5t266.5 68v-143q-123 -62 -286 -66l-41 -198h-125l43 215q-132 34 -203.5 137.5 t-71.5 257.5z" />
<glyph unicode="&#xa3;" d="M842 1481q184 0 336 -86l-66 -133q-145 79 -278 79q-214 0 -263 -237l-69 -326h370l-26 -127h-371l-47 -219q-22 -101 -67 -168.5t-123 -109.5h725l-33 -154h-953l27 141q206 47 258 289l47 221h-200l26 127h201l76 350q75 353 430 353z" />
<glyph unicode="&#xa5;" d="M1073 1462h187l-533 -770h231l-28 -133h-297l-33 -160h297l-29 -133h-295l-57 -266h-154l56 266h-291l29 133h290l33 160h-291l29 133h225l-202 770h163l179 -747z" />
<glyph unicode="&#xa7;" horiz-adv-x="995" d="M352 123q133 0 204 44.5t71 129.5q0 47 -49 88t-154 88q-139 62 -194.5 131.5t-55.5 165.5q0 201 238 307q-119 71 -119 200.5t103 208.5t285.5 79t315.5 -68l-53 -123q-149 60 -258.5 60t-170 -40.5t-60.5 -109.5q0 -49 37.5 -83.5t149 -84t162.5 -90.5 q101 -81 101 -203q0 -96 -61 -179.5t-172 -139.5q114 -70 114 -189q0 -153 -113.5 -238t-318.5 -85q-177 0 -295 61v148q52 -32 133.5 -55t159.5 -23zM514 1010q-81 -25 -134.5 -87.5t-53.5 -132t50.5 -116.5t198.5 -111q81 45 128 108t47 126.5t-49 108.5t-187 104z" />
<glyph unicode="&#xa8;" horiz-adv-x="1135" d="M480 1316.5q-23 22.5 -23 65.5t28.5 76t73.5 33q78 0 78 -80q0 -48 -29 -82.5t-67 -34.5t-61 22.5zM844 1316.5q-23 22.5 -23 65.5t28.5 76t74.5 33q77 0 77 -80q0 -48 -29 -82.5t-67 -34.5t-61 22.5z" />
<glyph unicode="&#xa9;" horiz-adv-x="1704" d="M509 83q-175 103 -272.5 276t-97.5 372.5t100.5 375t275.5 276t374.5 100.5t373 -98t276.5 -272.5t103 -380t-101 -378t-273.5 -273.5t-378 -101t-380.5 103zM331 1055q-87 -149 -87 -323t87 -324.5t237 -237.5q152 -86 325 -86t322 87.5t235 234.5q88 148 88 324 t-87 324.5t-236 235.5q-148 88 -323.5 88t-323.5 -87t-237 -236zM928 1059q-124 0 -191 -86.5t-67 -241.5q0 -330 258 -330q83 0 211 43v-122q-61 -26 -109 -37t-108 -11q-192 0 -297 119.5t-105 333.5t110 336.5t300 122.5q130 0 248 -60l-60 -120q-108 53 -190 53z" />
<glyph unicode="&#xaa;" horiz-adv-x="686" d="M464.5 822q-50.5 -34 -123.5 -34t-122 59.5t-49 176t41.5 225t116.5 169.5t170 61q114 0 153 -103h6l37 90h86l-139 -665h-92l14 117h-4q-44 -62 -94.5 -96zM381 891q62 0 113 49t85.5 138t34.5 160q0 138 -114 138q-92 0 -155 -103q-62 -104 -62 -243t98 -139z" />
<glyph unicode="&#xab;" horiz-adv-x="958" d="M479 958l78 -81l-297 -328l172 -387l-113 -49l-231 442v29zM850 946l86 -69l-283 -365l158 -350l-113 -49l-215 397v31z" />
<glyph unicode="&#xac;" d="M1047 264h-140v387h-780v142h920v-529z" />
<glyph unicode="&#xae;" horiz-adv-x="1704" d="M509 83q-175 103 -272.5 276t-97.5 372.5t100.5 375t275.5 276t374.5 100.5t373 -98t276.5 -272.5t103 -380t-101 -378t-273.5 -273.5t-378 -101t-380.5 103zM331 1055q-87 -149 -87 -323t87 -324.5t237 -237.5q152 -86 325 -86t322 87.5t235 234.5q88 148 88 324 t-87 324.5t-236 235.5q-148 88 -323.5 88t-323.5 -87t-237 -236zM645 1171h229q163 0 241.5 -63t78.5 -193q0 -78 -47.5 -141t-132.5 -98l227 -385h-149l-207 352h-113v-352h-127v880zM772 762h92q195 0 195 149q0 75 -46.5 106.5t-150.5 31.5h-90v-287z" />
<glyph unicode="&#xaf;" horiz-adv-x="782" d="M227 1556l33 132h787l-35 -132h-785z" />
<glyph unicode="&#xb0;" horiz-adv-x="877" d="M526 862q-131 0 -221 91t-90 219t91 219.5t220 91.5h7q77 0 149 -41.5t114 -113.5t42 -150v-7q0 -128 -90.5 -218.5t-221.5 -90.5zM387 1311q-59 -59 -59 -139.5t58 -138.5t140.5 -58t139.5 58.5t57 139t-57.5 139t-138.5 58.5t-140 -59z" />
<glyph unicode="&#xb1;" d="M127 643v141h389v392h141v-392h390v-141h-390v-387h-141v387h-389zM127 141h920v-141h-920v141z" />
<glyph unicode="&#xb4;" horiz-adv-x="1135" d="M532 1241v27q60 65 125 150t107 151h190v-21q-34 -45 -138 -149t-179 -158h-105z" />
<glyph unicode="&#xb6;" horiz-adv-x="1341" d="M1092 -260v1661h-213v-1661h-115v819q-61 -18 -146 -18q-215 0 -317 124t-102 381t109.5 383.5t340.5 126.5h557v-1816h-114z" />
<glyph unicode="&#xb7;" horiz-adv-x="518" d="M170 690q0 78 40.5 123t111.5 45q44 0 70 -26.5t26 -88.5t-40.5 -109t-107.5 -47q-47 0 -73.5 26.5t-26.5 76.5z" />
<glyph unicode="&#xb8;" horiz-adv-x="420" d="M211 -276q0 -98 -81.5 -157t-213.5 -59q-41 0 -86 9v100q38 -6 68 -6q174 0 174 110q0 78 -138 97l101 182h106l-61 -121q131 -38 131 -155z" />
<glyph unicode="&#xba;" horiz-adv-x="688" d="M745 1219q0 -190 -88.5 -310.5t-240.5 -120.5q-113 0 -180.5 70.5t-67.5 192t42 220.5t118 153.5t183.5 54.5t170.5 -67t63 -193zM500 1376q-103 0 -161 -87t-58 -230q0 -84 37.5 -127t107.5 -43q94 0 152.5 88.5t58.5 232.5q0 166 -137 166z" />
<glyph unicode="&#xbb;" horiz-adv-x="958" d="M109 127l-86 70l282 360l-158 354l113 50l217 -402v-31zM479 115l-78 82l297 323l-172 391l113 50l233 -447v-29z" />
<glyph unicode="&#xbf;" horiz-adv-x="874" d="M760 1010q0 -78 -40.5 -123t-111.5 -45q-44 0 -70 27t-26 77q0 72 40 119t107 47q48 0 74.5 -26t26.5 -76zM166 -57q0 -93 51.5 -144t147.5 -51q118 0 294 82l62 -129q-187 -100 -365 -100t-269 83.5t-91 237.5q0 124 66.5 228.5t210.5 211.5t186 163q41 56 63 155h135 q-22 -129 -71.5 -211.5t-165.5 -175.5l-95 -75q-159 -127 -159 -275z" />
<glyph unicode="&#xc0;" horiz-adv-x="1137" d="M863 1579h-104q-63 63 -128.5 153t-95.5 154v21h181q44 -137 147 -303v-25zM72 0h-189l799 1462h174l184 -1462h-170l-57 465h-496zM795 621l-35 299q-25 183 -29 350q-36 -85 -80.5 -173.5t-249.5 -475.5h394z" />
<glyph unicode="&#xc1;" horiz-adv-x="1137" d="M679 1579v27q60 65 125 150t107 151h190v-21q-34 -45 -138 -149t-179 -158h-105zM72 0h-189l799 1462h174l184 -1462h-170l-57 465h-496zM795 621l-35 299q-25 183 -29 350q-36 -85 -80.5 -173.5t-249.5 -475.5h394z" />
<glyph unicode="&#xc2;" horiz-adv-x="1137" d="M1080 1579h-103q-58 49 -161 189q-132 -117 -242 -189h-109v27q151 138 204 197q61 65 83 104h158q38 -101 128 -235l42 -66v-27zM72 0h-189l799 1462h174l184 -1462h-170l-57 465h-496zM795 621l-35 299q-25 183 -29 350q-36 -85 -80.5 -173.5t-249.5 -475.5h394z" />
<glyph unicode="&#xc3;" horiz-adv-x="1137" d="M934 1581q-45 0 -98.5 28.5t-102.5 56.5t-87.5 28t-64.5 -27t-49 -88h-100q58 258 231 258q39 0 83 -18t76 -39q84 -58 125.5 -58t67 26t52.5 91h100q-66 -258 -233 -258zM72 0h-189l799 1462h174l184 -1462h-170l-57 465h-496zM795 621l-35 299q-25 183 -29 350 q-36 -85 -80.5 -173.5t-249.5 -475.5h394z" />
<glyph unicode="&#xc4;" horiz-adv-x="1137" d="M546 1654.5q-23 22.5 -23 65.5t28.5 76t73.5 33q78 0 78 -80q0 -49 -30 -83q-28 -34 -66 -34t-61 22.5zM910 1654.5q-23 22.5 -23 65.5t28.5 76t74.5 33q77 0 77 -80q0 -49 -30 -83q-28 -34 -66 -34t-61 22.5zM72 0h-189l799 1462h174l184 -1462h-170l-57 465h-496z M795 621l-35 299q-25 183 -29 350q-36 -85 -80.5 -173.5t-249.5 -475.5h394z" />
<glyph unicode="&#xc5;" horiz-adv-x="1137" d="M553 1583q0 93 62 152t160 59t157 -56.5t59 -152.5q0 -73 -33 -124t-92 -75l174 -1386h-170l-57 465h-496l-245 -465h-189l765 1400q-95 55 -95 183zM855.5 1667q-31.5 31 -82.5 31t-83.5 -31.5t-32.5 -85t29.5 -83.5t83.5 -30t85.5 31t31.5 84t-31.5 84zM795 621 l-35 299q-25 183 -29 350q-36 -85 -80.5 -173.5t-249.5 -475.5h394z" />
<glyph unicode="&#xc6;" horiz-adv-x="1673" d="M711 0l98 465h-438l-293 -465h-197l938 1462h938l-33 -153h-565l-100 -469h528l-28 -150h-529l-115 -538h566l-33 -152h-737zM987 1309h-84l-434 -688h371z" />
<glyph unicode="&#xc7;" horiz-adv-x="1198" d="M942 1331q-175 0 -312 -97.5t-217.5 -285.5t-80.5 -407q0 -187 97 -298.5t269 -111.5q139 0 322 57v-149q-85 -31 -163.5 -45t-178.5 -14l-51 -101q131 -38 131 -155q0 -98 -81.5 -157t-213.5 -59q-41 0 -86 9v100q37 -6 68 -6q174 0 174 110q0 78 -138 97l93 168 q-176 24 -286 143q-138 150 -138 409.5t106 484t283 342.5q178 118 403 118q196 0 348 -80l-69 -141q-138 69 -279 69z" />
<glyph unicode="&#xc8;" horiz-adv-x="1047" d="M898 1579h-104q-63 63 -128.5 153t-95.5 154v21h181q43 -137 147 -303v-25zM395 1462h735l-32 -153h-566l-98 -469h527l-29 -152h-529l-114 -536h565l-33 -152h-735z" />
<glyph unicode="&#xc9;" horiz-adv-x="1047" d="M657 1579v27q60 65 125 150t107 151h190v-21q-34 -45 -138 -149t-179 -158h-105zM395 1462h735l-32 -153h-566l-98 -469h527l-29 -152h-529l-114 -536h565l-33 -152h-735z" />
<glyph unicode="&#xca;" horiz-adv-x="1047" d="M1084 1579h-103q-58 49 -161 189q-132 -117 -242 -189h-109v27q151 138 204 197q61 65 83 104h158q38 -101 128 -235l42 -66v-27zM395 1462h735l-32 -153h-566l-98 -469h527l-29 -152h-529l-114 -536h565l-33 -152h-735z" />
<glyph unicode="&#xcb;" horiz-adv-x="1047" d="M546 1654.5q-23 22.5 -23 65.5t28.5 76t73.5 33q78 0 78 -80q0 -49 -30 -83q-28 -34 -66 -34t-61 22.5zM910 1654.5q-23 22.5 -23 65.5t28.5 76t74.5 33q77 0 77 -80q0 -49 -30 -83q-28 -34 -66 -34t-61 22.5zM395 1462h735l-32 -153h-566l-98 -469h527l-29 -152h-529 l-114 -536h565l-33 -152h-735z" />
<glyph unicode="&#xcc;" horiz-adv-x="559" d="M593 1579h-104q-63 63 -128.5 153t-95.5 154v21h181q44 -137 147 -303v-25zM565 1462l-311 -1462h-168l311 1462h168z" />
<glyph unicode="&#xcd;" horiz-adv-x="559" d="M412 1579v27q60 65 125 150t107 151h190v-21q-34 -45 -138 -149t-179 -158h-105zM565 1462l-311 -1462h-168l311 1462h168z" />
<glyph unicode="&#xce;" horiz-adv-x="559" d="M808 1579h-103q-58 49 -161 189q-132 -117 -242 -189h-109v27q151 138 204 197q61 65 83 104h158q38 -101 128 -235l42 -66v-27zM565 1462l-311 -1462h-168l311 1462h168z" />
<glyph unicode="&#xcf;" horiz-adv-x="559" d="M288 1654.5q-23 22.5 -23 65.5t28.5 76t73.5 33q78 0 78 -80q0 -49 -30 -83q-28 -34 -66 -34t-61 22.5zM652 1654.5q-23 22.5 -23 65.5t28.5 76t74.5 33q77 0 77 -80q0 -49 -30 -83q-28 -34 -66 -34t-61 22.5zM565 1462l-311 -1462h-168l311 1462h168z" />
<glyph unicode="&#xd1;" horiz-adv-x="1438" d="M1102 1581q-45 0 -98.5 28.5t-102.5 56.5t-87.5 28t-64.5 -27t-49 -88h-100q58 258 231 258q39 0 83 -18t76 -39q84 -58 125.5 -58t67 26t52.5 91h100q-66 -258 -233 -258zM498 1223h-6q-31 -216 -74 -418l-172 -805h-162l309 1462h180l459 -1220h6q30 224 72 405 l174 815h164l-309 -1462h-181z" />
<glyph unicode="&#xd2;" horiz-adv-x="1475" d="M1007 1579h-104q-63 63 -128.5 153t-95.5 154v21h181q44 -137 147 -303v-25zM887 1485q245 0 384.5 -154.5t139.5 -424t-88.5 -481.5t-251.5 -329q-164 -116 -379 -116q-256 0 -399 149q-143 151 -143 418t96 484t263 335.5t378 118.5zM400 951q-68 -181 -68 -388.5 t97.5 -319.5t258.5 -112t280 96.5t190 278.5t71 393.5t-94 322.5t-255.5 111t-285.5 -100.5t-194 -281.5z" />
<glyph unicode="&#xd3;" horiz-adv-x="1475" d="M821 1579v27q60 65 125 150t107 151h190v-21q-34 -45 -138 -149t-179 -158h-105zM887 1485q245 0 384.5 -154.5t139.5 -424t-88.5 -481.5t-251.5 -329q-164 -116 -379 -116q-256 0 -399 149q-143 151 -143 418t96 484t263 335.5t378 118.5zM400 951q-68 -181 -68 -388.5 t97.5 -319.5t258.5 -112t280 96.5t190 278.5t71 393.5t-94 322.5t-255.5 111t-285.5 -100.5t-194 -281.5z" />
<glyph unicode="&#xd4;" horiz-adv-x="1475" d="M1227 1579h-103q-58 49 -161 189q-132 -117 -242 -189h-109v27q151 138 204 197q61 65 83 104h158q38 -101 128 -235l42 -66v-27zM887 1485q245 0 384.5 -154.5t139.5 -424t-88.5 -481.5t-251.5 -329q-164 -116 -379 -116q-256 0 -399 149q-143 151 -143 418t96 484 t263 335.5t378 118.5zM400 951q-68 -181 -68 -388.5t97.5 -319.5t258.5 -112t280 96.5t190 278.5t71 393.5t-94 322.5t-255.5 111t-285.5 -100.5t-194 -281.5z" />
<glyph unicode="&#xd5;" horiz-adv-x="1475" d="M1067 1581q-45 0 -98.5 28.5t-102.5 56.5t-87.5 28t-64.5 -27t-49 -88h-100q59 258 231 258q39 0 83 -18t75 -39q85 -58 126.5 -58t67 26t52.5 91h100q-66 -258 -233 -258zM887 1485q245 0 384.5 -154.5t139.5 -424t-88.5 -481.5t-251.5 -329q-164 -116 -379 -116 q-256 0 -399 149q-143 151 -143 418t96 484t263 335.5t378 118.5zM400 951q-68 -181 -68 -388.5t97.5 -319.5t258.5 -112t280 96.5t190 278.5t71 393.5t-94 322.5t-255.5 111t-285.5 -100.5t-194 -281.5z" />
<glyph unicode="&#xd6;" horiz-adv-x="1475" d="M687 1654.5q-23 22.5 -23 65.5t28.5 76t73.5 33q78 0 78 -80q0 -49 -30 -83q-28 -34 -66 -34t-61 22.5zM1051 1654.5q-23 22.5 -23 65.5t28.5 76t74.5 33q77 0 77 -80q0 -49 -30 -83q-28 -34 -66 -34t-61 22.5zM887 1485q245 0 384.5 -154.5t139.5 -424t-88.5 -481.5 t-251.5 -329q-164 -116 -379 -116q-256 0 -399 149q-143 151 -143 418t96 484t263 335.5t378 118.5zM400 951q-68 -181 -68 -388.5t97.5 -319.5t258.5 -112t280 96.5t190 278.5t71 393.5t-94 322.5t-255.5 111t-285.5 -100.5t-194 -281.5z" />
<glyph unicode="&#xd8;" horiz-adv-x="1475" d="M1411 907q0 -270 -88.5 -482t-251.5 -329q-164 -116 -371.5 -116t-339.5 96l-129 -160l-112 92l137 170q-106 136 -106 371q0 265 96 482t263 335.5t367.5 118.5t340.5 -111l131 166l114 -92l-149 -184q98 -127 98 -357zM1110 1245q-89 88 -240.5 88t-275.5 -100.5 t-194 -281.5q-68 -181 -68 -398q0 -134 41 -227zM463 205q92 -74 239 -74t266 96.5t190 278.5t71 405q0 118 -33 205z" />
<glyph unicode="&#xd9;" horiz-adv-x="1384" d="M991 1579h-104q-63 63 -128.5 153t-95.5 154v21h181q44 -137 147 -303v-25zM1004.5 106q-142.5 -126 -379 -126t-349 102.5t-112.5 300.5q0 81 24 201l189 878h170l-191 -891q-22 -104 -22 -188q0 -119 74.5 -185.5t216.5 -66.5q173 0 268.5 88t138.5 289l205 954h170 l-205 -966q-55 -264 -197.5 -390z" />
<glyph unicode="&#xda;" horiz-adv-x="1384" d="M823 1579v27q60 65 125 150t107 151h190v-21q-34 -45 -138 -149t-179 -158h-105zM1004.5 106q-142.5 -126 -379 -126t-349 102.5t-112.5 300.5q0 81 24 201l189 878h170l-191 -891q-22 -104 -22 -188q0 -119 74.5 -185.5t216.5 -66.5q173 0 268.5 88t138.5 289l205 954 h170l-205 -966q-55 -264 -197.5 -390z" />
<glyph unicode="&#xdb;" horiz-adv-x="1384" d="M1217 1579h-103q-58 49 -161 189q-132 -117 -242 -189h-109v27q151 138 204 197q61 65 83 104h158q38 -101 128 -235l42 -66v-27zM1004.5 106q-142.5 -126 -379 -126t-349 102.5t-112.5 300.5q0 81 24 201l189 878h170l-191 -891q-22 -104 -22 -188q0 -119 74.5 -185.5 t216.5 -66.5q173 0 268.5 88t138.5 289l205 954h170l-205 -966q-55 -264 -197.5 -390z" />
<glyph unicode="&#xdc;" horiz-adv-x="1384" d="M666 1654.5q-23 22.5 -23 65.5t28.5 76t73.5 33q78 0 78 -80q0 -49 -30 -83q-28 -34 -66 -34t-61 22.5zM1030 1654.5q-23 22.5 -23 65.5t28.5 76t74.5 33q77 0 77 -80q0 -49 -30 -83q-28 -34 -66 -34t-61 22.5zM1004.5 106q-142.5 -126 -379 -126t-349 102.5 t-112.5 300.5q0 81 24 201l189 878h170l-191 -891q-22 -104 -22 -188q0 -119 74.5 -185.5t216.5 -66.5q173 0 268.5 88t138.5 289l205 954h170l-205 -966q-55 -264 -197.5 -390z" />
<glyph unicode="&#xdf;" horiz-adv-x="1182" d="M-133 -492q-69 0 -123 21v143q60 -22 118.5 -22t100 48t64.5 157l280 1314q43 201 156.5 299.5t306.5 98.5q162 0 252 -70.5t90 -196.5q0 -58 -20.5 -105.5t-62.5 -96.5q-42 -46 -178 -150q-110 -83 -110 -151q0 -56 95 -122q50 -37 101 -88q105 -104 105 -233 q0 -175 -108.5 -274.5t-287.5 -99.5t-273 71v160q51 -42 118.5 -67t129.5 -25q114 0 181.5 58.5t67.5 158.5q0 75 -44 130q-19 24 -89 83q-89 69 -123 124t-34 111q0 105 68 178q32 37 124 105q80 55 111 87q65 68 65 134t-52.5 102.5t-141.5 36.5q-118 0 -185.5 -61.5 t-95.5 -191.5l-274 -1303q-39 -188 -120 -275.5t-212 -87.5z" />
<glyph unicode="&#xe0;" horiz-adv-x="1157" d="M824 1241h-104q-63 63 -128.5 153t-95.5 154v21h181q43 -137 147 -303v-25zM395 -20q-138 0 -217.5 98.5t-79.5 271.5q0 206 70.5 384.5t196 280t274.5 101.5q93 0 164.5 -49.5t111.5 -142.5h11l67 172h127l-233 -1096h-133l26 209h-8q-178 -229 -377 -229zM316.5 176.5 q46.5 -57.5 137.5 -57.5t188 92q96 93 156 241t60 298q0 102 -55.5 163.5t-153 61.5t-188.5 -86q-89 -86 -140 -233t-51 -310q0 -112 46.5 -169.5z" />
<glyph unicode="&#xe1;" horiz-adv-x="1157" d="M600 1241v27q60 65 125 150t107 151h190v-21q-34 -45 -138 -149t-179 -158h-105zM395 -20q-138 0 -217.5 98.5t-79.5 271.5q0 206 70.5 384.5t196 280t274.5 101.5q93 0 164.5 -49.5t111.5 -142.5h11l67 172h127l-233 -1096h-133l26 209h-8q-178 -229 -377 -229z M316.5 176.5q46.5 -57.5 137.5 -57.5t188 92q96 93 156 241t60 298q0 102 -55.5 163.5t-153 61.5t-188.5 -86q-89 -86 -140 -233t-51 -310q0 -112 46.5 -169.5z" />
<glyph unicode="&#xe2;" horiz-adv-x="1157" d="M1005 1241h-103q-58 49 -161 189q-132 -117 -242 -189h-109v27q151 138 204 197q61 65 83 104h158q38 -101 128 -235l42 -66v-27zM395 -20q-138 0 -217.5 98.5t-79.5 271.5q0 206 70.5 384.5t196 280t274.5 101.5q93 0 164.5 -49.5t111.5 -142.5h11l67 172h127 l-233 -1096h-133l26 209h-8q-178 -229 -377 -229zM316.5 176.5q46.5 -57.5 137.5 -57.5t188 92q96 93 156 241t60 298q0 102 -55.5 163.5t-153 61.5t-188.5 -86q-89 -86 -140 -233t-51 -310q0 -112 46.5 -169.5z" />
<glyph unicode="&#xe3;" horiz-adv-x="1157" d="M856 1243q-45 0 -98.5 28.5t-102.5 56.5t-87.5 28t-64.5 -27t-49 -88h-100q58 258 231 258q39 0 83 -18t76 -39q84 -58 125.5 -58t67 26t52.5 91h100q-66 -258 -233 -258zM395 -20q-138 0 -217.5 98.5t-79.5 271.5q0 206 70.5 384.5t196 280t274.5 101.5 q93 0 164.5 -49.5t111.5 -142.5h11l67 172h127l-233 -1096h-133l26 209h-8q-178 -229 -377 -229zM316.5 176.5q46.5 -57.5 137.5 -57.5t188 92q96 93 156 241t60 298q0 102 -55.5 163.5t-153 61.5t-188.5 -86q-89 -86 -140 -233t-51 -310q0 -112 46.5 -169.5z" />
<glyph unicode="&#xe4;" horiz-adv-x="1157" d="M477 1316.5q-23 22.5 -23 65.5t28.5 76t73.5 33q78 0 78 -80q0 -48 -29 -82.5t-67 -34.5t-61 22.5zM841 1316.5q-23 22.5 -23 65.5t28.5 76t74.5 33q77 0 77 -80q0 -48 -29 -82.5t-67 -34.5t-61 22.5zM395 -20q-138 0 -217.5 98.5t-79.5 271.5q0 206 70.5 384.5t196 280 t274.5 101.5q93 0 164.5 -49.5t111.5 -142.5h11l67 172h127l-233 -1096h-133l26 209h-8q-178 -229 -377 -229zM316.5 176.5q46.5 -57.5 137.5 -57.5t188 92q96 93 156 241t60 298q0 102 -55.5 163.5t-153 61.5t-188.5 -86q-89 -86 -140 -233t-51 -310q0 -112 46.5 -169.5z " />
<glyph unicode="&#xe5;" horiz-adv-x="1157" d="M892 1608.5q59 -56.5 59 -154t-60 -155.5t-160 -58t-159 57.5t-59 153t62 154.5t160 59t157 -56.5zM847 1454q0 53 -31.5 84t-82.5 31t-83.5 -31.5t-32.5 -85t29.5 -83.5t83.5 -30t85.5 31t31.5 84zM395 -20q-138 0 -217.5 98.5t-79.5 271.5q0 206 70.5 384.5t196 280 t274.5 101.5q93 0 164.5 -49.5t111.5 -142.5h11l67 172h127l-233 -1096h-133l26 209h-8q-178 -229 -377 -229zM316.5 176.5q46.5 -57.5 137.5 -57.5t188 92q96 93 156 241t60 298q0 102 -55.5 163.5t-153 61.5t-188.5 -86q-89 -86 -140 -233t-51 -310q0 -112 46.5 -169.5z " />
<glyph unicode="&#xe6;" horiz-adv-x="1669" d="M1165 -20q-110 0 -191 40t-120 119l-31 -139h-114l26 209h-8q-109 -131 -192 -180t-177 -49q-122 0 -191 99t-69 269q0 208 70.5 386t191.5 280t263 102q168 0 247 -192h11l67 172h109l-31 -146q123 166 332 166q118 0 192 -68t74 -184q0 -182 -167 -283.5t-472 -101.5 h-39l-4 -80q0 -134 63.5 -206t192.5 -72q56 0 116 16t179 68v-150q-163 -75 -328 -75zM412 119q96 0 189 91t152.5 240t59.5 300q0 103 -45.5 164t-122.5 61q-99 0 -187 -86.5t-138 -232.5t-50 -308q0 -113 36.5 -171t105.5 -58zM987 618q227 0 349 58.5t122 169.5 q0 61 -35 94t-98 33q-116 0 -211 -95t-141 -260h14z" />
<glyph unicode="&#xe7;" horiz-adv-x="922" d="M891 924q-120 51 -225 51t-199 -77q-93 -78 -145 -213t-52 -296q0 -128 66.5 -199t179 -71t266.5 67v-143q-122 -61 -270 -63l-51 -101q131 -38 131 -155q0 -98 -81.5 -157t-213.5 -59q-41 0 -86 9v100q37 -6 68 -6q174 0 174 110q0 78 -138 97l94 170q-126 21 -204 99 q-107 107 -107 303.5t73.5 366t204.5 264.5t294 95q138 0 268 -51z" />
<glyph unicode="&#xe8;" horiz-adv-x="1010" d="M777 1241h-104q-63 63 -128.5 153t-95.5 154v21h181q44 -137 147 -303v-25zM492 -20q-184 0 -289 109.5t-105 298.5t74.5 362.5t197.5 269.5t272.5 96t227.5 -65.5t78 -186.5q0 -180 -166 -282.5t-475 -102.5h-33l-4 -80q0 -134 62.5 -206t189.5 -72q63 0 129 18t166 66 v-146q-99 -46 -168.5 -62.5t-156.5 -16.5zM311 618q228 0 349.5 59.5t121.5 172.5q0 56 -38 89.5t-113 33.5q-103 0 -194 -94q-90 -95 -138 -261h12z" />
<glyph unicode="&#xe9;" horiz-adv-x="1010" d="M585 1241v27q60 65 125 150t107 151h190v-21q-34 -45 -138 -149t-179 -158h-105zM492 -20q-184 0 -289 109.5t-105 298.5t74.5 362.5t197.5 269.5t272.5 96t227.5 -65.5t78 -186.5q0 -180 -166 -282.5t-475 -102.5h-33l-4 -80q0 -134 62.5 -206t189.5 -72q63 0 129 18 t166 66v-146q-99 -46 -168.5 -62.5t-156.5 -16.5zM311 618q228 0 349.5 59.5t121.5 172.5q0 56 -38 89.5t-113 33.5q-103 0 -194 -94q-90 -95 -138 -261h12z" />
<glyph unicode="&#xea;" horiz-adv-x="1010" d="M966 1241h-103q-58 49 -161 189q-132 -117 -242 -189h-109v27q151 138 204 197q61 65 83 104h158q38 -101 128 -235l42 -66v-27zM492 -20q-184 0 -289 109.5t-105 298.5t74.5 362.5t197.5 269.5t272.5 96t227.5 -65.5t78 -186.5q0 -180 -166 -282.5t-475 -102.5h-33 l-4 -80q0 -134 62.5 -206t189.5 -72q63 0 129 18t166 66v-146q-99 -46 -168.5 -62.5t-156.5 -16.5zM311 618q228 0 349.5 59.5t121.5 172.5q0 56 -38 89.5t-113 33.5q-103 0 -194 -94q-90 -95 -138 -261h12z" />
<glyph unicode="&#xeb;" horiz-adv-x="1010" d="M436 1316.5q-23 22.5 -23 65.5t28.5 76t73.5 33q78 0 78 -80q0 -48 -29 -82.5t-67 -34.5t-61 22.5zM800 1316.5q-23 22.5 -23 65.5t28.5 76t74.5 33q77 0 77 -80q0 -48 -29 -82.5t-67 -34.5t-61 22.5zM492 -20q-184 0 -289 109.5t-105 298.5t74.5 362.5t197.5 269.5 t272.5 96t227.5 -65.5t78 -186.5q0 -180 -166 -282.5t-475 -102.5h-33l-4 -80q0 -134 62.5 -206t189.5 -72q63 0 129 18t166 66v-146q-99 -46 -168.5 -62.5t-156.5 -16.5zM311 618q228 0 349.5 59.5t121.5 172.5q0 56 -38 89.5t-113 33.5q-103 0 -194 -94q-90 -95 -138 -261 h12z" />
<glyph unicode="&#xec;" horiz-adv-x="520" d="M492 1241h-104q-63 63 -128.5 153t-95.5 154v21h181q43 -137 147 -303v-25zM59 0l234 1096h168l-234 -1096h-168z" />
<glyph unicode="&#xed;" horiz-adv-x="520" d="M324 1241v27q60 65 125 150t107 151h190v-21q-34 -45 -138 -149t-179 -158h-105zM293 1096h168l-234 -1096h-168z" />
<glyph unicode="&#xee;" horiz-adv-x="520" d="M708 1241h-103q-58 49 -161 189q-132 -117 -242 -189h-109v27q151 138 204 197q61 65 83 104h158q38 -101 128 -235l42 -66v-27zM293 1096h168l-234 -1096h-168z" />
<glyph unicode="&#xef;" horiz-adv-x="520" d="M184 1316.5q-23 22.5 -23 65.5t28.5 76t73.5 33q78 0 78 -80q0 -48 -29 -82.5t-67 -34.5t-61 22.5zM548 1316.5q-23 22.5 -23 65.5t28.5 76t74.5 33q77 0 77 -80q0 -48 -29 -82.5t-67 -34.5t-61 22.5zM293 1096h168l-234 -1096h-168z" />
<glyph unicode="&#xf1;" horiz-adv-x="1182" d="M871 1243q-45 0 -98.5 28.5t-102.5 56.5t-87.5 28t-64.5 -27t-49 -88h-100q59 258 231 258q39 0 83 -18t75 -39q85 -58 126.5 -58t67 26t52.5 91h100q-66 -258 -233 -258zM897 836q0 66 -36.5 102.5t-112.5 36.5q-138 0 -255 -135t-165 -365l-101 -475h-168l234 1096h139 l-22 -203h10q93 119 182.5 171t188.5 52q128 0 201 -70t73 -194q0 -77 -23 -180l-143 -672h-170l148 692q20 106 20 144z" />
<glyph unicode="&#xf2;" horiz-adv-x="1149" d="M798 1241h-104q-63 63 -128.5 153t-95.5 154v21h181q43 -137 147 -303v-25zM643 1110q190 0 300 -113t110 -305t-72 -359t-195 -258t-278 -91q-191 0 -300.5 112.5t-109.5 307t72.5 360.5t196.5 256t276 90zM816 897q-62 72 -169.5 72t-195.5 -74q-86 -74 -133.5 -206 t-47.5 -292q0 -132 63.5 -203t182.5 -71h8q97 0 179.5 73t129 207.5t46.5 300.5v7q0 115 -63 186z" />
<glyph unicode="&#xf3;" horiz-adv-x="1149" d="M589 1241v27q60 65 125 150t107 151h190v-21q-34 -45 -138 -149t-179 -158h-105zM643 1110q190 0 300 -113t110 -305t-72 -359t-195 -258t-278 -91q-191 0 -300.5 112.5t-109.5 307t72.5 360.5t196.5 256t276 90zM816 897q-62 72 -169.5 72t-195.5 -74 q-86 -74 -133.5 -206t-47.5 -292q0 -132 63.5 -203t182.5 -71h8q97 0 179.5 73t129 207.5t46.5 300.5v7q0 115 -63 186z" />
<glyph unicode="&#xf4;" horiz-adv-x="1149" d="M997 1241h-103q-58 49 -161 189q-132 -117 -242 -189h-109v27q151 138 204 197q61 65 83 104h158q38 -101 128 -235l42 -66v-27zM643 1110q190 0 300 -113t110 -305t-72 -359t-195 -258t-278 -91q-191 0 -300.5 112.5t-109.5 307t72.5 360.5t196.5 256t276 90zM816 897 q-62 72 -169.5 72t-195.5 -74q-86 -74 -133.5 -206t-47.5 -292q0 -132 63.5 -203t182.5 -71h8q97 0 179.5 73t129 207.5t46.5 300.5v7q0 115 -63 186z" />
<glyph unicode="&#xf5;" horiz-adv-x="1149" d="M844 1243q-45 0 -98.5 28.5t-102.5 56.5t-87.5 28t-64.5 -27t-49 -88h-100q58 258 231 258q39 0 83 -18t76 -39q84 -58 125.5 -58t67 26t52.5 91h100q-66 -258 -233 -258zM643 1110q190 0 300 -113t110 -305t-72 -359t-195 -258t-278 -91q-191 0 -300.5 112.5t-109.5 307 t72.5 360.5t196.5 256t276 90zM816 897q-62 72 -169.5 72t-195.5 -74q-86 -74 -133.5 -206t-47.5 -292q0 -132 63.5 -203t182.5 -71h8q97 0 179.5 73t129 207.5t46.5 300.5v7q0 115 -63 186z" />
<glyph unicode="&#xf6;" horiz-adv-x="1149" d="M456 1316.5q-23 22.5 -23 65.5t28.5 76t73.5 33q78 0 78 -80q0 -48 -29 -82.5t-67 -34.5t-61 22.5zM820 1316.5q-23 22.5 -23 65.5t28.5 76t74.5 33q77 0 77 -80q0 -48 -29 -82.5t-67 -34.5t-61 22.5zM643 1110q190 0 300 -113t110 -305t-72 -359t-195 -258t-278 -91 q-191 0 -300.5 112.5t-109.5 307t72.5 360.5t196.5 256t276 90zM816 897q-62 72 -169.5 72t-195.5 -74q-86 -74 -133.5 -206t-47.5 -292q0 -132 63.5 -203t182.5 -71h8q97 0 179.5 73t129 207.5t46.5 300.5v7q0 115 -63 186z" />
<glyph unicode="&#xf7;" d="M475 1071q0 121 111 121q54 0 83 -31t29 -89t-30 -90t-82 -32t-81.5 31t-29.5 90zM127 793h920v-142h-920v142zM475 373q0 121 111 121q54 0 83 -31t29 -89t-30 -90t-82 -32t-81.5 31t-29.5 90z" />
<glyph unicode="&#xf8;" horiz-adv-x="1149" d="M985 963q62 -98 62 -273t-69.5 -345.5t-191.5 -265.5t-271.5 -95t-250.5 65l-98 -125l-105 82l109 135q-68 104 -68 265q0 196 73.5 361.5t195 254t269.5 88.5t255 -68l104 129l105 -79zM799 924q-55 47 -157.5 47t-190.5 -73.5t-137.5 -202.5t-49.5 -279q0 -91 17 -137z M522 121q98 0 182.5 71t132.5 200t48 283v13q0 86 -13 119l-514 -641q57 -45 158 -45h6z" />
<glyph unicode="&#xf9;" horiz-adv-x="1182" d="M800 1241h-104q-63 63 -128.5 153t-95.5 154v21h181q43 -137 147 -303v-25zM283 262q0 -143 147 -143h2q135 0 254 136.5t166 365.5l100 475h166l-231 -1096h-139l22 203h-12q-97 -124 -186 -173.5t-185 -49.5q-129 0 -201.5 70t-72.5 198q0 65 22 172l146 676h170 l-150 -695q-18 -89 -18 -139z" />
<glyph unicode="&#xfa;" horiz-adv-x="1182" d="M636 1241v27q60 65 125 150t107 151h190v-21q-34 -45 -138 -149t-179 -158h-105zM283 262q0 -143 147 -143h2q135 0 254 136.5t166 365.5l100 475h166l-231 -1096h-139l22 203h-12q-97 -124 -186 -173.5t-185 -49.5q-129 0 -201.5 70t-72.5 198q0 65 22 172l146 676h170 l-150 -695q-18 -89 -18 -139z" />
<glyph unicode="&#xfb;" horiz-adv-x="1182" d="M1024 1241h-103q-58 49 -161 189q-132 -117 -242 -189h-109v27q151 138 204 197q61 65 83 104h158q38 -101 128 -235l42 -66v-27zM283 262q0 -143 147 -143h2q135 0 254 136.5t166 365.5l100 475h166l-231 -1096h-139l22 203h-12q-97 -124 -186 -173.5t-185 -49.5 q-129 0 -201.5 70t-72.5 198q0 65 22 172l146 676h170l-150 -695q-18 -89 -18 -139z" />
<glyph unicode="&#xfc;" horiz-adv-x="1182" d="M480 1316.5q-23 22.5 -23 65.5t28.5 76t73.5 33q78 0 78 -80q0 -48 -29 -82.5t-67 -34.5t-61 22.5zM844 1316.5q-23 22.5 -23 65.5t28.5 76t74.5 33q77 0 77 -80q0 -48 -29 -82.5t-67 -34.5t-61 22.5zM283 262q0 -143 147 -143h2q135 0 254 136.5t166 365.5l100 475h166 l-231 -1096h-139l22 203h-12q-97 -124 -186 -173.5t-185 -49.5q-129 0 -201.5 70t-72.5 198q0 65 22 172l146 676h170l-150 -695q-18 -89 -18 -139z" />
<glyph unicode="&#xff;" horiz-adv-x="946" d="M358 1316.5q-23 22.5 -23 65.5t28.5 76t73.5 33q78 0 78 -80q0 -48 -29 -82.5t-67 -34.5t-61 22.5zM722 1316.5q-23 22.5 -23 65.5t28.5 76t74.5 33q77 0 77 -80q0 -48 -29 -82.5t-67 -34.5t-61 22.5zM369 131h6q36 90 89.5 205.5t74.5 150.5l325 609h178l-696 -1282 q-92 -171 -183.5 -238.5t-219.5 -67.5q-73 0 -140 21v135q63 -18 136.5 -18t132.5 48.5t116 151.5l76 136l-166 1114h168l74 -545q10 -63 19.5 -197t9.5 -223z" />
<glyph unicode="&#x131;" horiz-adv-x="520" d="M59 0l234 1096h168l-234 -1096h-168z" />
<glyph unicode="&#x152;" horiz-adv-x="1751" d="M692 -20q-256 0 -399 149q-143 151 -143 418t96 484t263 335.5t378 118.5q150 0 237 -23h709l-31 -153h-565l-100 -469h528l-31 -150h-528l-115 -538h565l-32 -152h-674q-80 -20 -158 -20zM874 1333q-156 0 -280 -100.5t-194 -281.5q-68 -181 -68 -388.5t97.5 -319.5 t266.5 -112q70 0 123 19l246 1161q-75 22 -191 22z" />
<glyph unicode="&#x153;" horiz-adv-x="1769" d="M1251 -20q-271 0 -356 225q-69 -107 -171.5 -164t-225.5 -57q-184 0 -292 114t-108 308t75 360t200.5 255t281.5 89q271 0 359 -225q76 110 178.5 170.5t231 60.5t206.5 -66t78 -186q0 -184 -164.5 -284.5t-468.5 -100.5h-41l-4 -80q0 -134 62.5 -206t189.5 -72 q68 0 132 20.5t163 63.5v-150q-162 -75 -326 -75zM1071 618q231 0 351 61t120 177q0 51 -33.5 84t-95.5 33q-124 0 -221 -95q-96 -96 -139 -260h18zM823 902q-60 67 -172 67t-198.5 -73.5t-134.5 -202t-48 -276t61.5 -221t172.5 -73.5q178 0 278.5 160.5t100.5 427.5 q0 124 -60 191z" />
<glyph unicode="&#x178;" horiz-adv-x="1030" d="M475 1654.5q-23 22.5 -23 65.5t28.5 76t73.5 33q78 0 78 -80q0 -49 -30 -83q-28 -34 -66 -34t-61 22.5zM839 1654.5q-23 22.5 -23 65.5t28.5 76t74.5 33q77 0 77 -80q0 -49 -30 -83q-28 -34 -66 -34t-61 22.5zM1219 1462l-627 -921l-113 -541h-172l119 549l-238 913h170 l179 -747l489 747h193z" />
<glyph unicode="&#x192;" d="M127 -492q-69 0 -123 21v141q60 -22 113 -22q130 0 180 239l201 953h-191l12 65l205 66l29 147q37 194 122.5 279.5t248.5 85.5q39 0 97 -10.5t91 -26.5l-43 -129q-78 29 -137 29q-88 0 -135 -50t-74 -176l-33 -155h238l-25 -125h-237l-205 -969q-39 -188 -119.5 -275.5 t-214.5 -87.5z" />
<glyph unicode="&#x2c6;" horiz-adv-x="1135" d="M1014 1241h-103q-58 49 -161 189q-132 -117 -242 -189h-109v27q151 138 204 197q61 65 83 104h158q38 -101 128 -235l42 -66v-27z" />
<glyph unicode="&#x2c7;" horiz-adv-x="1135" d="M467 1569h100q54 -42 162 -189q123 110 246 189h106v-27q-80 -70 -168 -160.5t-118 -140.5h-160q-37 100 -125 235l-43 66v27z" />
<glyph unicode="&#x2d8;" horiz-adv-x="1135" d="M1051 1509q-67 -268 -318 -268q-123 0 -191 59q-67 60 -67 166v21l2 22h98q0 -62 38.5 -93.5t127.5 -31.5q168 0 203 125h107z" />
<glyph unicode="&#x2d9;" horiz-adv-x="498" d="M350 1307q-26 25 -26 74t32 85.5t82 36.5q88 0 88 -90q0 -56 -33.5 -93.5t-75 -37.5t-67.5 25z" />
<glyph unicode="&#x2da;" horiz-adv-x="1182" d="M930 1608.5q59 -56.5 59 -154t-60 -155.5t-160 -58t-159 57.5t-59 153t62 154.5t160 59t157 -56.5zM885 1454q0 53 -31.5 84t-82.5 31t-83.5 -31.5t-32.5 -85t29.5 -83.5t83.5 -30t85.5 31t31.5 84z" />
<glyph unicode="&#x2db;" horiz-adv-x="373" d="M68 -102q-74 -81 -74 -153.5t69 -72.5q39 0 80 9v-107q-44 -14 -119 -14t-122 42t-47 119q0 100 82 182q41 39 131 97h116q-79 -62 -116 -102z" />
<glyph unicode="&#x2dc;" horiz-adv-x="1135" d="M838 1243q-45 0 -98.5 28.5t-102.5 56.5t-87.5 28t-64.5 -27t-49 -88h-100q58 258 231 258q39 0 83 -18t76 -39q84 -58 125.5 -58t67 26t52.5 91h100q-66 -258 -233 -258z" />
<glyph unicode="&#x2dd;" horiz-adv-x="1135" d="M397 1241v27q46 47 115.5 138t114.5 163h172v-21q-51 -65 -149 -161.5t-167 -145.5h-86zM739 1241v27q50 54 116 141q72 92 114 160h172v-21q-51 -65 -149 -161.5t-167 -145.5h-86z" />
<glyph unicode="&#x5b0;" horiz-adv-x="0" d="M677 -92q58 0 58 -56q0 -14 -4 -31q-18 -86 -91 -86q-56 0 -56 54q0 14 4 32q18 87 89 87zM612 -395q59 0 59 -56q0 -14 -4 -31q-18 -86 -92 -86q-55 0 -55 54q0 14 4 32q18 87 88 87z" />
<glyph unicode="&#x5b1;" horiz-adv-x="0" d="M398 -92q58 0 58 -56q0 -14 -4 -31q-18 -86 -91 -86q-56 0 -56 54q0 14 4 32q18 87 89 87zM728 -92q58 0 58 -56q0 -14 -4 -31q-18 -86 -91 -86q-56 0 -56 54q0 14 4 32q18 87 89 87zM1021 -92q58 0 58 -56q0 -14 -4 -31q-18 -86 -91 -86q-56 0 -56 54q0 14 4 32 q18 87 89 87zM497 -395q59 0 59 -56q0 -14 -4 -31q-18 -86 -92 -86q-55 0 -55 54q0 14 4 32q18 87 88 87zM956 -395q59 0 59 -56q0 -14 -4 -31q-18 -86 -92 -86q-55 0 -55 54q0 14 4 32q18 87 88 87z" />
<glyph unicode="&#x5b2;" horiz-adv-x="0" d="M953 -92q58 0 58 -56q0 -14 -4 -31q-18 -86 -91 -86q-56 0 -56 54q0 14 4 32q18 87 89 87zM750 -219h-410l17 82h410zM888 -395q59 0 59 -56q0 -14 -4 -31q-18 -86 -92 -86q-55 0 -55 54q0 14 4 32q18 87 88 87z" />
<glyph unicode="&#x5b3;" horiz-adv-x="0" d="M953 -92q58 0 58 -56q0 -14 -4 -31q-18 -86 -91 -86q-56 0 -56 54q0 14 4 32q18 87 89 87zM750 -219h-164l-50 -232h-82l50 232h-164l17 82h410zM888 -395q59 0 59 -56q0 -14 -4 -31q-18 -86 -92 -86q-55 0 -55 54q0 14 4 32q18 87 88 87z" />
<glyph unicode="&#x5b4;" horiz-adv-x="0" d="M644 -92q59 0 59 -56q0 -14 -4 -31q-18 -86 -91 -86q-56 0 -56 54q0 14 4 32q18 87 88 87z" />
<glyph unicode="&#x5b5;" horiz-adv-x="0" d="M479 -92q59 0 59 -56q0 -14 -4 -31q-18 -86 -91 -86q-56 0 -56 54q0 14 4 32q18 87 88 87zM809 -92q59 0 59 -56q0 -14 -4 -31q-18 -86 -91 -86q-56 0 -56 54q0 14 4 32q18 87 88 87z" />
<glyph unicode="&#x5b6;" horiz-adv-x="0" d="M513 -92q58 0 58 -56q0 -14 -4 -31q-18 -86 -91 -86q-56 0 -56 54q0 14 4 32q18 87 89 87zM843 -92q58 0 58 -56q0 -14 -4 -31q-18 -86 -91 -86q-56 0 -56 54q0 14 4 32q18 87 89 87zM612 -395q59 0 59 -56q0 -14 -4 -31q-18 -86 -92 -86q-55 0 -55 54q0 14 4 32 q18 87 88 87z" />
<glyph unicode="&#x5b7;" horiz-adv-x="0" d="M822 -210h-410l18 82h410z" />
<glyph unicode="&#x5b8;" horiz-adv-x="0" d="M847 -210h-164l-49 -232h-82l49 232h-164l17 82h410z" />
<glyph unicode="&#x5b9;" horiz-adv-x="0" d="M644 1564q59 0 59 -56q0 -14 -4 -31q-18 -86 -91 -86q-56 0 -56 54q0 14 4 32q18 87 88 87z" />
<glyph unicode="&#x5ba;" horiz-adv-x="0" d="M644 1564q59 0 59 -56q0 -14 -4 -31q-18 -86 -91 -86q-56 0 -56 54q0 14 4 32q18 87 88 87z" />
<glyph unicode="&#x5bb;" horiz-adv-x="0" d="M513 -92q58 0 58 -56q0 -14 -4 -31q-18 -86 -91 -86q-56 0 -56 54q0 14 4 32q18 87 89 87zM644 -243q59 0 59 -56q0 -14 -4 -31q-18 -86 -91 -86q-56 0 -56 54q0 14 4 32q18 87 88 87zM778 -395q59 0 59 -56q0 -14 -4 -31q-18 -86 -92 -86q-55 0 -55 54q0 14 4 32 q18 87 88 87z" />
<glyph unicode="&#x5bc;" horiz-adv-x="0" d="M644 735q59 0 59 -56q0 -14 -4 -31q-18 -86 -91 -86q-56 0 -56 54q0 14 4 32q18 87 88 87z" />
<glyph unicode="&#x5bd;" horiz-adv-x="1256" d="M642 -509h-103l74 352h103z" />
<glyph unicode="&#x5be;" horiz-adv-x="659" d="M559 1138h-491l32 152h491z" />
<glyph unicode="&#x5c1;" horiz-adv-x="0" d="M590 1564q59 0 59 -56q0 -14 -4 -31q-18 -86 -91 -86q-56 0 -56 54q0 14 4 32q18 87 88 87z" />
<glyph unicode="&#x5c2;" horiz-adv-x="0" d="M644 1564q59 0 59 -56q0 -14 -4 -31q-18 -86 -91 -86q-56 0 -56 54q0 14 4 32q18 87 88 87z" />
<glyph unicode="&#x5c7;" horiz-adv-x="0" d="M535 -210h-161l-49 -234h-93l49 234h-156l21 100h410z" />
<glyph unicode="&#x5d0;" horiz-adv-x="1157" d="M1180 1290l-89 -419q-47 -217 -125 -317q-33 -42 -84 -80t-115 -61l161 -413h-187l-201 539l-103 228q-43 -15 -64 -30q-112 -77 -150 -258l-102 -479h-166l89 419q14 66 29 116.5t42.5 108.5t62.5 100.5t90 80t124 59.5l-162 406h188l190 -499l112 -259q80 41 130 114 q39 57 62 165l102 479h166z" />
<glyph unicode="&#x5d1;" horiz-adv-x="1093" d="M238 1295q163 15 378 15t298 -94q54 -59 54 -170q0 -65 -18 -146l-164 -771h147l-27 -129h-943l27 129h630l165 773q12 57 12 97.5t-11.5 69t-30.5 48.5t-49 31q-59 21 -139 21q-164 0 -307 -11l-52 -4z" />
<glyph unicode="&#x5d2;" horiz-adv-x="857" d="M532 1310q253 0 253 -225q0 -53 -14 -118l-205 -967h-137l27 218h-8q-15 -25 -62 -74.5t-88.5 -81t-104 -57t-115.5 -25.5q-102 0 -147 13l57 152q39 -13 134 -13q70 0 161 58q49 32 93.5 76.5t82 113.5t54.5 150l89 423q10 44 10 78.5t-11.5 69.5t-49.5 55t-100 20 q-58 0 -130 -18l28 131q84 21 183 21z" />
<glyph unicode="&#x5d3;" horiz-adv-x="1033" d="M1122 1290l-24 -114q-219 -59 -267 -288l-189 -888h-166l189 888q13 59 37.5 108.5t50.5 77.5q53 58 89 75l16 7l1 5h-706l27 129h942z" />
<glyph unicode="&#x5d4;" horiz-adv-x="1257" d="M1120 1176q48 -72 48 -169q0 -49 -13 -107l-191 -900h-166l192 902q9 33 9 53t-3 43.5t-14.5 51.5t-35 48.5t-50.5 34t-62 21.5q-67 15 -142 15q-163 0 -356 -11l-70 -4l30 141q236 15 429 15q304 0 395 -134zM187 0h-166l175 823h166z" />
<glyph unicode="&#x5d5;" horiz-adv-x="486" d="M189 0h-166l274 1290h166z" />
<glyph unicode="&#x5d6;" horiz-adv-x="612" d="M702 1290l-27 -129q-22 -9 -57.5 -42.5t-63.5 -73t-60 -114.5t-51 -166l-163 -765h-166l162 763q15 71 47 138t67 111q75 96 119 128l21 16l1 5h-309l27 129h453z" />
<glyph unicode="&#x5d7;" horiz-adv-x="1257" d="M1120 1176q48 -72 48 -169q0 -49 -13 -107l-191 -900h-166l192 902q9 33 9 53t-3 43.5t-14.5 51.5t-35 48.5t-50.5 34t-62 21.5q-67 15 -146 15l-255 -9l-246 -1160h-166l275 1295q236 15 429 15q304 0 395 -134z" />
<glyph unicode="&#x5d8;" horiz-adv-x="1252" d="M671 1297q61 13 155 13t172.5 -38.5t129.5 -119.5q60 -97 60 -258q0 -109 -32 -263.5t-99 -284.5t-153.5 -208.5t-184 -118t-203.5 -39.5t-186.5 38.5t-134.5 119.5q-68 101 -68 270q0 105 27 237l137 645h172l-137 -645q-27 -127 -27 -220q0 -124 39 -198 q27 -49 79 -78.5t128 -29.5t140.5 29.5t111.5 78.5t85 119q94 171 128 430q9 65 9 126t-13.5 107.5t-39.5 84.5q-52 77 -180 77q-82 0 -144 -10z" />
<glyph unicode="&#x5d9;" horiz-adv-x="453" d="M311 606l-168 -170h-34l182 854h166z" />
<glyph unicode="&#x5da;" horiz-adv-x="971" d="M480 1310q84 0 150.5 -20t109 -53.5t70.5 -80.5q60 -97 60 -248q0 -70 -17 -152l-266 -1248h-166l262 1228q19 85 19 165q0 64 -19 116t-46 80t-75.5 47t-122 19t-147.5 -12.5t-106 -25.5l-33 -13l32 148q36 18 123.5 34t171.5 16z" />
<glyph unicode="&#x5db;" horiz-adv-x="934" d="M491 1310q84 0 150.5 -20t109 -53.5t71.5 -80.5q60 -96 60 -248q0 -72 -17 -152l-47 -219q-6 -26 -12.5 -52.5t-29 -86t-50.5 -109.5t-78 -110t-109.5 -101.5t-147.5 -69.5t-179 -28t-158.5 9t-93.5 19l-27 9l31 150q122 -42 278 -42q83 0 153 33.5t112 79.5t75 108 q50 94 71 194l41 196q19 85 19 168q0 64 -18.5 114.5t-45.5 78.5t-75.5 47t-122 19t-147.5 -12.5t-106 -25.5l-33 -13l32 148q36 18 123 34t171 16z" />
<glyph unicode="&#x5dc;" horiz-adv-x="975" d="M377 1290h679l-27 -129l-314 -660l-210 -501h-168l210 501l316 660h-679l83 393h166z" />
<glyph unicode="&#x5dd;" horiz-adv-x="1257" d="M741 1310q190 0 293 -49q91 -44 119 -109q24 -57 24 -104t-10 -90l-203 -958h-943l272 1283q181 27 448 27zM996 934q8 34 8 61.5t-5.5 47.5t-15 37.5t-25 30t-32.5 22.5t-40 16t-44.5 10t-49.5 6q-54 4 -106 4q-115 0 -216 -8l-37 -3l-219 -1029h611z" />
<glyph unicode="&#x5de;" horiz-adv-x="1228" d="M440 1154h7q99 99 254 139q66 17 134 17q189 0 259 -114q44 -71 44 -175q0 -63 -16 -139l-187 -882h-440l27 129h274l159 746q12 48 12 76q0 84 -24 129q-49 90 -196 90q-47 0 -96 -16.5t-85 -39.5q-77 -51 -112 -88l-15 -16l-309 -1010h-167l305 992q10 35 10 111.5 t-9 124.5l-13 62h167q17 -42 17 -136z" />
<glyph unicode="&#x5df;" horiz-adv-x="463" d="M388 1288q11 -51 11 -103.5t-1 -86.5q-2 -102 -23 -200l-295 -1390h-166l295 1390q25 122 25 212.5t-12 177.5h166z" />
<glyph unicode="&#x5e0;" horiz-adv-x="879" d="M558 1310q253 0 253 -225q0 -53 -14 -118l-138 -652q-17 -81 -43.5 -160t-44.5 -117l-18 -38h-594l27 129h446q36 75 60 186l135 638q16 68 8.5 110.5t-23.5 63.5t-50.5 35t-73.5 14q-69 0 -141 -18l28 131q84 21 183 21z" />
<glyph unicode="&#x5e1;" horiz-adv-x="1190" d="M736 1310q228 0 328 -158q62 -97 62 -258q0 -109 -32 -263.5t-99 -284.5t-153.5 -208.5t-184 -118t-203.5 -39.5t-186.5 38.5t-134.5 119.5q-68 101 -68 270q0 105 27 237q40 187 110 316.5t147 198.5l-129 -8l30 141q214 17 486 17zM363.5 934.5 q-69.5 -146.5 -98 -281.5t-28.5 -232q0 -120 39 -194q27 -49 79 -78.5t128 -29.5t141 29.5t111.5 78.5t84.5 119q97 173 128 430q8 57 8 88v34q-1 116 -58 193q-58 77 -192 77l-179 -2q-94 -85 -163.5 -231.5z" />
<glyph unicode="&#x5e2;" horiz-adv-x="1256" d="M473 1290l30 -582q0 -119 6 -536q317 108 452 555l169 562h166l-168 -562q-68 -228 -174 -370q-42 -57 -106 -118t-139 -106t-178.5 -81t-222.5 -52l-381 -52l28 131l404 61l-58 1150h172z" />
<glyph unicode="&#x5e3;" horiz-adv-x="1206" d="M114 738q0 51 16 125.5t60 150.5t103 129.5t129 91.5q140 75 289 75q215 0 317 -158q65 -99 65 -263q0 -107 -28 -244l-242 -1137h-165l242 1137q27 127 27 220q0 124 -39 198q-27 49 -79 78.5t-135.5 29.5t-158 -30.5t-121.5 -80.5q-91 -97 -114 -211 q-11 -52 -11 -106.5t27 -96.5q46 -69 173 -93l42 -8l-53 -123l-37 5q-170 23 -251 131q-56 72 -56 180z" />
<glyph unicode="&#x5e4;" horiz-adv-x="1173" d="M122 738q0 51 13 111q23 110 85 200t144 145q171 116 355 116q216 0 321 -158q68 -101 68 -270q0 -105 -31.5 -255.5t-98.5 -280.5t-154 -208q-173 -158 -387 -158q-170 0 -323 20l-48 7l31 143q0 -1 47 -8.5t138.5 -15t175 -7.5t148.5 29.5t112 78.5t86 119 q68 122 105 299q27 127 27 220q0 124 -40 198q-26 49 -78 78.5t-126.5 29.5t-138 -20.5t-107 -53t-77.5 -75.5q-61 -79 -81 -173q-11 -51 -11 -105.5t29 -97.5q45 -69 171 -93l43 -8l-53 -123l-37 5q-171 23 -252 131q-56 72 -56 180z" />
<glyph unicode="&#x5e5;" horiz-adv-x="959" d="M425 676q6 -50 6 -73v-29l117 38q159 48 208 278l85 399h166l-72 -339q-14 -68 -31.5 -122.5t-49 -113.5t-72 -103t-102.5 -81t-140 -56l-128 -33l-198 -933h-166l227 1069l-117 713h177z" />
<glyph unicode="&#x5e6;" horiz-adv-x="1125" d="M1170 1293q-64 -207 -76 -247l-18 -60q-21 -69 -39 -110t-37 -80t-38 -67t-45 -62t-55 -60q-65 -60 -139 -94l191 -384l-27 -129h-949l27 129h550l226 -11l1 4l-238 451l-302 717h189l254 -621l22 -45q87 46 149.5 154t116.5 284l71 231h166z" />
<glyph unicode="&#x5e7;" horiz-adv-x="1170" d="M1224 1162l-258 -510q-159 -318 -198 -406q-74 -170 -82 -212l-8 -34h-165l8 34q13 67 73 195t88 184q103 210 129 259l247 490h-783l27 128h949zM90 -493h-165l268 1264h165z" />
<glyph unicode="&#x5e8;" horiz-adv-x="980" d="M191 1303q142 7 252.5 7t181 -13.5t129 -43.5t90.5 -77q48 -72 48 -169q0 -49 -13 -107l-191 -900h-166l192 902q9 33 9 53t-3 43.5t-14.5 51.5t-35 48.5t-50.5 34t-62 21.5q-67 15 -160.5 15t-236.5 -7z" />
<glyph unicode="&#x5e9;" horiz-adv-x="1473" d="M554 129q197 0 362 139q83 70 152 187t116 272l171 562h165l-169 -562q-70 -233 -189 -395q-46 -63 -113.5 -126t-145.5 -107t-182 -71.5t-221 -27.5h-428l167 1290h168l-93 -721l142 44q165 50 236 278l124 399h166l-105 -339q-70 -226 -187 -339q-45 -44 -110.5 -81 t-145.5 -56l-138 -35l-40 -311h298z" />
<glyph unicode="&#x5ea;" horiz-adv-x="1296" d="M1209 996q0 -38 -13 -96l-192 -900h-167l192 902q8 37 8 70.5t-9 61.5q-19 55 -66 83q-87 52 -233 52q-44 0 -160 -6l-179 -843q-33 -158 -124 -246t-237 -88q-41 0 -97 14l29 137q73 -10 79 -10q144 0 179 170l182 853l-144 -13l30 141q286 32 479.5 32t303.5 -57 q139 -72 139 -257z" />
<glyph unicode="&#x5f3;" horiz-adv-x="348" d="M473 1268q-95 -215 -270 -479h-129q136 303 203 501h188z" />
<glyph unicode="&#x5f4;" horiz-adv-x="717" d="M473 1268q-95 -215 -270 -479h-129q136 303 203 501h188zM834 1290l10 -22q-96 -210 -274 -479h-127q51 112 113 267t89 234h189z" />
<glyph unicode="&#x2013;" horiz-adv-x="983" d="M90 629h823l-34 -160h-824z" />
<glyph unicode="&#x2014;" horiz-adv-x="1966" d="M90 629h1806l-34 -160h-1807z" />
<glyph unicode="&#x2018;" horiz-adv-x="348" d="M129 961l-6 22q96 208 270 479h127q-150 -352 -203 -501h-188z" />
<glyph unicode="&#x2019;" horiz-adv-x="348" d="M524 1440q-95 -215 -270 -479h-129q136 303 203 501h188z" />
<glyph unicode="&#x201a;" horiz-adv-x="492" d="M291 238l8 -23q-111 -232 -270 -479h-129q127 289 204 502h187z" />
<glyph unicode="&#x201c;" horiz-adv-x="719" d="M129 961l-6 22q96 208 270 479h127q-150 -352 -203 -501h-188zM500 961l-8 22q77 176 272 479h127q-164 -385 -203 -501h-188z" />
<glyph unicode="&#x201d;" horiz-adv-x="719" d="M524 1440q-95 -215 -270 -479h-129q136 303 203 501h188zM885 1462l10 -22q-96 -210 -274 -479h-127q51 112 113 267t89 234h189z" />
<glyph unicode="&#x201e;" horiz-adv-x="858" d="M291 238l8 -23q-111 -232 -270 -479h-129q127 289 204 502h187zM659 238l9 -23q-90 -196 -271 -479h-129q142 323 203 502h188z" />
<glyph unicode="&#x2020;" horiz-adv-x="954" d="M623 1026l-166 -1026h-207l272 1028l-305 -33l35 174l293 -32l37 419h206l-143 -419l326 32l-35 -174z" />
<glyph unicode="&#x2021;" horiz-adv-x="975" d="M854 518l-37 -172l-315 31l-27 -377h-207l133 377l-323 -31l37 172l311 -31l18 299l103 283l-324 -33l39 174l311 -32l27 378h207l-133 -378l327 32l-38 -174l-314 33l-14 -283l-107 -299z" />
<glyph unicode="&#x2022;" horiz-adv-x="774" d="M199 684q0 146 73.5 231.5t198.5 85.5q92 0 139 -48.5t47 -141.5q0 -141 -74 -230t-202 -89q-89 0 -135.5 49.5t-46.5 142.5z" />
<glyph unicode="&#x2026;" horiz-adv-x="1563" d="M43 74q0 78 40.5 123t111.5 45q44 0 70 -26.5t26 -88.5t-40.5 -109t-107.5 -47q-47 0 -73.5 26.5t-26.5 76.5zM563 74q0 78 40.5 123t111.5 45q44 0 70 -26.5t26 -88.5t-40.5 -109t-107.5 -47q-47 0 -73.5 26.5t-26.5 76.5zM1085 74q0 78 40.5 123t111.5 45 q44 0 70 -26.5t26 -88.5t-40.5 -109t-107.5 -47q-47 0 -73.5 26.5t-26.5 76.5z" />
<glyph unicode="&#x2030;" horiz-adv-x="2288" d="M791 1206q0 -105 -31.5 -235t-83.5 -220q-107 -186 -277 -186q-110 0 -170.5 76t-60.5 230t50 307q102 305 337 305q115 0 175.5 -71.5t60.5 -205.5zM383 0h-152l1086 1462h151zM543 1358q-67 0 -120 -64t-84.5 -188.5t-31.5 -241.5q0 -172 107 -172q104 0 167 153 q32 75 51 174t19 173q0 166 -108 166zM1532 621q0 -105 -32 -236t-82 -218q-107 -187 -277 -187q-111 0 -171.5 75t-60.5 229.5t50 307.5q102 305 337 305q116 0 176 -71t60 -205zM2195 621q0 -105 -32 -236t-82 -218q-107 -187 -277 -187q-110 0 -170.5 75.5t-60.5 229.5 t50 307q102 305 337 305q115 0 175 -71t60 -205zM1284 772q-67 0 -120 -65t-84 -188t-31 -240q0 -173 106 -173q64 0 116 64t87 199t35 237q0 166 -109 166zM1948 772q-67 0 -120 -64t-84.5 -187t-31.5 -242q0 -173 107 -173q104 0 167 153q32 75 51 174t19 173 q0 166 -108 166z" />
<glyph unicode="&#x2039;" horiz-adv-x="580" d="M479 958l78 -81l-297 -334l172 -381l-113 -49l-231 436v29z" />
<glyph unicode="&#x203a;" horiz-adv-x="580" d="M100 115l-77 82l296 333l-172 381l113 50l232 -437v-28z" />
<glyph unicode="&#x2044;" horiz-adv-x="268" d="M-334 0h-153l1085 1462h154z" />
<glyph unicode="&#x20aa;" horiz-adv-x="1604" d="M775 1289q230 0 309 -81q61 -61 61 -170q0 -60 -17 -138l-109 -513h-166l110 515q11 48 11 84.5t-7 62.5t-22.5 46t-36.5 32.5t-50 20.5q-50 12 -133 12h-289l-247 -1160h-166l274 1289h478zM656 0h-262l192 903h166l-165 -774h123q201 0 357 138q79 70 140 187.5 t94 272.5l119 562h167l-119 -562q-69 -324 -272 -521q-65 -63 -141 -107.5t-179 -71.5t-220 -27z" />
<glyph unicode="&#x20ac;" d="M928 1329q-142 0 -255.5 -100t-187.5 -297h426l-26 -133h-441q-22 -67 -32 -164h381l-29 -131h-361q0 -373 297 -373q124 0 256 55v-147q-129 -59 -278 -59q-212 0 -329 133q-116 134 -116 379v12h-170l27 131h154q8 80 30 164h-151l27 133h159q97 266 259 407.5 t370 141.5q89 0 160 -21.5t141 -70.5l-80 -138q-113 78 -231 78z" />
<glyph unicode="&#x2122;" horiz-adv-x="1534" d="M317 741v617h-196v104h516v-104h-199v-617h-121zM823 1171v-430h-118v721h180l182 -557l193 557h170v-721h-121v430q0 78 4 121h-6l-197 -551h-96l-189 551h-6q4 -47 4 -121z" />
<glyph unicode="&#x222b;" horiz-adv-x="786" d="M340 -121v1307q0 370 324 370q83 0 122 -16v-137q-45 22 -110 22q-178 0 -178 -239v-1301q0 -185 -85 -281t-249 -96q-70 0 -125 15v139q62 -20 111 -20q94 0 142 60.5t48 176.5z" />
<glyph unicode="&#x2260;" d="M127 444v142h317l127 272h-444v139h510l133 285l129 -57l-106 -228h254v-139h-320l-129 -272h449v-142h-515l-129 -278l-129 53l105 225h-252z" />
<glyph unicode="&#x25ca;" horiz-adv-x="1194" d="M674 0h-72l-450 735l450 740h72l452 -738zM639 1262l-313 -525l313 -526l313 526z" />
<glyph unicode="&#x25fc;" horiz-adv-x="1095" d="M0 1095h1095v-1095h-1095v1095z" />
<glyph unicode="&#xfb01;" horiz-adv-x="1161" d="M-104 -492q-70 0 -125 21v141q63 -22 112 -22q73 0 115 59t68 180l227 1082h-193l13 67l206 66l23 100q47 200 127 282q83 83 242 83q40 0 96 -11t92 -26l-43 -129q-78 29 -137 29q-88 0 -134.5 -48.5t-74.5 -177.5l-25 -108h238l-25 -127h-237l-232 -1098 q-39 -188 -119.5 -275.5t-213.5 -87.5zM1006.5 1307q-25.5 25 -25.5 75t32 85.5t83 35.5q88 0 88 -90q0 -56 -33.5 -93.5t-76 -37.5t-68 25zM700 0l234 1096h168l-234 -1096h-168z" />
<glyph unicode="&#xfb02;" horiz-adv-x="1161" d="M-104 -492q-70 0 -125 21v141q63 -22 112 -22q73 0 115 59t68 180l227 1082h-193l13 67l206 66l23 100q47 200 127 282q83 83 242 83q40 0 96 -11t92 -26l-43 -129q-78 29 -137 29q-88 0 -134.5 -48.5t-74.5 -177.5l-25 -108h238l-25 -127h-237l-232 -1098 q-39 -188 -119.5 -275.5t-213.5 -87.5zM1030 1556h168l-332 -1556h-168z" />
<glyph unicode="&#xfb2a;" horiz-adv-x="1473" d="M1540 1606q59 0 59 -56q0 -14 -4 -31q-18 -86 -91 -86q-56 0 -56 54q0 14 4 32q18 87 88 87zM554 129q197 0 362 139q83 70 152 187t116 272l171 562h165l-169 -562q-70 -233 -189 -395q-46 -63 -113.5 -126t-145.5 -107t-182 -71.5t-221 -27.5h-428l167 1290h168 l-93 -721l142 44q165 50 236 278l124 399h166l-105 -339q-70 -226 -187 -339q-45 -44 -110.5 -81t-145.5 -56l-138 -35l-40 -311h298z" />
<glyph unicode="&#xfb2b;" horiz-adv-x="1473" d="M356 1606q59 0 59 -56q0 -14 -4 -31q-18 -86 -91 -86q-56 0 -56 54q0 14 4 32q18 87 88 87zM554 129q197 0 362 139q83 70 152 187t116 272l171 562h165l-169 -562q-70 -233 -189 -395q-46 -63 -113.5 -126t-145.5 -107t-182 -71.5t-221 -27.5h-428l167 1290h168 l-93 -721l142 44q165 50 236 278l124 399h166l-105 -339q-70 -226 -187 -339q-45 -44 -110.5 -81t-145.5 -56l-138 -35l-40 -311h298z" />
<glyph unicode="&#xfb2c;" horiz-adv-x="1473" d="M1540 1606q59 0 59 -56q0 -14 -4 -31q-18 -86 -91 -86q-56 0 -56 54q0 14 4 32q18 87 88 87zM554 129q197 0 362 139q83 70 152 187t116 272l171 562h165l-169 -562q-70 -233 -189 -395q-46 -63 -113.5 -126t-145.5 -107t-182 -71.5t-221 -27.5h-428l167 1290h168 l-93 -721l142 44q165 50 236 278l124 399h166l-105 -339q-70 -226 -187 -339q-45 -44 -110.5 -81t-145.5 -56l-138 -35l-40 -311h298zM777 519q59 0 59 -56q0 -14 -4 -31q-18 -86 -91 -86q-56 0 -56 54q0 14 4 32q18 87 88 87z" />
<glyph unicode="&#xfb2d;" horiz-adv-x="1473" d="M356 1606q59 0 59 -56q0 -14 -4 -31q-18 -86 -91 -86q-56 0 -56 54q0 14 4 32q18 87 88 87zM554 129q197 0 362 139q83 70 152 187t116 272l171 562h165l-169 -562q-70 -233 -189 -395q-46 -63 -113.5 -126t-145.5 -107t-182 -71.5t-221 -27.5h-428l167 1290h168 l-93 -721l142 44q165 50 236 278l124 399h166l-105 -339q-70 -226 -187 -339q-45 -44 -110.5 -81t-145.5 -56l-138 -35l-40 -311h298zM777 519q59 0 59 -56q0 -14 -4 -31q-18 -86 -91 -86q-56 0 -56 54q0 14 4 32q18 87 88 87z" />
<glyph unicode="&#xfb2e;" horiz-adv-x="1157" d="M1180 1290l-89 -419q-47 -217 -125 -317q-33 -42 -84 -80t-115 -61l161 -413h-187l-201 539l-103 228q-43 -15 -64 -30q-112 -77 -150 -258l-102 -479h-166l89 419q14 66 29 116.5t42.5 108.5t62.5 100.5t90 80t124 59.5l-162 406h188l190 -499l112 -259q80 41 130 114 q39 57 62 165l102 479h166zM597 -225h-410l18 82h410z" />
<glyph unicode="&#xfb2f;" horiz-adv-x="1157" d="M1180 1290l-89 -419q-47 -217 -125 -317q-33 -42 -84 -80t-115 -61l161 -413h-187l-201 539l-103 228q-43 -15 -64 -30q-112 -77 -150 -258l-102 -479h-166l89 419q14 66 29 116.5t42.5 108.5t62.5 100.5t90 80t124 59.5l-162 406h188l190 -499l112 -259q80 41 130 114 q39 57 62 165l102 479h166zM598 -225h-164l-49 -232h-82l49 232h-164l17 82h410z" />
<glyph unicode="&#xfb30;" horiz-adv-x="1157" d="M1180 1290l-89 -419q-47 -217 -125 -317q-33 -42 -84 -80t-115 -61l161 -413h-187l-201 539l-103 228q-43 -15 -64 -30q-112 -77 -150 -258l-102 -479h-166l89 419q14 66 29 116.5t42.5 108.5t62.5 100.5t90 80t124 59.5l-162 406h188l190 -499l112 -259q80 41 130 114 q39 57 62 165l102 479h166zM425 461q59 0 59 -56q0 -14 -4 -31q-18 -86 -91 -86q-56 0 -56 54q0 14 4 32q18 87 88 87z" />
<glyph unicode="&#xfb31;" horiz-adv-x="1093" d="M238 1295q163 15 378 15t298 -94q54 -59 54 -170q0 -65 -18 -146l-164 -771h147l-27 -129h-943l27 129h630l165 773q12 57 12 97.5t-11.5 69t-30.5 48.5t-49 31q-59 21 -139 21q-164 0 -307 -11l-52 -4zM415 752q59 0 59 -56q0 -14 -4 -31q-18 -86 -91 -86q-56 0 -56 54 q0 14 4 32q18 87 88 87z" />
<glyph unicode="&#xfb32;" horiz-adv-x="857" d="M532 1310q253 0 253 -225q0 -53 -14 -118l-205 -967h-137l27 218h-8q-15 -25 -62 -74.5t-88.5 -81t-104 -57t-115.5 -25.5q-102 0 -147 13l57 152q39 -13 134 -13q70 0 161 58q49 32 93.5 76.5t82 113.5t54.5 150l89 423q10 44 10 78.5t-11.5 69.5t-49.5 55t-100 20 q-58 0 -130 -18l28 131q84 21 183 21zM353 752q59 0 59 -56q0 -14 -4 -31q-18 -86 -91 -86q-56 0 -56 54q0 14 4 32q18 87 88 87z" />
<glyph unicode="&#xfb33;" horiz-adv-x="1033" d="M1122 1290l-24 -114q-219 -59 -267 -288l-189 -888h-166l189 888q13 59 37.5 108.5t50.5 77.5q53 58 89 75l16 7l1 5h-706l27 129h942zM359 752q59 0 59 -56q0 -14 -4 -31q-18 -86 -91 -86q-56 0 -56 54q0 14 4 32q18 87 88 87z" />
<glyph unicode="&#xfb34;" horiz-adv-x="1257" d="M1120 1176q48 -72 48 -169q0 -49 -13 -107l-191 -900h-166l192 902q9 33 9 53t-3 43.5t-14.5 51.5t-35 48.5t-50.5 34t-62 21.5q-67 15 -142 15q-163 0 -356 -11l-70 -4l30 141q236 15 429 15q304 0 395 -134zM21 0l175 823h166l-175 -823h-166zM647 752q59 0 59 -56 q0 -14 -4 -31q-18 -86 -91 -86q-56 0 -56 54q0 14 4 32q18 87 88 87z" />
<glyph unicode="&#xfb35;" horiz-adv-x="486" d="M24 0l274 1290h166l-274 -1290h-166zM2 801q59 0 59 -56q0 -14 -4 -31q-18 -86 -91 -86q-56 0 -56 54q0 14 4 32q18 87 88 87z" />
<glyph unicode="&#xfb36;" horiz-adv-x="612" d="M703 1290l-27 -129q-22 -9 -57.5 -42.5t-63.5 -73t-60 -114.5t-51 -166l-163 -765h-166l162 763q15 71 47 138t67 111q75 96 119 128l21 16l1 5h-309l27 129h453zM69 752q59 0 59 -56q0 -14 -4 -31q-18 -86 -91 -86q-56 0 -56 54q0 14 4 32q18 87 88 87z" />
<glyph unicode="&#xfb38;" horiz-adv-x="1252" d="M671 1297q61 13 155 13t172.5 -38.5t129.5 -119.5q60 -97 60 -258q0 -109 -32 -263.5t-99 -284.5t-153.5 -208.5t-184 -118t-203.5 -39.5t-186.5 38.5t-134.5 119.5q-68 101 -68 270q0 105 27 237l137 645h172l-137 -645q-27 -127 -27 -220q0 -124 39 -198 q27 -49 79 -78.5t128 -29.5t140.5 29.5t111.5 78.5t85 119q94 171 128 430q9 65 9 126t-13.5 107.5t-39.5 84.5q-52 77 -180 77q-82 0 -144 -10zM668 752q59 0 59 -56q0 -14 -4 -31q-18 -86 -91 -86q-56 0 -56 54q0 14 4 32q18 87 88 87z" />
<glyph unicode="&#xfb39;" horiz-adv-x="453" d="M144 436h-34l182 854h166l-146 -684zM44 998q59 0 59 -56q0 -14 -4 -31q-18 -86 -91 -86q-56 0 -56 54q0 14 4 32q18 87 88 87z" />
<glyph unicode="&#xfb3a;" horiz-adv-x="971" d="M480 1310q84 0 150.5 -20t109 -53.5t70.5 -80.5q60 -97 60 -248q0 -70 -17 -152l-266 -1248h-166l262 1228q19 85 19 165q0 64 -19 116t-46 80t-75.5 47t-122 19t-147.5 -12.5t-106 -25.5l-33 -13l32 148q36 18 123.5 34t171.5 16zM349 752q59 0 59 -56q0 -14 -4 -31 q-18 -86 -91 -86q-56 0 -56 54q0 14 4 32q18 87 88 87z" />
<glyph unicode="&#xfb3b;" horiz-adv-x="934" d="M491 1310q84 0 150.5 -20t109 -53.5t71.5 -80.5q60 -96 60 -248q0 -72 -17 -152l-47 -219q-6 -26 -12.5 -52.5t-29 -86t-50.5 -109.5t-78 -110t-109.5 -101.5t-147.5 -69.5t-179 -28t-158.5 9t-93.5 19l-27 9l31 150q122 -42 278 -42q83 0 153 33.5t112 79.5t75 108 q50 94 71 194l41 196q19 85 19 168q0 64 -18.5 114.5t-45.5 78.5t-75.5 47t-122 19t-147.5 -12.5t-106 -25.5l-33 -13l32 148q36 18 123 34t171 16zM362 752q59 0 59 -56q0 -14 -4 -31q-18 -86 -91 -86q-56 0 -56 54q0 14 4 32q18 87 88 87z" />
<glyph unicode="&#xfb3c;" horiz-adv-x="975" d="M1056 1290l-27 -129l-314 -660l-210 -501h-168l210 501l316 660h-679l83 393h166l-56 -264h679zM318 752q59 0 59 -56q0 -14 -4 -31q-18 -86 -91 -86q-56 0 -56 54q0 14 4 32q18 87 88 87z" />
<glyph unicode="&#xfb3e;" horiz-adv-x="1228" d="M440 1154h7q99 99 254 139q66 17 134 17q189 0 259 -114q44 -71 44 -175q0 -63 -16 -139l-187 -882h-440l27 129h274l159 746q12 48 12 76q0 84 -24 129q-49 90 -196 90q-47 0 -96 -16.5t-85 -39.5q-77 -51 -112 -88l-15 -16l-309 -1010h-167l305 992q10 35 10 111.5 t-9 124.5l-13 62h167q17 -42 17 -136zM632 752q59 0 59 -56q0 -14 -4 -31q-18 -86 -91 -86q-56 0 -56 54q0 14 4 32q18 87 88 87z" />
<glyph unicode="&#xfb40;" horiz-adv-x="879" d="M558 1310q253 0 253 -225q0 -53 -14 -118l-138 -652q-17 -81 -43.5 -160t-44.5 -117l-18 -38h-594l27 129h446q36 75 60 186l135 638q16 68 8.5 110.5t-23.5 63.5t-50.5 35t-73.5 14q-69 0 -141 -18l28 131q84 21 183 21zM306 752q59 0 59 -56q0 -14 -4 -31 q-18 -86 -91 -86q-56 0 -56 54q0 14 4 32q18 87 88 87z" />
<glyph unicode="&#xfb41;" horiz-adv-x="1190" d="M736 1310q228 0 328 -158q62 -97 62 -258q0 -109 -32 -263.5t-99 -284.5t-153.5 -208.5t-184 -118t-203.5 -39.5t-186.5 38.5t-134.5 119.5q-68 101 -68 270q0 105 27 237q40 187 110 316.5t147 198.5l-129 -8l30 141q214 17 486 17zM363.5 934.5 q-69.5 -146.5 -98 -281.5t-28.5 -232q0 -120 39 -194q27 -49 79 -78.5t128 -29.5t141 29.5t111.5 78.5t84.5 119q97 173 128 430q8 57 8 88v34q-1 116 -58 193q-58 77 -192 77l-179 -2q-94 -85 -163.5 -231.5zM615 752q59 0 59 -56q0 -14 -4 -31q-18 -86 -91 -86 q-56 0 -56 54q0 14 4 32q18 87 88 87z" />
<glyph unicode="&#xfb43;" horiz-adv-x="1206" d="M114 738q0 51 16 125.5t60 150.5t103 129.5t129 91.5q140 75 289 75q215 0 317 -158q65 -99 65 -263q0 -107 -28 -244l-242 -1137h-165l242 1137q27 127 27 220q0 124 -39 198q-27 49 -79 78.5t-135.5 29.5t-158 -30.5t-121.5 -80.5q-91 -97 -114 -211 q-11 -52 -11 -106.5t27 -96.5q46 -69 173 -93l42 -8l-53 -123l-37 5q-170 23 -251 131q-56 72 -56 180zM623 946q59 0 59 -56q0 -14 -4 -31q-18 -86 -91 -86q-56 0 -56 54q0 14 4 32q18 87 88 87z" />
<glyph unicode="&#xfb44;" horiz-adv-x="1173" d="M122 738q0 51 13 111q23 110 85 200t144 145q171 116 355 116q216 0 321 -158q68 -101 68 -270q0 -105 -31.5 -255.5t-98.5 -280.5t-154 -208q-173 -158 -387 -158q-170 0 -323 20l-48 7l31 143q0 -1 47 -8.5t138.5 -15t175 -7.5t148.5 29.5t112 78.5t86 119 q68 122 105 299q27 127 27 220q0 124 -40 198q-26 49 -78 78.5t-126.5 29.5t-138 -20.5t-107 -53t-77.5 -75.5q-61 -79 -81 -173q-11 -51 -11 -105.5t29 -97.5q45 -69 171 -93l43 -8l-53 -123l-37 5q-171 23 -252 131q-56 72 -56 180zM646 934q59 0 59 -56q0 -14 -4 -31 q-18 -86 -91 -86q-56 0 -56 54q0 14 4 32q18 87 88 87z" />
<glyph unicode="&#xfb46;" horiz-adv-x="1125" d="M1170 1293q-64 -207 -76 -247l-18 -60q-21 -69 -39 -110t-37 -80t-38 -67t-45 -62t-55 -60q-65 -60 -139 -94l191 -384l-27 -129h-949l27 129h550l226 -11l1 4l-238 451l-302 717h189l254 -621l22 -45q87 46 149.5 154t116.5 284l71 231h166zM244 667q59 0 59 -56 q0 -14 -4 -31q-18 -86 -91 -86q-56 0 -56 54q0 14 4 32q18 87 88 87z" />
<glyph unicode="&#xfb47;" horiz-adv-x="1170" d="M1224 1162l-258 -510q-159 -318 -198 -406q-74 -170 -82 -212l-8 -34h-165l8 34q13 67 73 195t88 184q103 210 129 259l247 490h-783l27 128h949zM-75 -493l268 1264h165l-268 -1264h-165zM590 752q59 0 59 -56q0 -14 -4 -31q-18 -86 -91 -86q-56 0 -56 54q0 14 4 32 q18 87 88 87z" />
<glyph unicode="&#xfb48;" horiz-adv-x="980" d="M191 1303q142 7 252.5 7t181 -13.5t129 -43.5t90.5 -77q48 -72 48 -169q0 -49 -13 -107l-191 -900h-166l192 902q9 33 9 53t-3 43.5t-14.5 51.5t-35 48.5t-50.5 34t-62 21.5q-67 15 -160.5 15t-236.5 -7zM349 752q59 0 59 -56q0 -14 -4 -31q-18 -86 -91 -86q-56 0 -56 54 q0 14 4 32q18 87 88 87z" />
<glyph unicode="&#xfb49;" horiz-adv-x="1473" d="M554 129q197 0 362 139q83 70 152 187t116 272l171 562h165l-169 -562q-70 -233 -189 -395q-46 -63 -113.5 -126t-145.5 -107t-182 -71.5t-221 -27.5h-428l167 1290h168l-93 -721l142 44q165 50 236 278l124 399h166l-105 -339q-70 -226 -187 -339q-45 -44 -110.5 -81 t-145.5 -56l-138 -35l-40 -311h298zM777 519q59 0 59 -56q0 -14 -4 -31q-18 -86 -91 -86q-56 0 -56 54q0 14 4 32q18 87 88 87z" />
<glyph unicode="&#xfb4a;" horiz-adv-x="1296" d="M1209 996q0 -38 -13 -96l-192 -900h-167l192 902q8 37 8 70.5t-9 61.5q-19 55 -66 83q-87 52 -233 52q-44 0 -160 -6l-179 -843q-33 -158 -124 -246t-237 -88q-41 0 -97 14l29 137q73 -10 79 -10q144 0 179 170l182 853l-144 -13l30 141q286 32 479.5 32t303.5 -57 q139 -72 139 -257zM735 752q59 0 59 -56q0 -14 -4 -31q-18 -86 -91 -86q-56 0 -56 54q0 14 4 32q18 87 88 87z" />
<glyph unicode="&#xfb4b;" horiz-adv-x="486" d="M407 1606q59 0 59 -56q0 -14 -4 -31q-18 -86 -91 -86q-56 0 -56 54q0 14 4 32q18 87 88 87zM23 0l274 1290h166l-274 -1290h-166z" />
<glyph horiz-adv-x="0" />
</font>
</defs>
</svg>
