<?xml version="1.0" standalone="no"?>
<!DOCTYPE svg PUBLIC "-//W3C//DTD SVG 1.1//EN" "http://www.w3.org/Graphics/SVG/1.1/DTD/svg11.dtd">
<svg xmlns="http://www.w3.org/2000/svg">
<defs >
<font id="Rubik" horiz-adv-x="541" ><font-face
    font-family="Rubik Light"
    units-per-em="1000"
    panose-1="0 0 4 0 0 0 0 0 0 0"
    ascent="935"
    descent="-250"
    alphabetic="0" />
<glyph unicode=" " glyph-name="space" horiz-adv-x="264" />
<glyph unicode="!" glyph-name="exclam" horiz-adv-x="227" d="M63 143T59 149T56 165L165 678Q166 688 173 694T191 700H208Q218 700 223 694T226 678L117 165Q115 155 108 149T90 143H73Q63 143 59 149ZM22 0T17 6T14 22L22 60Q24 70 31 76T49 83H87Q97 83 102
77T105 60L97 22Q95 12 88 6T70 0H32Q22 0 17 6Z" />
<glyph unicode="&quot;" glyph-name="quotedbl" horiz-adv-x="340" d="M120 508T123 527L142 690Q143 699 149 704T165 710H210Q219 710 223 705T225 690L176 527Q174 518 168 513T154 508H135Q120 508 123 527ZM253 508T256 527L275 690Q276 699 282 704T298
710H343Q352 710 356 705T358 690L309 527Q307 518 301 513T287 508H268Q253 508 256 527Z" />
<glyph unicode="#" glyph-name="numbersign" horiz-adv-x="701" d="M136 39T131 45T129 60L177 191H66Q56 191 51 197T48 213L51 227Q53 237 60 243T78 249H197L268 445H146Q136 445 131 451T128 467L131 481Q133 491 140 497T158 503H289L337 634Q340 643 347
649T363 655H381Q390 655 395 649T397 634L349 503H516L564 634Q567 643 574 649T590 655H608Q617 655 622 649T624 634L576 503H685Q695 503 699 497T702 481L699 467Q698 457 691 451T673 445H556L485 249H605Q615 249 619 243T622 227L619 213Q618 203 611 197T593
191H464L417 60Q408 39 390 39H372Q363 39 358 45T356 60L404 191H237L190 60Q181 39 163 39H145Q136 39 131 45ZM258 249H424L495 445H329L258 249Z" />
<glyph unicode="$" glyph-name="dollar" horiz-adv-x="596" d="M190 -100T186 -94T183 -78L198 -8Q109 1 62 45T14 151Q14 164 15 170Q16 178 23 184T40 190H60Q78 190 78 170Q76 140 92 113T145 68T239 50Q334 50 391 85T461 181Q464 193 464 204Q464 234 444
254T386 291T275 333Q187 363 148 398T109 491Q109 517 114 538Q129 611 190 657T348 709L365 778Q367 788 374 794T392 800H411Q421 800 425 794T428 778L411 708Q467 702 505 679T562 624T581 557Q581 549 579 535Q577 527 571 521T554 515H534Q527 515 521 519T516
535Q521 585 481 617T374 650Q296 650 242 620T174 530Q171 515 171 504Q171 474 189 454T243 417T345 377Q441 344 484 309T527 215Q527 198 522 173Q503 87 436 41T260 -9L246 -78Q244 -88 237 -94T219 -100H200Q190 -100 186 -94Z" />
<glyph unicode="%" glyph-name="percent" horiz-adv-x="760" d="M155 345T123 375T90 455Q90 462 92 480Q98 521 111 569Q127 631 169 668T274 705Q331 705 362 676T393 596Q393 578 391 569Q384 525 372 480Q356 418 314 382T209 345Q155 345 123 375ZM42 0T38
4T33 15Q33 24 40 31L671 681Q682 692 689 696T708 700H733Q741 700 745 696T750 685Q750 676 743 669L112 19Q101 8 94 4T75 0H50Q42 0 38 4ZM250 401T278 425T315 483Q322 507 325 525T332 566Q334 582 334 591Q334 649 274 649Q230 649 204 625T168 566Q158
529 151 483Q150 477 150 465Q150 437 163 419T209 401Q250 401 278 425ZM454 -6T422 24T389 104Q389 111 391 129Q397 170 410 218Q426 280 468 317T573 354Q630 354 661 325T692 245Q692 227 690 218Q683 174 671 129Q655 67 613 31T508 -6Q454 -6 422 24ZM549
50T577 74T614 132Q621 156 624 174T631 215Q633 231 633 240Q633 298 573 298Q529 298 503 274T467 215Q457 178 450 132Q449 126 449 114Q449 86 462 68T508 50Q549 50 577 74Z" />
<glyph unicode="&amp;" glyph-name="ampersand" horiz-adv-x="674" d="M146 -10T97 32T47 144Q47 165 51 184Q65 248 112 291T236 375Q204 419 190 450T176 514Q176 533 180 550Q189 593 219 630T294 688T388 710Q454 710 493 676T532 585Q532 566 528 550Q515
487 466 447T331 363L483 176Q542 250 573 344Q576 354 583 360T600 366H619Q629 366 633 360T636 344Q609 232 519 131L597 35Q602 28 602 22Q602 12 596 6T578 0H556Q538 0 530 10L472 84Q422 41 361 16T230 -10Q146 -10 97 32ZM354 435T388 456T445 506T467
572Q467 608 442 629T375 650Q341 650 311 635T261 592T241 527Q241 503 253 476T298 407Q354 435 388 456ZM290 50T339 70T436 129L269 332Q192 293 152 254T111 156Q111 106 148 78T243 50Q290 50 339 70Z" />
<glyph unicode="&apos;" glyph-name="quotesingle" horiz-adv-x="207" d="M120 508T123 527L142 690Q143 699 149 704T165 710H210Q219 710 223 705T225 690L175 524Q173 515 169 512T156 508H135Q120 508 123 527Z" />
<glyph unicode="(" glyph-name="parenleft" horiz-adv-x="317" d="M97 -159T63 -113T28 31Q28 132 65 309Q102 484 138 582T229 728T372 776Q381 776 386 770T390 754L387 740Q385 731 378 725T363 718Q305 718 265 682T192 557T124 309Q86 132 86 37Q86 -38 111
-69T189 -101Q196 -101 200 -107T203 -123L200 -137Q199 -146 191 -152T174 -159Q97 -159 63 -113Z" />
<glyph unicode=")" glyph-name="parenright" horiz-adv-x="317" d="M-60 -159T-65 -153T-69 -137L-66 -123Q-64 -114 -57 -108T-42 -101Q16 -101 56 -65T129 60T197 308Q235 485 235 580Q235 655 210 686T132 718Q125 718 121 724T118 740L121 754Q122 763 130
769T147 776Q224 776 258 730T293 586Q293 485 256 308Q219 133 183 35T92 -111T-51 -159Q-60 -159 -65 -153Z" />
<glyph unicode="*" glyph-name="asterisk" horiz-adv-x="446" d="M264 700Q264 713 272 721T292 730H331Q349 730 349 713Q349 706 346 700L304 596L408 647Q416 652 426 652Q438 652 441 637L446 596Q448 574 420 570L309 555L371 484Q378 475 378 467Q378 456
366 448L327 423Q320 419 313 419Q306 419 301 423T295 435L269 531L200 431Q196 425 190 421T178 417Q171 417 166 422L138 448Q132 454 132 461Q132 473 147 484L239 556L138 569Q130 570 125 575T119 588Q119 593 122 599L145 640Q152 653 165 653Q170 653 175
650L261 597L264 700Z" />
<glyph unicode="+" glyph-name="plus" horiz-adv-x="622" d="M238 33T233 39T230 55L277 274H60Q50 274 45 280T42 296L45 310Q47 320 54 326T72 332H289L334 545Q336 555 343 561T361 567H376Q386 567 390 561T393 545L348 332H566Q576 332 580 326T583 310L580
296Q579 286 572 280T554 274H336L289 55Q287 45 280 39T263 33H248Q238 33 233 39Z" />
<glyph unicode="," glyph-name="comma" horiz-adv-x="237" d="M44 93T64 93H109Q116 93 119 87T119 73L46 -54Q40 -65 34 -70T16 -75H-1Q-13 -75 -13 -63L-11 -54L34 66Q44 93 64 93Z" />
<glyph unicode="-" glyph-name="hyphen" horiz-adv-x="488" d="M80 271T76 277T73 293L76 307Q78 317 85 323T102 329H397Q407 329 412 323T415 307L412 293Q410 283 403 277T385 271H90Q80 271 76 277Z" />
<glyph unicode="." glyph-name="period" horiz-adv-x="234" d="M25 0T20 6T17 22L27 70Q29 80 36 86T54 93H102Q112 93 117 87T120 70L110 22Q108 12 101 6T83 0H35Q25 0 20 6Z" />
<glyph unicode="/" glyph-name="slash" horiz-adv-x="465" d="M-38 -84T-43 -80T-49 -69Q-49 -63 -44 -55L477 771Q480 776 486 781T502 786H519Q526 786 531 782T537 771Q537 765 532 757L11 -69Q8 -74 2 -79T-14 -84H-31Q-38 -84 -43 -80Z" />
<glyph unicode="0" glyph-name="zero" horiz-adv-x="614" d="M152 -10T102 37T52 179Q52 218 61 266Q78 356 97 434Q130 574 201 642T388 710Q483 710 533 662T583 519Q583 475 575 434Q558 344 539 266Q505 125 434 58T248 -10Q152 -10 102 37ZM335 50T392 103T477
271Q496 347 511 429Q520 480 520 519Q520 587 489 618T388 650Q300 650 244 597T159 429Q140 354 125 271Q116 219 116 180Q116 112 147 81T248 50Q335 50 392 103Z" />
<glyph unicode="1" glyph-name="one" horiz-adv-x="394" d="M199 0T194 6T191 22L316 610L112 476Q102 471 96 471Q86 471 81 480L71 498Q68 503 68 508Q68 520 82 529L330 693Q338 698 342 699T355 700H376Q386 700 391 694T394 678L254 22Q252 12 245 6T228
0H209Q199 0 194 6Z" />
<glyph unicode="2" glyph-name="two" horiz-adv-x="560" d="M15 0T11 6T8 22L11 37Q16 57 45 79L359 338Q425 389 451 424T488 507Q492 526 492 546Q492 596 461 623T370 650Q303 650 255 611T185 506Q181 495 173 489T157 483H137Q127 483 123 488T120 502Q132
551 166 599T256 678T383 710Q472 710 514 669T557 560Q557 534 551 507Q539 448 503 400T398 298L113 60H448Q458 60 463 54T466 37L463 22Q461 12 453 6T435 0H25Q15 0 11 6Z" />
<glyph unicode="3" glyph-name="three" horiz-adv-x="576" d="M169 -10T123 10T54 63T30 138Q30 145 32 161Q34 170 41 175T57 180H71Q93 180 94 157Q95 98 139 74T248 50Q328 50 384 88T455 198Q459 217 459 237Q459 336 319 336H231Q221 336 216 342T213 358L216
373Q220 386 231 397L488 640H186Q176 640 172 646T169 662L172 677Q174 687 181 693T199 700H572Q582 700 587 694T590 677L587 662Q585 653 575 643L311 396H331Q422 396 473 359T524 250Q524 227 518 198Q504 134 464 87T364 15T235 -10Q169 -10 123 10Z" />
<glyph unicode="4" glyph-name="four" horiz-adv-x="593" d="M334 0T329 6T326 22L360 180H30Q20 180 15 186T12 202L16 218Q17 220 18 225T22 235T29 244L430 683Q445 700 470 700H511Q521 700 526 694T529 678L436 240H527Q537 240 541 234T544 218L540 202Q539
192 532 186T514 180H423L389 22Q387 12 380 6T363 0H344Q334 0 329 6ZM109 240H373L452 616L109 240Z" />
<glyph unicode="5" glyph-name="five" horiz-adv-x="571" d="M124 -10T73 36T22 153Q22 168 23 175Q24 184 31 189T47 194H66Q88 194 86 171Q80 110 120 80T220 50Q300 50 361 96T439 224Q444 245 444 271Q444 328 408 358T305 388Q265 388 238 378T177 349Q160
338 149 333T126 328H108Q99 328 94 334T91 350L190 677Q193 688 200 694T217 700H543Q553 700 558 694T561 678L557 662Q555 652 548 646T531 640H244L174 414Q199 428 228 438T305 448Q395 448 452 403T510 275Q510 251 504 224Q481 110 405 50T220 -10Q124 -10
73 36Z" />
<glyph unicode="6" glyph-name="six" horiz-adv-x="582" d="M150 -10T99 41T48 173Q48 199 54 226Q73 313 155 403L411 680Q412 681 417 687T430 696T446 700H465Q474 700 478 694T480 678Q479 673 477 670T473 665L277 453Q311 461 347 461Q444 461 495 410T546
280Q546 253 540 226Q527 164 488 110T386 23T247 -10Q150 -10 99 41ZM308 50T353 70T432 131T477 226Q482 251 482 268Q482 331 440 366T334 401Q286 401 241 381T162 321T117 226Q112 201 112 184Q112 120 154 85T260 50Q308 50 353 70Z" />
<glyph unicode="7" glyph-name="seven" horiz-adv-x="487" d="M95 0T91 6T89 22Q89 25 93 31L479 640H138Q128 640 124 646T121 662L124 677Q126 687 133 693T151 700H537Q547 700 552 694T555 677L552 662Q549 644 537 625L157 25Q148 12 142 6T125 0H104Q95 0 91 6Z" />
<glyph unicode="8" glyph-name="eight" horiz-adv-x="615" d="M151 -10T92 35T33 158Q33 178 37 197Q49 259 90 305T191 374Q162 393 145 423T128 492Q128 508 131 526Q143 584 181 626T273 689T389 710Q473 710 527 670T582 558Q582 543 579 526Q570 474 540
437T459 374Q497 354 518 316T539 234Q539 213 535 197Q514 98 438 44T248 -10Q151 -10 92 35ZM373 404T418 423T492 476T520 556Q520 600 485 625T389 650Q317 650 262 617T194 526Q190 511 190 494Q190 450 224 427T323 403Q373 404 418 423ZM300 50T347 69T427
121T469 197Q473 219 473 229Q473 282 432 312T323 343Q271 343 223 325T142 274T100 197Q97 181 97 167Q97 112 138 81T248 50Q300 50 347 69Z" />
<glyph unicode="9" glyph-name="nine" horiz-adv-x="572" d="M143 0T139 6T137 22Q138 28 145 35L350 257Q318 249 283 249Q187 249 138 300T89 428Q89 454 95 479Q108 537 146 590T244 676T381 710Q477 710 526 659T576 530Q576 505 570 479Q559 427 534 387T475
311L207 20Q206 19 201 13T188 4T172 0H152Q143 0 139 6ZM343 309T387 330T464 390T507 479Q511 498 511 518Q511 578 471 614T368 650Q321 650 277 629T201 569T158 479Q154 460 154 440Q154 380 193 345T296 309Q343 309 387 330Z" />
<glyph unicode=":" glyph-name="colon" horiz-adv-x="242" d="M98 350T94 356T91 372L101 420Q103 430 110 436T128 443H176Q186 443 191 437T194 420L184 372Q182 362 174 356T156 350H108Q98 350 94 356ZM24 0T19 6T16 22L26 70Q28 80 35 86T53 93H101Q111 93
116 87T119 70L109 22Q107 12 100 6T82 0H34Q24 0 19 6Z" />
<glyph unicode=";" glyph-name="semicolon" horiz-adv-x="259" d="M124 350T119 356T116 372L126 420Q128 430 135 436T153 443H201Q211 443 216 437T219 420L209 372Q208 362 200 356T182 350H134Q124 350 119 356ZM12 -75T12 -64Q12 -58 14 -54L58 66Q68 93
89 93H134Q140 93 143 88T146 77Q145 71 138 59L71 -54Q63 -65 57 -70T40 -75H23Q12 -75 12 -64Z" />
<glyph unicode="&lt;" glyph-name="less" horiz-adv-x="481" d="M350 84T335 96L83 300Q63 317 63 335Q63 342 64 346L66 358Q69 372 78 382T105 404L443 608Q464 620 473 620Q482 620 486 615T489 600L485 583Q483 573 477 567T458 552L126 352L373 152Q383 144
386 138T387 121L383 104Q382 95 375 90T359 84Q350 84 335 96Z" />
<glyph unicode="=" glyph-name="equal" horiz-adv-x="574" d="M111 396T106 402T103 418L106 432Q108 442 115 448T133 454H508Q518 454 522 448T525 432L522 418Q521 408 514 402T496 396H121Q111 396 106 402ZM58 146T53 152T50 168L53 182Q55 192 62 198T80
204H455Q465 204 469 198T472 182L469 168Q467 158 460 152T443 146H68Q58 146 53 152Z" />
<glyph unicode="&gt;" glyph-name="greater" horiz-adv-x="480" d="M51 84T47 89T44 104L48 121Q50 131 56 137T76 152L407 352L161 552Q150 560 147 566T146 583L150 600Q152 609 158 614T174 620Q183 620 198 608L450 404Q470 387 470 369Q470 362 469 358L467
346Q464 332 455 322T428 300L90 96Q69 84 60 84Q51 84 47 89Z" />
<glyph unicode="?" glyph-name="question" horiz-adv-x="503" d="M219 143T214 149T211 165Q215 181 221 213Q234 270 268 311T362 402Q409 443 432 467T465 522Q471 542 471 558Q471 601 434 626T345 652Q282 652 233 619T156 513Q147 491 128 491H112Q103 491
98 496T95 511Q108 566 146 611T239 683T357 710Q444 710 488 671T533 571Q533 545 526 523Q513 476 482 440T396 358Q345 315 318 284T282 213Q276 181 272 165Q271 155 264 149T246 143H229Q219 143 214 149ZM176 0T172 6T169 22L177 60Q179 70 186 76T204 83H242Q252
83 257 77T260 60L252 22Q250 12 242 6T224 0H186Q176 0 172 6Z" />
<glyph unicode="@" glyph-name="at" horiz-adv-x="826" d="M193 -113T123 -49T52 138Q52 162 55 187Q58 215 70 274T91 358Q139 502 243 581T495 661Q643 661 716 602T790 430Q790 396 784 358Q776 306 756 225Q716 79 596 79Q528 79 503 138Q447 69 363 69Q302
69 268 104T234 206Q234 233 242 273Q263 370 319 424T450 478Q488 478 508 464T542 429L546 448Q548 458 555 464T573 470H590Q600 470 604 464T607 448L561 230Q557 214 557 197Q557 167 570 152T608 137Q647 137 667 166T696 231Q702 249 709 283T722 353Q726
380 726 410Q726 506 668 554T482 603Q361 603 276 538T151 353Q143 328 132 274T117 192Q115 166 115 154Q115 53 173 -1T343 -55Q432 -55 481 -37T552 -4T579 15Q580 16 588 21T606 27H632Q641 27 645 21T648 6Q647 0 641 -8Q584 -56 511 -84T330 -113Q193 -113
123 -49ZM431 127T462 165T509 273Q516 304 516 335Q516 420 437 420Q334 420 303 273Q297 246 297 219Q297 177 316 152T375 127Q431 127 462 165Z" />
<glyph unicode="A" glyph-name="A" horiz-adv-x="653" d="M-26 0T-31 5T-36 19Q-36 25 -33 31L358 680Q370 700 391 700H433Q455 700 458 680L573 31Q574 28 574 22Q574 12 569 6T555 0H534Q515 0 511 21L481 175H128L30 15Q21 0 5 0H-17Q-26 0 -31 5ZM164 235H471L401
629L164 235Z" />
<glyph unicode="B" glyph-name="B" horiz-adv-x="657" d="M44 0T39 6T36 22L175 677Q177 687 184 693T202 700H463Q542 700 586 660T630 557Q630 537 626 521Q612 457 579 421T506 369Q538 348 557 315T576 239Q576 217 572 198Q553 112 492 56T323 0H54Q44 0
39 6ZM381 396Q452 396 501 429T563 521Q567 538 567 556Q567 640 448 640H231L179 396H381ZM323 60Q393 60 444 99T509 198Q513 217 513 238Q513 336 383 336H166L107 60H323Z" />
<glyph unicode="C" glyph-name="C" horiz-adv-x="650" d="M162 -10T108 44T53 194Q53 227 59 261Q71 333 97 439Q128 564 205 637T413 710Q493 710 545 685T620 618T644 528Q644 511 641 494Q638 474 622 474H599Q589 474 583 479T578 495Q579 503 579 519Q579
650 413 650Q318 650 252 597T159 434Q138 352 123 266Q116 222 116 198Q116 50 274 50Q360 50 419 85T515 205Q523 226 540 226H563Q572 226 577 221T579 206Q551 117 480 54T274 -10Q162 -10 108 44Z" />
<glyph unicode="D" glyph-name="D" horiz-adv-x="677" d="M44 0T39 6T36 22L175 677Q177 687 184 693T202 700H405Q521 700 582 649T643 502Q643 466 636 430Q617 337 602 271Q580 175 543 117T443 29T282 0H54Q44 0 39 6ZM279 60Q359 60 409 81T491 149T540 276Q555
342 572 425Q580 468 580 499Q580 571 537 605T398 640H231L107 60H279Z" />
<glyph unicode="E" glyph-name="E" horiz-adv-x="591" d="M44 0T39 6T36 22L175 677Q177 687 184 693T202 700H592Q602 700 607 694T610 677L607 662Q605 652 598 646T580 640H231L176 385H503Q513 385 518 379T521 362L518 347Q516 337 509 331T491 325H164L107
60H464Q474 60 479 54T482 37L479 22Q477 12 470 6T452 0H54Q44 0 39 6Z" />
<glyph unicode="F" glyph-name="F" horiz-adv-x="573" d="M44 0T39 6T36 22L175 677Q177 687 184 693T202 700H588Q598 700 603 694T606 677L603 662Q601 652 594 646T576 640H231L173 371H498Q508 371 513 365T516 348L513 333Q511 323 504 317T486 311H161L99
22Q97 12 90 6T72 0H54Q44 0 39 6Z" />
<glyph unicode="G" glyph-name="G" horiz-adv-x="664" d="M176 -10T121 43T66 190Q66 221 72 255Q90 353 113 445Q142 566 226 638T436 710Q515 710 564 682T636 615T658 540Q658 529 657 525Q656 516 649 511T632 505H610Q601 505 598 509T593 525Q587 578 546
614T423 650Q330 650 266 599T175 440Q153 350 136 260Q130 227 130 201Q130 50 296 50Q389 50 457 103T547 260L558 311H384Q374 311 370 317T367 334L370 348Q372 358 379 364T397 371H611Q621 371 626 365T629 348L610 260Q593 180 548 119T435 24T283 -10Q176
-10 121 43Z" />
<glyph unicode="H" glyph-name="H" horiz-adv-x="701" d="M44 0T39 6T36 22L175 677Q177 687 184 693T202 700H220Q230 700 235 694T238 677L176 385H562L624 677Q626 687 633 693T651 700H669Q679 700 684 694T687 677L548 22Q546 12 539 6T521 0H503Q493 0 488
6T485 22L550 325H164L99 22Q97 12 90 6T72 0H54Q44 0 39 6Z" />
<glyph unicode="I" glyph-name="I" horiz-adv-x="252" d="M43 0T38 6T35 22L176 678Q177 688 184 694T202 700H221Q231 700 236 694T239 678L99 22Q97 12 90 6T73 0H53Q43 0 38 6Z" />
<glyph unicode="J" glyph-name="J" horiz-adv-x="614" d="M136 -10T77 33T17 162Q17 172 19 194Q23 216 42 216H64Q74 216 79 210T82 195Q80 175 80 167Q80 107 118 79T226 50Q321 50 376 105T453 256L535 640H167Q157 640 152 646T149 662L153 678Q154 688 161
694T179 700H588Q598 700 603 694T606 677L517 255Q490 129 421 60T226 -10Q136 -10 77 33Z" />
<glyph unicode="K" glyph-name="K" horiz-adv-x="562" d="M44 0T39 6T36 22L175 677Q177 688 183 694T200 700H220Q230 700 235 694T238 677L186 427L516 685Q535 700 556 700H574Q583 700 588 694T594 679Q594 671 588 666L203 365L487 34Q493 27 493 19Q493
11 487 6T473 0H455Q434 0 422 15L162 318L99 22Q94 0 74 0H54Q44 0 39 6Z" />
<glyph unicode="L" glyph-name="L" horiz-adv-x="540" d="M44 0T39 6T36 22L176 678Q177 688 184 694T202 700H221Q231 700 236 694T239 678L107 60H452Q462 60 467 54T470 37L467 22Q465 12 458 6T440 0H54Q44 0 39 6Z" />
<glyph unicode="M" glyph-name="M" horiz-adv-x="783" d="M44 0T39 6T36 22L175 677Q177 687 184 693T203 700H229Q238 700 242 696T248 687L381 245L703 687Q713 700 726 700H751Q761 700 766 694T769 677L630 22Q628 12 621 6T603 0H584Q574 0 569 6T566 22L678
548L416 188Q401 168 381 168H360Q348 168 342 173T333 188L217 574L100 22Q98 12 91 6T74 0H55Q44 0 39 6Z" />
<glyph unicode="N" glyph-name="N" horiz-adv-x="687" d="M44 0T39 6T36 22L175 677Q177 688 184 694T201 700H221Q235 700 240 688L491 117L610 677Q612 687 619 693T637 700H655Q665 700 670 694T673 677L534 23Q532 12 525 6T508 0H488Q474 0 469 12L219 581L100
22Q98 12 91 6T73 0H54Q44 0 39 6Z" />
<glyph unicode="O" glyph-name="O" horiz-adv-x="662" d="M169 -10T111 40T53 191Q53 228 60 266Q77 356 96 434Q128 571 209 640T412 710Q515 710 573 659T631 507Q631 470 624 434Q608 344 588 266Q555 127 474 59T272 -10Q169 -10 111 40ZM366 50T432 104T526
271Q545 347 560 429Q567 467 567 503Q567 579 528 614T412 650Q317 650 252 596T158 429Q139 353 124 271Q117 232 117 197Q117 121 155 86T272 50Q366 50 432 104Z" />
<glyph unicode="P" glyph-name="P" horiz-adv-x="629" d="M44 0T39 6T36 22L175 677Q177 687 184 693T202 700H440Q535 700 586 661T637 548Q637 523 631 493Q609 392 540 339T363 286H155L99 22Q97 12 90 6T72 0H54Q44 0 39 6ZM358 346Q441 346 497 384T568 493Q575
528 575 547Q575 595 543 617T433 640H231L168 346H358Z" />
<glyph unicode="Q" glyph-name="Q" horiz-adv-x="662" d="M475 -65T470 -60T461 -49T457 -42L426 19Q360 -10 280 -10Q66 -10 66 182Q66 220 75 266Q90 350 110 434Q143 570 228 640T433 710Q534 710 590 660T646 512Q646 479 638 434Q624 350 603 266Q568 123
485 56L530 -34Q532 -38 531 -45Q529 -53 522 -59T506 -65H484Q475 -65 470 -60ZM383 50T448 104T541 271Q561 351 574 429Q581 471 581 494Q581 573 538 611T420 650Q331 650 266 596T172 429Q153 348 139 271Q133 235 133 206Q133 127 175 89T293 50Q383 50 448
104Z" />
<glyph unicode="R" glyph-name="R" horiz-adv-x="640" d="M57 0T53 6T50 22L189 677Q191 687 198 693T216 700H449Q541 700 591 663T642 552Q642 527 636 498Q619 419 570 371T444 305L547 31Q548 26 547 20Q546 12 539 6T523 0H511Q496 0 490 6T479 27L377 296H171L113
22Q111 12 103 6T85 0H67Q57 0 53 6ZM371 356Q543 356 573 498Q578 521 578 538Q578 640 431 640H244L184 356H371Z" />
<glyph unicode="S" glyph-name="S" horiz-adv-x="602" d="M171 -10T121 11T45 70T19 152Q19 164 20 170Q21 179 26 184T41 190H65Q83 190 83 170Q81 140 97 113T150 68T244 50Q339 50 396 85T466 181Q469 193 469 204Q469 234 449 254T391 291T280 333Q192 363
153 398T114 491Q114 517 119 538Q136 616 203 663T379 710Q447 710 493 688T563 630T586 557Q586 549 584 535Q580 515 563 515H539Q532 515 526 519T521 535Q526 585 486 617T379 650Q301 650 247 620T179 530Q176 515 176 504Q176 474 194 454T248 417T350 377Q446
344 489 309T532 215Q532 198 527 173Q508 83 435 37T244 -10Q171 -10 121 11Z" />
<glyph unicode="T" glyph-name="T" horiz-adv-x="551" d="M193 0T188 6T185 22L317 640H119Q109 640 104 646T101 662L104 677Q106 687 113 693T131 700H589Q599 700 604 694T607 677L604 662Q602 652 595 646T577 640H380L248 22Q246 12 239 6T221 0H203Q193 0 188 6Z" />
<glyph unicode="U" glyph-name="U" horiz-adv-x="691" d="M180 -10T126 35T72 175Q72 222 83 271L169 677Q171 687 178 693T196 700H214Q224 700 229 694T232 677L145 268Q134 216 134 181Q134 113 170 82T286 50Q487 50 534 268L621 677Q623 687 630 693T649
700H667Q677 700 681 694T684 677L598 271Q567 126 492 58T286 -10Q180 -10 126 35Z" />
<glyph unicode="V" glyph-name="V" horiz-adv-x="639" d="M215 0T212 24L117 676V680Q117 690 122 695T137 700H159Q176 700 178 685L267 73L616 685Q624 700 637 700H667Q675 700 679 695T683 683Q683 675 679 668L311 24Q303 12 294 6T272 0H241Q215 0 212 24Z" />
<glyph unicode="W" glyph-name="W" horiz-adv-x="776" d="M134 0T129 5T123 24V680Q123 689 129 694T144 700H163Q172 700 177 694T183 680V126L390 522Q402 545 426 545H447Q471 545 473 522L515 116L753 685Q759 700 778 700H800Q817 700 817 687Q817 682 814
674L542 24Q536 11 529 6T509 0H488Q464 0 462 24L419 444L200 24Q187 0 164 0H146Q134 0 129 5Z" />
<glyph unicode="X" glyph-name="X" horiz-adv-x="610" d="M-18 0T-24 6T-30 20Q-30 28 -25 33L280 360L124 669Q121 675 121 680Q121 688 127 694T141 700H157Q171 700 176 696T185 685L327 405L583 685Q584 686 588 690T599 697T617 700H634Q642 700 648 694T654
680Q654 672 649 667L356 347L519 29Q521 23 521 20Q521 12 515 6T501 0H485Q472 0 466 4T457 15L310 302L41 15Q40 14 36 10T25 3T8 0H-10Q-18 0 -24 6Z" />
<glyph unicode="Y" glyph-name="Y" horiz-adv-x="629" d="M232 0T227 6T224 22L275 267L116 667Q114 673 114 675Q114 685 121 692T139 700H156Q170 700 176 685L315 335L602 685Q614 700 628 700H659Q677 700 677 687Q677 678 668 667L339 267L286 22Q284 12
277 6T259 0H242Q232 0 227 6Z" />
<glyph unicode="Z" glyph-name="Z" horiz-adv-x="574" d="M-10 0T-15 6T-18 23L-13 43Q-10 56 -5 64T9 80L515 640H145Q135 640 130 646T127 662L130 677Q132 687 139 693T157 700H588Q598 700 603 694T606 677L602 657Q600 646 595 639T581 621L74 60H462Q472
60 477 54T480 37L477 22Q475 12 468 6T450 0H0Q-10 0 -15 6Z" />
<glyph unicode="[" glyph-name="bracketleft" horiz-adv-x="301" d="M-6 -159T-11 -153T-14 -137L176 754Q178 764 185 770T202 776H354Q364 776 369 770T372 754L369 740Q367 730 360 724T342 718H230L56 -101H168Q178 -101 182 -107T185 -123L182 -137Q181 -147
174 -153T156 -159H4Q-6 -159 -11 -153Z" />
<glyph unicode="\" glyph-name="backslash" horiz-adv-x="461" d="M301 -84T296 -62L126 764L125 769Q125 776 130 781T144 786H161Q182 786 187 764L357 -62L358 -67Q358 -74 353 -79T339 -84H322Q301 -84 296 -62Z" />
<glyph unicode="]" glyph-name="bracketright" horiz-adv-x="300" d="M311 776T316 770T319 754L129 -137Q128 -147 121 -153T103 -159H-48Q-58 -159 -62 -153T-66 -137L-63 -123Q-61 -113 -54 -107T-36 -101H76L250 718H138Q128 718 124 724T121 740L124 754Q126
764 133 770T150 776H301Q311 776 316 770Z" />
<glyph unicode="^" glyph-name="asciicircum" horiz-adv-x="418" d="M153 575T151 577T149 586Q150 594 165 606L270 691Q281 700 288 702T305 705H315Q324 705 330 703T344 691L413 606Q422 594 421 586Q418 575 404 575H387Q381 575 374 577T364 582L297 642L204
582Q200 579 192 577T177 575H160Q153 575 151 577Z" />
<glyph unicode="_" glyph-name="underscore" horiz-adv-x="749" d="M14 -28T9 -22T6 -6L9 8Q11 18 18 24T36 30H611Q621 30 625 24T628 8L625 -6Q623 -16 616 -22T599 -28H24Q14 -28 9 -22Z" />
<glyph unicode="`" glyph-name="grave" horiz-adv-x="182" d="M141 595T135 597T123 605L36 691Q31 696 31 704Q31 712 37 718T52 725H95Q109 725 115 722T128 707L178 626Q183 618 181 610Q179 604 174 600T162 595H152Q141 595 135 597Z" />
<glyph unicode="a" glyph-name="a" horiz-adv-x="569" d="M117 -10T77 41T36 173Q36 199 41 232Q44 252 53 288Q116 530 310 530Q371 530 405 509T459 451L469 498Q471 508 478 514T495 520H512Q522 520 527 514T530 498L429 22Q427 12 420 6T403 0H386Q376 0
371 6T368 22L378 69Q341 29 304 10T207 -10Q117 -10 77 41ZM261 48T303 74T373 140T411 224Q418 252 428 302Q432 321 432 346Q432 401 403 436T310 472Q234 472 187 421T115 288Q108 264 103 232Q98 195 98 169Q98 48 207 48Q261 48 303 74Z" />
<glyph unicode="b" glyph-name="b" horiz-adv-x="580" d="M190 -10T152 11T95 69L85 22Q83 12 76 6T58 0H41Q31 0 27 6T24 22L165 688Q167 698 174 704T192 710H209Q219 710 223 704T226 688L176 451Q212 489 253 509T351 530Q444 530 486 479T528 347Q528 317
524 293Q520 268 510 227Q485 126 421 58T249 -10Q190 -10 152 11ZM328 48T377 99T450 232Q457 256 462 288Q468 332 468 351Q468 407 442 439T351 472Q298 472 255 447T183 383T144 302Q133 259 128 224Q124 204 124 179Q124 122 153 85T249 48Q328 48 377 99Z"
/>
<glyph unicode="c" glyph-name="c" horiz-adv-x="535" d="M133 -10T84 36T35 165Q35 196 40 220Q52 280 57 300Q84 410 150 470T321 530Q414 530 457 487T501 383Q501 372 500 366Q499 356 494 350T479 344H460Q449 344 444 348T440 365Q442 420 411 446T321 472Q248
472 194 428T117 295Q112 275 102 225Q97 199 97 169Q97 48 218 48Q341 48 393 150Q400 163 405 167T420 171H438Q447 171 451 165T453 149Q441 109 412 73T334 14T218 -10Q133 -10 84 36Z" />
<glyph unicode="d" glyph-name="d" horiz-adv-x="579" d="M119 -10T78 42T36 177Q36 208 40 232Q43 252 52 288Q79 392 141 461T314 530Q427 530 468 451L519 688Q521 698 528 704T545 710H562Q572 710 577 704T580 688L438 22Q436 12 429 6T412 0H395Q385 0 380
6T377 22L387 69Q351 30 312 10T211 -10Q119 -10 78 42ZM265 48T309 74T381 140T420 224Q427 252 437 302Q441 328 441 342Q441 398 410 435T314 472Q238 472 188 420T114 288Q107 264 102 232Q97 199 97 175Q97 48 211 48Q265 48 309 74Z" />
<glyph unicode="e" glyph-name="e" horiz-adv-x="544" d="M140 -10T95 39T50 172Q50 195 53 220Q58 250 70 300Q100 404 171 467T338 530Q423 530 468 484T513 353Q513 316 504 272L501 257Q499 247 491 241T473 235H117L115 225Q112 206 112 187Q112 127 144
88T235 48Q290 48 329 70T388 113Q400 125 405 128T422 131H438Q446 131 451 127T456 116Q456 97 424 67T338 13T223 -10Q140 -10 95 39ZM447 291L448 295Q453 323 453 343Q453 401 420 436T326 472Q253 472 200 422T130 295L129 291H447Z" />
<glyph unicode="f" glyph-name="f" horiz-adv-x="356" d="M77 0T72 6T69 22L163 462H74Q64 462 59 468T56 484L59 498Q61 508 68 514T86 520H175L187 577Q202 649 247 694T367 740H425Q435 740 439 734T442 718L439 704Q437 694 430 688T412 682H367Q316 682 288
655T247 572L236 520H368Q378 520 382 514T385 498L382 484Q381 474 374 468T356 462H224L130 22Q128 12 121 6T104 0H87Q77 0 72 6Z" />
<glyph unicode="g" glyph-name="g" horiz-adv-x="579" d="M97 -220T57 -198T0 -146T-16 -87Q-16 -77 -15 -73Q-13 -63 -8 -57T7 -50H26Q35 -50 39 -54T45 -71Q46 -106 71 -134T166 -162Q340 -162 373 0L387 69Q352 31 311 11T212 -10Q119 -10 77 41T35 172Q35
199 40 232Q43 252 52 288Q80 392 142 461T314 530Q372 530 410 509T468 451L478 497Q480 507 487 513T505 520H521Q531 520 536 514T539 497L436 10Q421 -63 394 -112T313 -190T166 -220Q97 -220 57 -198ZM265 48T308 74T380 140T420 224Q430 266 435 296Q439
324 439 340Q439 397 410 434T314 472Q238 472 187 420T113 288Q104 252 101 232Q95 190 95 171Q95 48 212 48Q265 48 308 74Z" />
<glyph unicode="h" glyph-name="h" horiz-adv-x="591" d="M31 0T26 6T23 22L165 688Q167 698 174 704T191 710H208Q218 710 223 704T226 688L175 451Q209 489 249 509T349 530Q435 530 479 486T524 366Q524 343 517 306L456 22Q454 12 447 6T430 0H413Q403 0 398
6T395 22L454 301Q462 338 462 364Q462 472 349 472Q276 472 218 426T143 301L84 22Q82 12 75 6T58 0H41Q31 0 26 6Z" />
<glyph unicode="i" glyph-name="i" horiz-adv-x="224" d="M153 627T148 633T145 649L154 687Q156 697 163 703T180 710H218Q228 710 233 704T237 687L228 649Q227 639 219 633T201 627H163Q153 627 148 633ZM31 0T26 6T23 22L124 498Q126 508 133 514T151 520H168Q178
520 182 514T185 498L84 22Q82 12 75 6T58 0H41Q31 0 26 6Z" />
<glyph unicode="j" glyph-name="j" horiz-adv-x="234" d="M162 627T157 633T154 649L163 687Q165 697 172 703T189 710H227Q237 710 242 704T246 687L237 649Q236 639 228 633T210 627H172Q162 627 157 633ZM-116 -190T-120 -184T-123 -168L-120 -154Q-118 -144
-111 -138T-94 -132H-85Q0 -132 23 -22L133 498Q135 508 142 514T160 520H177Q187 520 191 514T194 498L84 -22Q67 -102 27 -146T-97 -190H-106Q-116 -190 -120 -184Z" />
<glyph unicode="k" glyph-name="k" horiz-adv-x="485" d="M31 0T26 6T23 22L165 688Q167 698 174 704T191 710H208Q218 710 223 704T226 688L152 341L401 503Q419 514 426 517T447 520H474Q481 520 485 516T490 505Q490 491 473 480L179 288L409 34Q415 28 415
20Q415 12 410 6T395 0H379Q367 0 361 3T351 10T346 15L133 248L84 22Q82 12 75 6T58 0H41Q31 0 26 6Z" />
<glyph unicode="l" glyph-name="l" horiz-adv-x="225" d="M31 0T26 6T23 22L165 688Q167 698 174 704T191 710H208Q218 710 223 704T226 688L84 22Q82 12 75 6T58 0H41Q31 0 26 6Z" />
<glyph unicode="m" glyph-name="m" horiz-adv-x="879" d="M31 0T26 6T23 22L124 498Q126 508 133 514T151 520H168Q178 520 182 514T185 498L178 463Q212 498 245 514T325 530Q382 530 422 506T475 436Q546 530 655 530Q725 530 769 489T813 373Q813 344 806 313L744
22Q742 12 735 6T718 0H701Q691 0 686 6T683 22L743 303Q751 339 751 372Q751 472 653 472Q597 472 545 432T474 303L414 22Q412 12 405 6T388 0H371Q361 0 356 6T353 22L413 303Q421 343 421 369Q421 424 395 448T323 472Q267 472 215 432T144 304L84 22Q82 12
75 6T58 0H41Q31 0 26 6Z" />
<glyph unicode="n" glyph-name="n" horiz-adv-x="590" d="M31 0T26 6T23 22L124 498Q126 508 133 514T151 520H168Q178 520 182 514T185 498L175 451Q208 488 252 509T351 530Q440 530 482 489T524 374Q524 344 516 306L455 22Q453 12 446 6T429 0H412Q402 0 397
6T394 22L453 301Q463 349 463 376Q463 425 437 448T351 472Q272 472 216 427T143 301L84 22Q82 12 75 6T58 0H41Q31 0 26 6Z" />
<glyph unicode="o" glyph-name="o" horiz-adv-x="556" d="M130 -10T82 38T34 167Q34 188 39 218Q42 237 47 260T57 302Q82 404 149 467T321 530Q411 530 458 482T506 354Q506 332 501 302Q489 242 483 218Q458 116 390 53T218 -10Q130 -10 82 38ZM291 48T347 94T423
223Q429 247 439 297Q444 327 444 348Q444 409 413 440T321 472Q248 472 193 426T117 297Q107 264 101 223Q96 191 96 171Q96 111 127 80T218 48Q291 48 347 94Z" />
<glyph unicode="p" glyph-name="p" horiz-adv-x="579" d="M-9 -190T-14 -184T-17 -168L125 498Q127 508 134 514T151 520H168Q178 520 183 514T186 498L176 451Q212 490 251 510T352 530Q444 530 485 478T527 343Q527 312 523 288Q520 268 511 232Q484 128 422
59T249 -10Q136 -10 95 69L44 -168Q42 -178 35 -184T18 -190H1Q-9 -190 -14 -184ZM325 48T375 100T449 232Q456 256 461 288Q466 321 466 345Q466 472 352 472Q298 472 254 446T182 380T143 296Q136 268 126 218Q122 192 122 178Q122 122 153 85T249 48Q325 48
375 100Z" />
<glyph unicode="q" glyph-name="q" horiz-adv-x="580" d="M345 -190T341 -184T338 -168L388 69Q352 31 311 11T213 -10Q120 -10 78 41T36 173Q36 203 40 227Q44 252 54 293Q79 394 143 462T315 530Q374 530 412 509T469 451L479 498Q481 508 488 514T506 520H523Q533
520 537 514T540 498L399 -168Q397 -178 390 -184T372 -190H355Q345 -190 341 -184ZM266 48T309 73T381 137T420 218Q431 261 436 296Q440 316 440 341Q440 398 411 435T315 472Q238 472 188 420T114 288Q107 264 102 232Q96 188 96 169Q96 113 122 81T213 48Q266
48 309 73Z" />
<glyph unicode="r" glyph-name="r" horiz-adv-x="350" d="M31 0T26 6T23 22L124 497Q126 507 133 513T151 520H167Q177 520 182 514T185 497L175 451Q198 485 236 502T326 520H363Q373 520 377 514T380 498L377 484Q376 474 369 468T351 462H308Q248 462 206 427T150
332L84 22Q82 12 75 6T57 0H41Q31 0 26 6Z" />
<glyph unicode="s" glyph-name="s" horiz-adv-x="492" d="M134 -10T95 9T39 55T21 101Q21 113 29 120T47 127H62Q69 127 73 125T81 114Q97 83 124 66T207 48Q269 48 312 71T365 139Q367 151 367 156Q367 177 353 191T307 216T218 241Q148 258 120 285T91 350Q91
369 95 385Q103 422 130 455T203 509T305 530Q364 530 401 510T453 464T465 420Q464 411 456 405T439 398H424Q410 398 405 411Q396 431 385 443T353 464T293 472Q235 472 200 448T156 385Q154 373 154 368Q154 342 183 324T288 288Q364 270 397 243T430 172Q430
163 426 139Q417 98 387 64T307 10T195 -10Q134 -10 95 9Z" />
<glyph unicode="t" glyph-name="t" horiz-adv-x="351" d="M131 0T105 24T78 95Q78 128 87 167L150 462H72Q62 462 57 468T54 484L57 498Q59 508 66 514T84 520H162L198 688Q200 698 207 704T224 710H241Q251 710 256 704T259 688L223 520H347Q357 520 361 514T364
498L361 484Q360 474 353 468T335 462H211L149 171Q138 122 138 104Q138 80 151 69T199 58H259Q269 58 273 52T276 36L273 22Q271 12 264 6T247 0H198Q131 0 105 24Z" />
<glyph unicode="u" glyph-name="u" horiz-adv-x="586" d="M134 -10T93 31T51 143Q51 174 59 214L119 498Q121 508 128 514T146 520H163Q173 520 177 514T180 498L121 219Q111 171 111 142Q111 94 137 71T222 48Q298 48 354 94T427 219L486 498Q488 508 495 514T513
520H530Q540 520 544 514T547 498L446 22Q444 12 437 6T420 0H403Q393 0 388 6T385 22L395 69Q367 41 346 25T295 0T222 -10Q134 -10 93 31Z" />
<glyph unicode="v" glyph-name="v" horiz-adv-x="533" d="M178 0T172 6T163 25L78 496L77 501Q77 510 83 515T97 520H116Q135 520 139 498L215 73L476 505Q479 510 485 515T501 520H525Q531 520 536 516T541 504Q541 497 536 489L254 25Q246 12 238 6T214 0H193Q178
0 172 6Z" />
<glyph unicode="w" glyph-name="w" horiz-adv-x="786" d="M138 0T132 6T124 25L81 497Q80 507 86 513T104 520H121Q139 520 141 505L178 89L394 500Q404 520 423 520H447Q467 520 469 500L514 89L726 505Q728 510 733 515T748 520H772Q789 520 789 507Q789 503
785 493L546 25Q539 11 531 6T509 0H490Q464 0 461 25L417 419L210 25Q197 0 171 0H151Q138 0 132 6Z" />
<glyph unicode="x" glyph-name="x" horiz-adv-x="517" d="M-12 0T-17 6T-23 20Q-23 28 -17 34L213 266L87 489Q84 494 84 500Q84 508 89 514T103 520H122Q137 520 146 505L258 306L456 505Q464 513 470 516T489 520H505Q513 521 519 515T525 500Q525 492 518 485L289
253L413 31Q417 23 417 18Q417 10 412 5T398 0H379Q363 0 354 15L243 212L48 15Q40 8 34 4T15 0H-3Q-12 0 -17 6Z" />
<glyph unicode="y" glyph-name="y" horiz-adv-x="534" d="M47 -190T47 -174Q47 -166 53 -157L176 35L78 494Q77 496 77 501Q77 509 82 514T99 520H117Q135 520 138 505L223 108L480 505Q489 520 506 520H530Q537 520 542 516T548 504Q548 499 543 491L112 -175Q103
-190 86 -190H63Q47 -190 47 -174Z" />
<glyph unicode="z" glyph-name="z" horiz-adv-x="486" d="M-10 0T-15 6T-18 22L-14 39Q-12 50 -5 58L384 462H108Q98 462 93 468T90 484L93 498Q95 508 102 514T120 520H456Q466 520 470 514T473 498L470 481Q469 471 460 462L72 58H378Q388 58 392 52T395 36L392
22Q390 12 383 6T366 0H0Q-10 0 -15 6Z" />
<glyph unicode="{" glyph-name="braceleft" horiz-adv-x="344" d="M135 -159T106 -129T76 -38Q76 -7 82 32T101 131Q108 163 108 188Q108 214 100 231T73 263L69 266Q52 279 52 293Q52 299 53 303L55 315Q58 327 65 335T87 352L94 356Q128 377 147 405T177 487Q200
594 222 652T288 743T406 776H411Q421 776 425 770T428 754L426 740Q424 730 417 724T399 718H394Q344 718 316 693T272 619T233 466Q221 408 195 370T125 309Q150 292 162 268T174 209Q174 189 167 152Q152 80 146 44T139 -21Q139 -63 157 -81T220 -101H225Q235
-101 239 -107T242 -123L239 -137Q237 -147 230 -153T212 -159H207Q135 -159 106 -129Z" />
<glyph unicode="|" glyph-name="bar" horiz-adv-x="220" d="M-16 -208T-20 -202T-23 -186L202 874Q204 884 211 890T229 896H246Q256 896 260 890T263 874L38 -186Q36 -196 29 -202T11 -208H-6Q-16 -208 -20 -202Z" />
<glyph unicode="}" glyph-name="braceright" horiz-adv-x="344" d="M242 776T271 746T301 654Q301 601 277 486Q269 449 269 429Q269 403 277 386T304 354L309 351Q318 343 322 337T326 323Q326 317 325 314L322 302Q320 290 313 282T291 265L284 261Q250 240
232 212T201 130Q178 24 156 -35T90 -126T-29 -159H-34Q-44 -159 -48 -153T-51 -137L-48 -123Q-46 -113 -39 -107T-21 -101H-16Q34 -101 62 -76T106 -2T144 151Q157 210 183 247T253 308Q204 341 204 406Q204 434 211 465Q226 536 232 573T239 638Q239 680 221
698T158 718H153Q143 718 139 724T136 740L138 754Q140 764 147 770T165 776H170Q242 776 271 746Z" />
<glyph unicode="~" glyph-name="asciitilde" horiz-adv-x="563" d="M91 252T88 257T85 269L90 292Q95 311 133 329T212 347Q242 347 264 342T312 328Q338 320 355 316T396 312Q417 312 433 318T462 332T481 343Q493 347 495 347Q502 347 506 343T508 330L503 307Q501
295 482 282T436 261T382 252Q355 252 335 256T287 270Q263 278 243 282T198 287Q177 287 161 281T132 267T113 256Q101 252 99 252Q91 252 88 257Z" />
<glyph unicode="&#xa0;" glyph-name="uni00A0" horiz-adv-x="264" />
<glyph unicode="&#xa1;" glyph-name="exclamdown" horiz-adv-x="217" d="M361 519T366 513T369 497L361 459Q359 449 352 443T334 436H296Q286 436 281 442T278 459L286 497Q288 507 295 513T313 519H351Q361 519 366 513ZM320 376T324 370T327 354L218 -159Q217
-169 210 -175T192 -181H175Q165 -181 160 -175T157 -159L266 354Q268 364 275 370T293 376H310Q320 376 324 370Z" />
<glyph unicode="&#xa2;" glyph-name="cent" horiz-adv-x="542" d="M171 -100T166 -94T163 -78L178 -6Q112 5 76 49T39 165Q39 196 44 220Q56 280 61 300Q86 400 144 459T292 528L305 588Q307 598 314 604T331 610H348Q358 610 363 604T366 588L353 529Q431 522
468 480T505 382Q505 371 504 366Q503 356 498 350T483 344H464Q453 344 448 348T444 365Q446 420 415 446T325 472Q252 472 198 428T121 295Q116 275 106 225Q101 199 101 169Q101 48 222 48Q345 48 397 150Q404 163 409 167T424 171H442Q451 171 455 165T457
149Q447 112 420 77T346 18T238 -9L224 -78Q222 -88 215 -94T198 -100H181Q171 -100 166 -94Z" />
<glyph unicode="&#xa3;" glyph-name="sterling" horiz-adv-x="658" d="M352 -5T323 12T263 62Q239 87 220 100T175 113Q132 113 110 90T71 21Q67 12 62 6T45 0H22Q13 0 9 5T7 19Q23 87 63 124T158 171Q163 202 165 238T167 283L169 315H92Q82 315 78 321T75 337L78
353Q80 363 87 369T105 375H175Q179 407 189 456Q204 526 240 584T335 676T468 711Q560 711 606 664T653 541Q653 516 649 495Q647 486 640 480T624 473H606Q598 473 593 479T587 494Q593 651 455 651Q377 651 324 597T252 455Q241 403 239 375H450Q460 375 464
369T467 353L464 337Q462 327 455 321T437 315H235Q234 307 232 261T221 169Q252 163 273 148T320 107Q346 80 365 68T412 55Q455 55 478 79T518 149Q520 155 527 161T541 168H566Q575 168 579 163T581 149Q564 76 515 36T399 -5Q352 -5 323 12Z" />
<glyph unicode="&#xa4;" glyph-name="currency" horiz-adv-x="578" d="M51 101Q47 106 47 113Q47 125 57 132L109 174Q89 211 89 255Q89 275 94 300Q109 372 163 426L129 468Q125 473 125 480Q125 492 135 499L150 511Q158 518 167 518Q177 518 181 511L214 468Q279
510 349 510Q418 510 466 468L517 511Q525 518 534 518Q544 518 548 511L557 499Q561 494 561 487Q561 475 551 468L499 426Q519 386 519 343Q519 325 514 300Q499 230 445 174L479 132Q483 127 483 120Q483 108 473 101L458 89Q449 82 441 82Q434 82 427 89L394
132Q364 112 329 101T259 90Q189 90 142 132L91 89Q82 82 74 82Q67 82 60 89L51 101ZM313 150T351 170T417 224T454 300Q458 322 458 332Q458 383 424 416T336 450Q295 450 257 430T191 376T154 300Q150 278 150 268Q150 217 184 184T272 150Q313 150 351 170Z"
/>
<glyph unicode="&#xa5;" glyph-name="yen" horiz-adv-x="586" d="M611 700T615 696T620 684Q620 676 613 667L320 303H463Q473 303 477 297T480 281L477 265Q475 255 468 249T450 243H302L289 183H438Q448 183 452 177T455 161L451 145Q450 135 443 129T425 123H277L255
22Q253 12 246 6T228 0H209Q199 0 194 6T191 22L213 123H65Q55 123 50 129T47 145L51 161Q53 171 60 177T78 183H225L238 243H90Q80 243 76 249T73 265L76 281Q78 291 85 297T103 303H246L107 667Q104 675 104 680Q104 689 111 694T129 700H148Q162 700 168 685L291
361L552 685Q564 700 578 700H604Q611 700 615 696Z" />
<glyph unicode="&#xa6;" glyph-name="brokenbar" horiz-adv-x="228" d="M133 475T129 481T126 497L192 807Q194 817 201 823T219 829H236Q246 829 250 823T253 807L187 497Q185 487 178 481T160 475H143Q133 475 129 481ZM33 0T28 6T25 22L91 332Q93 342 100 348T118
354H135Q145 354 149 348T152 332L86 22Q84 12 77 6T60 0H43Q33 0 28 6Z" />
<glyph unicode="&#xa7;" glyph-name="section" horiz-adv-x="553" d="M107 -140T66 -105T25 -22Q25 -11 26 -6Q27 3 34 8T51 14H69Q78 14 82 10T89 -6Q94 -40 118 -61T206 -82Q275 -82 314 -44T353 48Q353 68 342 81T306 106T235 132Q142 162 102 196T62 286Q62
303 67 330Q82 402 173 460Q161 479 161 507Q161 523 166 548Q174 589 203 626T278 686T383 710Q469 710 510 675T552 591Q552 581 551 576Q550 567 543 562T525 556H507Q498 556 494 560T488 576Q482 611 459 631T371 652Q302 652 263 614T224 522Q224 502 235
489T270 464T341 438Q433 408 473 374T514 285Q514 260 509 240Q494 169 404 110Q416 89 416 62Q416 45 411 22Q402 -19 373 -56T298 -116T193 -140Q107 -140 66 -105ZM402 169T422 190T448 241Q451 256 451 269Q451 304 420 330T305 383Q245 402 212 423Q174 401
154 380T128 329Q125 314 125 301Q125 266 157 240T272 187Q332 168 364 147Q402 169 422 190Z" />
<glyph unicode="&#xa8;" glyph-name="dieresis" horiz-adv-x="277" d="M39 627T34 633T31 649L40 687Q42 697 49 703T66 710H104Q114 710 119 704T123 687L114 649Q112 639 105 633T87 627H49Q39 627 34 633ZM192 627T187 633T184 649L193 687Q195 697 202 703T219
710H257Q267 710 272 704T276 687L267 649Q265 639 258 633T240 627H202Q192 627 187 633Z" />
<glyph unicode="&#xa9;" glyph-name="copyright" horiz-adv-x="832" d="M270 -10T203 27T97 130T59 277Q59 310 67 350Q88 448 152 530T308 661T498 710Q584 710 651 673T757 570T795 423Q795 390 787 350Q766 252 702 170T546 39T356 -10Q270 -10 203 27ZM438
45T517 86T653 198T727 350Q734 382 734 416Q734 483 705 537T622 623T498 655Q416 655 337 614T201 502T127 350Q120 318 120 284Q120 217 149 163T232 77T356 45Q438 45 517 86ZM327 158T291 194T255 287Q255 302 258 317Q262 347 272 385Q290 454 340 499T462
544Q512 544 545 528T592 487T603 437Q602 427 595 421T577 415H560Q541 415 541 436Q541 486 462 486Q408 486 376 455T333 385Q324 347 319 317Q316 304 316 287Q316 216 392 216Q434 216 463 230T505 268Q515 287 533 287H550Q560 287 564 281T567 265Q562 240
540 215T480 174T392 158Q327 158 291 194Z" />
<glyph unicode="&#xaa;" glyph-name="ordfeminine" horiz-adv-x="364" d="M147 429T123 448T99 497Q99 538 135 565T235 602L297 611Q300 617 300 624Q300 647 263 647Q241 647 228 644T203 634Q191 627 181 627H164Q142 627 145 644Q148 656 162 670T202 694T263
705Q310 705 334 684T359 625Q359 612 356 598L325 456Q324 446 317 440T299 434H282Q272 434 267 440T264 456L266 463Q254 448 234 439T187 429Q147 429 123 448ZM226 483T253 505T286 559L235 552Q197 546 179 533T161 502Q161 494 167 489T187 483Q226 483
253 505Z" />
<glyph unicode="&#xab;" glyph-name="guillemotleft" horiz-adv-x="603" d="M237 92T225 104L76 286Q64 301 66 321L70 337Q75 356 94 372L321 554Q336 566 348 566Q357 566 361 561T363 546L360 529Q357 517 352 510T334 493L130 329L264 165Q271 157 273 152T276
139Q276 133 275 129L271 112Q269 103 263 98T247 92Q237 92 225 104ZM486 92T474 104L325 286Q313 301 315 321L319 337Q324 356 343 372L570 554Q585 566 597 566Q606 566 610 561T612 546L609 529Q606 517 601 510T583 493L379 329L513 165Q520 157 522 152T525
139Q525 133 524 129L520 112Q518 103 512 98T496 92Q486 92 474 104Z" />
<glyph unicode="&#xac;" glyph-name="logicalnot" horiz-adv-x="585" d="M430 170T425 176T422 192L444 292H99Q89 292 84 298T81 314L84 328Q86 338 93 344T111 350H496Q506 350 510 344T513 328L484 192Q483 182 476 176T458 170H440Q430 170 425 176Z" />
<glyph unicode="&#xad;" glyph-name="uni00AD" horiz-adv-x="264" />
<glyph unicode="&#xae;" glyph-name="registered" horiz-adv-x="833" d="M271 -10T203 27T98 130T60 276Q60 310 68 350Q89 448 153 530T308 661T498 710Q585 710 652 673T758 570T796 423Q796 390 788 350Q767 252 703 170T548 39T357 -10Q271 -10 203 27ZM437
45T517 86T655 198T730 350Q737 381 737 415Q737 483 707 537T623 623T498 655Q419 655 339 614T201 502T126 350Q119 319 119 285Q119 217 148 163T232 77T357 45Q437 45 517 86ZM266 168T262 174T259 190L327 512Q329 522 336 528T354 534H471Q522 534 558 511T595
441Q595 426 593 418Q586 379 561 352T499 313L545 204Q546 202 546 195Q546 185 539 177T519 168H509Q499 168 494 172T484 187L437 302H344L320 190Q318 180 311 174T293 168H276Q266 168 262 174ZM443 360Q493 360 513 382T534 436Q534 476 469 476H381L356
360H443Z" />
<glyph unicode="&#xaf;" glyph-name="overscore" horiz-adv-x="278" d="M39 622T34 628T31 644L34 658Q36 668 43 674T61 680H260Q270 680 274 674T277 658L274 644Q273 634 266 628T248 622H49Q39 622 34 628Z" />
<glyph unicode="&#xb0;" glyph-name="degree" horiz-adv-x="377" d="M170 448T139 476T107 550Q107 564 110 579Q122 635 167 672T269 710Q322 710 353 682T385 608Q385 594 382 579Q370 523 325 486T224 448Q170 448 139 476ZM257 503T286 524T322 579Q325 591
325 602Q325 627 311 641T269 655Q236 655 207 634T170 579Q168 571 168 557Q168 503 224 503Q257 503 286 524Z" />
<glyph unicode="&#xb1;" glyph-name="plusminus" horiz-adv-x="553" d="M241 193T236 199T233 215L267 373H110Q100 373 95 379T92 395L95 409Q97 419 104 425T122 431H279L312 585Q314 595 321 601T339 607H355Q365 607 369 601T372 585L339 431H496Q506 431
510 425T513 409L510 395Q509 385 502 379T484 373H327L293 215Q291 205 284 199T267 193H251Q241 193 236 199ZM31 0T26 6T23 22L26 36Q28 46 35 52T53 58H407Q417 58 421 52T424 36L421 22Q419 12 412 6T395 0H41Q31 0 26 6Z" />
<glyph unicode="&#xb2;" glyph-name="uni00B2" horiz-adv-x="335" d="M69 350T65 356T62 372L65 389Q68 404 96 422Q114 434 128 442T151 456Q215 495 243 514T288 552T309 594Q310 598 310 605Q310 625 295 637T256 650Q224 650 209 639T187 618T179 607Q171
596 165 593T151 589H136Q127 589 123 594T122 608Q129 632 151 654T204 691T268 705Q316 705 342 680T369 616Q369 601 367 594Q359 558 338 531T279 477T168 406H320Q330 406 334 400T337 384L335 372Q333 362 326 356T308 350H79Q69 350 65 356Z" />
<glyph unicode="&#xb3;" glyph-name="uni00B3" horiz-adv-x="336" d="M130 345T100 365T70 416L71 425Q72 434 79 439T92 444H112Q118 444 123 440T131 430Q137 419 142 414T160 405T200 401Q238 401 264 418T290 463Q290 484 274 492T227 501H187Q177 501 173
507T170 523L173 540Q175 550 190 563L297 644H155Q145 644 140 650T137 666L140 678Q142 688 149 694T166 700H364Q374 700 379 694T382 678L379 666Q377 654 372 646T355 627L264 557Q308 555 329 534T350 479Q350 466 347 451Q336 401 295 373T188 345Q130 345
100 365Z" />
<glyph unicode="&#xb4;" glyph-name="acute" horiz-adv-x="224" d="M36 595T33 599T31 611Q33 618 39 624L126 707Q137 718 145 721T167 725H208Q215 725 219 721T223 710Q223 699 215 694L87 605Q78 599 72 597T54 595H43Q36 595 33 599Z" />
<glyph unicode="&#xb5;" glyph-name="uni00B5" horiz-adv-x="586" d="M546 520T550 514T553 498L452 22Q450 12 443 6T426 0H409Q399 0 394 6T391 22L401 69Q364 30 327 10T235 -10Q133 -10 89 69L37 -178Q35 -188 28 -194T10 -200H-7Q-17 -200 -21 -194T-24 -178L119
498Q121 508 128 514T146 520H163Q173 520 177 514T180 498L121 219Q116 194 116 175Q116 117 150 83T235 48Q274 48 315 69T389 129T433 219L492 498Q494 508 501 514T519 520H536Q546 520 550 514Z" />
<glyph unicode="&#xb6;" glyph-name="paragraph" horiz-adv-x="491" d="M89 571T121 611T199 676T293 700H472Q482 700 487 694T490 678L329 -78Q327 -88 320 -94T302 -100H285Q275 -100 271 -94T268 -78L421 642H342L189 -78Q187 -88 180 -94T162 -100H145Q135
-100 131 -94T128 -78L218 346Q155 346 115 385T75 485Q75 506 79 523Q89 571 121 611Z" />
<glyph unicode="&#xb7;" glyph-name="middot" horiz-adv-x="326" d="M61 311T79 339T126 383T185 400Q221 400 243 378T265 321Q265 290 248 262T202 217T142 200Q106 200 84 223T61 280Q61 311 79 339Z" />
<glyph unicode="&#xb8;" glyph-name="cedilla" horiz-adv-x="250" d="M83 -220T57 -206T30 -178Q30 -174 35 -169L51 -156Q55 -152 59 -152Q63 -152 71 -158T89 -169T116 -174Q136 -174 152 -161T168 -126Q168 -112 158 -104T132 -96Q118 -96 103 -101T83 -106Q75
-106 71 -100L59 -83Q58 -81 58 -78Q58 -72 70 -53L122 27H180L120 -58Q134 -50 160 -50Q185 -50 202 -68T219 -115Q219 -128 217 -135Q209 -173 184 -196T116 -220Q83 -220 57 -206Z" />
<glyph unicode="&#xb9;" glyph-name="uni00B9" horiz-adv-x="231" d="M162 350T158 356T155 372L208 623L135 576Q128 572 121 572Q111 572 105 581L100 591Q97 596 97 600Q97 613 111 622L222 693Q233 700 246 700H260Q270 700 275 694T278 678L213 372Q211 362
204 356T186 350H172Q162 350 158 356Z" />
<glyph unicode="&#xba;" glyph-name="ordmasculine" horiz-adv-x="358" d="M161 429T134 451T107 518Q107 535 109 545Q111 561 119 589Q134 646 172 675T261 705Q306 705 333 682T361 614Q361 607 359 589Q357 573 349 545Q334 486 298 458T208 429Q161 429 134
451ZM242 487T261 502T288 545Q296 573 298 589Q299 595 299 605Q299 647 254 647Q226 647 207 631T180 589Q172 561 170 545Q168 531 168 527Q168 507 179 497T214 487Q242 487 261 502Z" />
<glyph unicode="&#xbb;" glyph-name="guillemotright" horiz-adv-x="603" d="M40 92T36 97T33 112L37 129Q39 140 44 147T62 165L266 329L132 493Q131 495 126 502T120 518Q120 521 122 529L125 546Q127 555 134 560T150 566Q159 566 171 554L320 372Q327 363
329 355T330 337L326 321Q321 301 302 286L75 104Q60 92 49 92Q40 92 36 97ZM289 92T285 97T282 112L286 129Q288 140 293 147T311 165L515 329L381 493Q380 495 375 502T369 518Q369 521 371 529L374 546Q376 555 383 560T399 566Q408 566 420 554L569 372Q576
363 578 355T579 337L575 321Q570 301 551 286L324 104Q309 92 298 92Q289 92 285 97Z" />
<glyph unicode="&#xbc;" glyph-name="onequarter" horiz-adv-x="687" d="M194 350T190 356T187 372L240 623L167 576Q160 572 153 572Q143 572 137 581L132 591Q129 596 129 600Q129 613 143 622L254 693Q265 700 278 700H292Q302 700 307 694T310 678L245 372Q243
362 236 356T218 350H204Q194 350 190 356ZM482 0T478 6T475 22L486 75H339Q329 75 325 81T322 97L324 110Q329 126 343 140L521 332Q538 350 554 350H580Q590 350 595 344T598 328L556 131H591Q601 131 605 125T608 109L606 97Q604 87 597 81T579 75H544L533 22Q531
12 524 6T506 0H492Q482 0 478 6ZM404 131H498L527 266L404 131ZM2 0T-2 4T-7 15Q-7 24 0 31L631 681Q642 692 649 696T668 700H693Q701 700 705 696T710 685Q710 676 703 669L72 19Q61 8 54 4T35 0H10Q2 0 -2 4Z" />
<glyph unicode="&#xbd;" glyph-name="onehalf" horiz-adv-x="723" d="M194 350T190 356T187 372L240 623L167 576Q160 572 153 572Q143 572 137 581L132 591Q129 596 129 600Q129 613 143 622L254 693Q265 700 278 700H292Q302 700 307 694T310 678L245 372Q243
362 236 356T218 350H204Q194 350 190 356ZM367 0T363 6T360 22L363 39Q366 54 394 72Q412 84 426 92T449 106Q513 145 541 164T586 202T607 244Q608 248 608 255Q608 275 593 287T554 300Q522 300 507 289T485 268T477 257Q469 246 463 243T449 239H434Q425 239
421 244T420 258Q427 282 449 304T502 341T566 355Q614 355 640 330T667 266Q667 251 665 244Q657 208 636 181T577 127T466 56H618Q628 56 632 50T635 34L633 22Q631 12 624 6T606 0H377Q367 0 363 6ZM2 0T-2 4T-7 15Q-7 24 0 31L631 681Q642 692 649 696T668
700H693Q701 700 705 696T710 685Q710 676 703 669L72 19Q61 8 54 4T35 0H10Q2 0 -2 4Z" />
<glyph unicode="&#xbe;" glyph-name="threequarters" horiz-adv-x="732" d="M150 345T120 365T90 416L91 425Q92 434 99 439T112 444H132Q138 444 143 440T151 430Q157 419 162 414T180 405T220 401Q258 401 284 418T310 463Q310 484 294 492T247 501H207Q197
501 193 507T190 523L193 540Q195 550 210 563L317 644H175Q165 644 160 650T157 666L160 678Q162 688 169 694T186 700H384Q394 700 399 694T402 678L399 666Q397 654 392 646T375 627L284 557Q328 555 349 534T370 479Q370 466 367 451Q356 401 315 373T208 345Q150
345 120 365ZM527 0T523 6T520 22L531 75H384Q374 75 370 81T367 97L369 110Q374 126 388 140L566 332Q583 350 599 350H625Q635 350 640 344T643 328L601 131H636Q646 131 650 125T653 109L651 97Q649 87 642 81T624 75H589L578 22Q576 12 569 6T551 0H537Q527
0 523 6ZM449 131H543L572 266L449 131ZM47 0T43 4T38 15Q38 24 45 31L676 681Q687 692 694 696T713 700H738Q746 700 750 696T755 685Q755 676 748 669L117 19Q106 8 99 4T80 0H55Q47 0 43 4Z" />
<glyph unicode="&#xbf;" glyph-name="questiondown" horiz-adv-x="496" d="M486 520T490 514T493 498L485 460Q483 450 476 444T458 437H420Q410 437 405 443T402 460L410 498Q412 508 420 514T438 520H476Q486 520 490 514ZM443 377T448 371T451 355Q447 339
441 307Q428 250 394 209T300 118Q253 77 230 53T197 -2Q191 -22 191 -38Q191 -81 228 -106T317 -132Q380 -132 429 -99T506 7Q515 29 534 29H550Q559 29 564 24T567 9Q554 -46 516 -91T423 -163T305 -190Q218 -190 174 -151T129 -51Q129 -25 136 -3Q149 44 180
80T266 162Q317 205 344 236T380 307Q386 339 390 355Q391 365 398 371T416 377H433Q443 377 448 371Z" />
<glyph unicode="&#xc0;" glyph-name="Agrave" horiz-adv-x="653" d="M-26 0T-31 5T-36 19Q-36 25 -33 31L358 680Q370 700 391 700H433Q455 700 458 680L573 31Q574 28 574 22Q574 12 569 6T555 0H534Q515 0 511 21L481 175H128L30 15Q21 0 5 0H-17Q-26 0 -31
5ZM164 235H471L401 629L164 235ZM405 750T399 752T387 760L300 846Q295 851 295 859Q295 867 301 873T318 880H364Q378 880 383 877T397 862L448 779Q450 773 450 769Q450 761 445 756T431 750H416Q405 750 399 752Z" />
<glyph unicode="&#xc1;" glyph-name="Aacute" horiz-adv-x="653" d="M-26 0T-31 5T-36 19Q-36 25 -33 31L358 680Q370 700 391 700H433Q455 700 458 680L573 31Q574 28 574 22Q574 12 569 6T555 0H534Q515 0 511 21L481 175H128L30 15Q21 0 5 0H-17Q-26 0 -31
5ZM164 235H471L401 629L164 235ZM398 750T395 753T391 762Q391 770 398 777L487 862Q497 872 505 876T528 880H574Q582 880 586 876T590 866Q590 855 581 849L453 760Q444 754 438 752T420 750H405Q398 750 395 753Z" />
<glyph unicode="&#xc2;" glyph-name="Acircumflex" horiz-adv-x="653" d="M-26 0T-31 5T-36 19Q-36 25 -33 31L358 680Q370 700 391 700H433Q455 700 458 680L573 31Q574 28 574 22Q574 12 569 6T555 0H534Q515 0 511 21L481 175H128L30 15Q21 0 5 0H-17Q-26 0
-31 5ZM164 235H471L401 629L164 235ZM278 750T278 760Q278 768 287 775L399 866Q410 875 417 877T434 880H444Q454 880 460 878T473 866L546 776Q550 771 550 765Q550 759 546 755T535 750H515Q505 750 498 757L433 817L342 757Q341 756 336 753T323 750H289Q278
750 278 760Z" />
<glyph unicode="&#xc3;" glyph-name="Atilde" horiz-adv-x="653" d="M-26 0T-31 5T-36 19Q-36 25 -33 31L358 680Q370 700 391 700H433Q455 700 458 680L573 31Q574 28 574 22Q574 12 569 6T555 0H534Q515 0 511 21L481 175H128L30 15Q21 0 5 0H-17Q-26 0 -31
5ZM164 235H471L401 629L164 235ZM455 745T444 750T415 765Q407 770 399 774T382 779Q370 779 363 775T349 762Q345 757 340 754T329 750H309Q302 750 299 755T296 766Q300 795 326 819T382 844Q399 844 411 839T438 824Q446 819 454 815T472 810Q485 810 491 814T505
827Q514 840 525 840H545Q552 840 555 836T558 824Q554 795 528 770T472 745Q455 745 444 750Z" />
<glyph unicode="&#xc4;" glyph-name="Adieresis" horiz-adv-x="653" d="M-26 0T-31 5T-36 19Q-36 25 -33 31L358 680Q370 700 391 700H433Q455 700 458 680L573 31Q574 28 574 22Q574 12 569 6T555 0H534Q515 0 511 21L481 175H128L30 15Q21 0 5 0H-17Q-26 0 -31
5ZM164 235H471L401 629L164 235ZM296 750T292 756T289 772L297 810Q299 820 306 826T324 833H362Q372 833 377 827T380 810L372 772Q370 762 362 756T344 750H306Q296 750 292 756ZM479 750T475 756T472 772L480 810Q482 820 489 826T507 833H545Q555 833 560
827T563 810L555 772Q553 762 545 756T527 750H489Q479 750 475 756Z" />
<glyph unicode="&#xc5;" glyph-name="Aring" horiz-adv-x="653" d="M-26 0T-31 5T-36 19Q-36 25 -33 31L358 680Q370 700 391 700H433Q455 700 458 680L573 31Q574 28 574 22Q574 12 569 6T555 0H534Q515 0 511 21L481 175H128L30 15Q21 0 5 0H-17Q-26 0 -31 5ZM164
235H471L401 629L164 235ZM389 740T369 757T349 800Q349 805 351 815Q358 848 384 869T444 890Q474 890 493 874T513 830Q513 825 511 815Q504 782 478 761T418 740Q389 740 369 757ZM439 785T450 796T462 824Q462 845 440 845Q423 845 412 834T400 807Q400 797
405 791T421 785Q439 785 450 796Z" />
<glyph unicode="&#xc6;" glyph-name="AE" horiz-adv-x="943" d="M-29 0T-29 18Q-29 28 -24 36L364 681Q376 700 394 700H944Q954 700 959 694T962 677L959 662Q957 652 950 646T932 640H583L528 385H855Q865 385 870 379T873 362L870 347Q868 337 861 331T843
325H516L459 60H816Q826 60 831 54T834 37L831 22Q829 12 822 6T804 0H406Q396 0 391 6T388 22L421 175H134L36 15Q27 0 11 0H-9Q-29 0 -29 18ZM170 235H433L518 633H409L170 235Z" />
<glyph unicode="&#xc7;" glyph-name="Ccedilla" horiz-adv-x="651" d="M202 -220T179 -207T156 -179Q156 -173 161 -169L178 -156Q183 -152 188 -152Q192 -152 200 -158T217 -169T242 -174Q260 -174 275 -163T294 -134Q295 -131 295 -126Q295 -112 285 -104T259
-96Q245 -96 230 -101T210 -106Q202 -106 198 -100L186 -83Q184 -79 184 -78Q184 -72 189 -64T197 -53L227 -6Q145 6 106 56T66 187Q66 225 73 261Q88 353 111 439Q142 563 222 636T433 710Q512 710 562 684T635 617T657 527Q657 511 654 494Q653 485 646 480T629
474H609Q591 474 591 495Q591 580 548 615T420 650Q226 650 172 434Q151 343 137 266Q131 230 131 201Q131 50 293 50Q378 50 435 85T530 205Q538 226 556 226H576Q585 226 590 221T593 206Q579 154 540 105T435 23T280 -10L247 -58Q261 -50 287 -50Q315 -50 331
-66T347 -111Q347 -155 316 -187T234 -220Q202 -220 179 -207Z" />
<glyph unicode="&#xc8;" glyph-name="Egrave" horiz-adv-x="591" d="M44 0T39 6T36 22L175 677Q177 687 184 693T202 700H592Q602 700 607 694T610 677L607 662Q605 652 598 646T580 640H231L176 385H503Q513 385 518 379T521 362L518 347Q516 337 509 331T491
325H164L107 60H464Q474 60 479 54T482 37L479 22Q477 12 470 6T452 0H54Q44 0 39 6ZM405 750T399 752T387 760L300 846Q295 851 295 859Q295 867 301 873T318 880H364Q378 880 383 877T397 862L448 779Q450 773 450 769Q450 761 445 756T431 750H416Q405 750 399
752Z" />
<glyph unicode="&#xc9;" glyph-name="Eacute" horiz-adv-x="591" d="M44 0T39 6T36 22L175 677Q177 687 184 693T202 700H592Q602 700 607 694T610 677L607 662Q605 652 598 646T580 640H231L176 385H503Q513 385 518 379T521 362L518 347Q516 337 509 331T491
325H164L107 60H464Q474 60 479 54T482 37L479 22Q477 12 470 6T452 0H54Q44 0 39 6ZM380 750T377 753T373 762Q373 770 380 777L469 862Q479 872 487 876T510 880H556Q564 880 568 876T572 866Q572 855 563 849L435 760Q426 754 420 752T402 750H387Q380 750 377
753Z" />
<glyph unicode="&#xca;" glyph-name="Ecircumflex" horiz-adv-x="591" d="M44 0T39 6T36 22L175 677Q177 687 184 693T202 700H592Q602 700 607 694T610 677L607 662Q605 652 598 646T580 640H231L176 385H503Q513 385 518 379T521 362L518 347Q516 337 509 331T491
325H164L107 60H464Q474 60 479 54T482 37L479 22Q477 12 470 6T452 0H54Q44 0 39 6ZM263 750T263 760Q263 768 272 775L384 866Q395 875 402 877T419 880H429Q439 880 445 878T458 866L531 776Q535 771 535 765Q535 759 531 755T520 750H500Q490 750 483 757L418
817L327 757Q326 756 321 753T308 750H274Q263 750 263 760Z" />
<glyph unicode="&#xcb;" glyph-name="Edieresis" horiz-adv-x="591" d="M44 0T39 6T36 22L175 677Q177 687 184 693T202 700H592Q602 700 607 694T610 677L607 662Q605 652 598 646T580 640H231L176 385H503Q513 385 518 379T521 362L518 347Q516 337 509 331T491
325H164L107 60H464Q474 60 479 54T482 37L479 22Q477 12 470 6T452 0H54Q44 0 39 6ZM281 750T277 756T274 772L282 810Q284 820 291 826T309 833H347Q357 833 362 827T365 810L357 772Q355 762 347 756T329 750H291Q281 750 277 756ZM464 750T460 756T457 772L465
810Q467 820 474 826T492 833H530Q540 833 545 827T548 810L540 772Q538 762 530 756T512 750H474Q464 750 460 756Z" />
<glyph unicode="&#xcc;" glyph-name="Igrave" horiz-adv-x="252" d="M43 0T38 6T35 22L176 678Q177 688 184 694T202 700H221Q231 700 236 694T239 678L99 22Q97 12 90 6T73 0H53Q43 0 38 6ZM217 750T211 752T199 760L112 846Q107 851 107 859Q107 867 113 873T130
880H176Q190 880 195 877T209 862L260 779Q262 773 262 769Q262 761 257 756T243 750H228Q217 750 211 752Z" />
<glyph unicode="&#xcd;" glyph-name="Iacute" horiz-adv-x="252" d="M43 0T38 6T35 22L176 678Q177 688 184 694T202 700H221Q231 700 236 694T239 678L99 22Q97 12 90 6T73 0H53Q43 0 38 6ZM198 750T195 753T191 762Q191 770 198 777L287 862Q297 872 305 876T328
880H374Q382 880 386 876T390 866Q390 855 381 849L253 760Q244 754 238 752T220 750H205Q198 750 195 753Z" />
<glyph unicode="&#xce;" glyph-name="Icircumflex" horiz-adv-x="252" d="M43 0T38 6T35 22L176 678Q177 688 184 694T202 700H221Q231 700 236 694T239 678L99 22Q97 12 90 6T73 0H53Q43 0 38 6ZM82 750T82 760Q82 768 91 775L203 866Q214 875 221 877T238 880H248Q258
880 264 878T277 866L350 776Q354 771 354 765Q354 759 350 755T339 750H319Q309 750 302 757L237 817L146 757Q145 756 140 753T127 750H93Q82 750 82 760Z" />
<glyph unicode="&#xcf;" glyph-name="Idieresis" horiz-adv-x="252" d="M43 0T38 6T35 22L176 678Q177 688 184 694T202 700H221Q231 700 236 694T239 678L99 22Q97 12 90 6T73 0H53Q43 0 38 6ZM101 750T97 756T94 772L102 810Q104 820 111 826T129 833H167Q177
833 182 827T185 810L177 772Q175 762 167 756T149 750H111Q101 750 97 756ZM284 750T280 756T277 772L285 810Q287 820 294 826T312 833H350Q360 833 365 827T368 810L360 772Q358 762 350 756T332 750H294Q284 750 280 756Z" />
<glyph unicode="&#xd0;" glyph-name="Eth" horiz-adv-x="684" d="M51 0T46 6T43 22L107 322H44Q34 322 30 328T27 344L30 360Q31 370 39 376T57 382H120L182 677Q184 687 191 693T209 700H412Q528 700 589 649T650 502Q650 466 643 430Q624 337 609 271Q587 175
550 117T450 29T289 0H61Q51 0 46 6ZM286 60Q366 60 416 81T498 149T547 276Q562 342 579 425Q587 468 587 499Q587 571 544 605T405 640H238L183 382H333Q343 382 347 376T350 360L347 344Q346 334 338 328T320 322H170L114 60H286Z" />
<glyph unicode="&#xd1;" glyph-name="Ntilde" horiz-adv-x="687" d="M44 0T39 6T36 22L175 677Q177 688 184 694T201 700H221Q235 700 240 688L491 117L610 677Q612 687 619 693T637 700H655Q665 700 670 694T673 677L534 23Q532 12 525 6T508 0H488Q474 0 469
12L219 581L100 22Q98 12 91 6T73 0H54Q44 0 39 6ZM467 745T456 750T427 765Q419 770 411 774T394 779Q382 779 375 775T361 762Q357 757 352 754T341 750H321Q314 750 311 755T308 766Q312 795 338 819T394 844Q411 844 423 839T450 824Q458 819 466 815T484 810Q497
810 503 814T517 827Q526 840 537 840H557Q564 840 567 836T570 824Q566 795 540 770T484 745Q467 745 456 750Z" />
<glyph unicode="&#xd2;" glyph-name="Ograve" horiz-adv-x="662" d="M169 -10T111 40T53 191Q53 228 60 266Q77 356 96 434Q128 571 209 640T412 710Q515 710 573 659T631 507Q631 470 624 434Q608 344 588 266Q555 127 474 59T272 -10Q169 -10 111 40ZM366 50T432
104T526 271Q545 347 560 429Q567 467 567 503Q567 579 528 614T412 650Q317 650 252 596T158 429Q139 353 124 271Q117 232 117 197Q117 121 155 86T272 50Q366 50 432 104ZM413 750T407 752T395 760L308 846Q303 851 303 859Q303 867 309 873T326 880H372Q386
880 391 877T405 862L456 779Q458 773 458 769Q458 761 453 756T439 750H424Q413 750 407 752Z" />
<glyph unicode="&#xd3;" glyph-name="Oacute" horiz-adv-x="662" d="M169 -10T111 40T53 191Q53 228 60 266Q77 356 96 434Q128 571 209 640T412 710Q515 710 573 659T631 507Q631 470 624 434Q608 344 588 266Q555 127 474 59T272 -10Q169 -10 111 40ZM366 50T432
104T526 271Q545 347 560 429Q567 467 567 503Q567 579 528 614T412 650Q317 650 252 596T158 429Q139 353 124 271Q117 232 117 197Q117 121 155 86T272 50Q366 50 432 104ZM389 750T386 753T382 762Q382 770 389 777L478 862Q488 872 496 876T519 880H565Q573
880 577 876T581 866Q581 855 572 849L444 760Q435 754 429 752T411 750H396Q389 750 386 753Z" />
<glyph unicode="&#xd4;" glyph-name="Ocircumflex" horiz-adv-x="662" d="M169 -10T111 40T53 191Q53 228 60 266Q77 356 96 434Q128 571 209 640T412 710Q515 710 573 659T631 507Q631 470 624 434Q608 344 588 266Q555 127 474 59T272 -10Q169 -10 111 40ZM366
50T432 104T526 271Q545 347 560 429Q567 467 567 503Q567 579 528 614T412 650Q317 650 252 596T158 429Q139 353 124 271Q117 232 117 197Q117 121 155 86T272 50Q366 50 432 104ZM285 750T285 760Q285 768 294 775L406 866Q417 875 424 877T441 880H451Q461
880 467 878T480 866L553 776Q557 771 557 765Q557 759 553 755T542 750H522Q512 750 505 757L440 817L349 757Q348 756 343 753T330 750H296Q285 750 285 760Z" />
<glyph unicode="&#xd5;" glyph-name="Otilde" horiz-adv-x="662" d="M169 -10T111 40T53 191Q53 228 60 266Q77 356 96 434Q128 571 209 640T412 710Q515 710 573 659T631 507Q631 470 624 434Q608 344 588 266Q555 127 474 59T272 -10Q169 -10 111 40ZM366 50T432
104T526 271Q545 347 560 429Q567 467 567 503Q567 579 528 614T412 650Q317 650 252 596T158 429Q139 353 124 271Q117 232 117 197Q117 121 155 86T272 50Q366 50 432 104ZM466 745T455 750T426 765Q418 770 410 774T393 779Q381 779 374 775T360 762Q356 757
351 754T340 750H320Q313 750 310 755T307 766Q311 795 337 819T393 844Q410 844 422 839T449 824Q457 819 465 815T483 810Q496 810 502 814T516 827Q525 840 536 840H556Q563 840 566 836T569 824Q565 795 539 770T483 745Q466 745 455 750Z" />
<glyph unicode="&#xd6;" glyph-name="Odieresis" horiz-adv-x="662" d="M169 -10T111 40T53 191Q53 228 60 266Q77 356 96 434Q128 571 209 640T412 710Q515 710 573 659T631 507Q631 470 624 434Q608 344 588 266Q555 127 474 59T272 -10Q169 -10 111 40ZM366
50T432 104T526 271Q545 347 560 429Q567 467 567 503Q567 579 528 614T412 650Q317 650 252 596T158 429Q139 353 124 271Q117 232 117 197Q117 121 155 86T272 50Q366 50 432 104ZM302 750T298 756T295 772L303 810Q305 820 312 826T330 833H368Q378 833 383
827T386 810L378 772Q376 762 368 756T350 750H312Q302 750 298 756ZM485 750T481 756T478 772L486 810Q488 820 495 826T513 833H551Q561 833 566 827T569 810L561 772Q559 762 551 756T533 750H495Q485 750 481 756Z" />
<glyph unicode="&#xd7;" glyph-name="multiply" horiz-adv-x="537" d="M38 151Q34 155 34 162Q34 173 45 182L233 335L116 489Q112 494 112 501Q112 513 122 520L131 527Q139 534 148 534Q158 534 162 527L280 370L471 529Q479 536 488 536Q498 536 502 529L513
515Q517 510 517 503Q517 491 507 484L317 329L437 176Q441 172 441 165Q441 154 430 145L422 139Q413 132 405 132Q398 132 391 139L270 291L80 136Q71 129 63 129Q56 129 49 136L38 151Z" />
<glyph unicode="&#xd8;" glyph-name="Oslash" horiz-adv-x="682" d="M77 -10T77 182Q77 194 79 222L38 208Q30 205 25 205Q16 205 12 209T10 223L14 242Q16 253 21 257T41 267L89 284Q100 345 121 434Q154 570 239 640T444 710Q545 710 601 660T657 512Q657 496
656 488L696 502Q704 505 710 505Q728 505 725 487L721 468Q718 457 713 453T693 443L648 427Q634 348 614 266Q548 -10 291 -10Q77 -10 77 182ZM590 464Q591 474 591 493Q591 573 549 611T431 650Q342 650 277 596T183 429L176 401Q164 351 156 309L590 464ZM394
50T459 104T552 271Q571 351 581 403L145 246Q143 232 143 207Q143 127 185 89T304 50Q394 50 459 104Z" />
<glyph unicode="&#xd9;" glyph-name="Ugrave" horiz-adv-x="691" d="M180 -10T126 35T72 175Q72 222 83 271L169 677Q171 687 178 693T196 700H214Q224 700 229 694T232 677L145 268Q134 216 134 181Q134 113 170 82T286 50Q487 50 534 268L621 677Q623 687 630
693T649 700H667Q677 700 681 694T684 677L598 271Q567 126 492 58T286 -10Q180 -10 126 35ZM423 750T417 752T405 760L318 846Q313 851 313 859Q313 867 319 873T336 880H382Q396 880 401 877T415 862L466 779Q468 773 468 769Q468 761 463 756T449 750H434Q423
750 417 752Z" />
<glyph unicode="&#xda;" glyph-name="Uacute" horiz-adv-x="691" d="M180 -10T126 35T72 175Q72 222 83 271L169 677Q171 687 178 693T196 700H214Q224 700 229 694T232 677L145 268Q134 216 134 181Q134 113 170 82T286 50Q487 50 534 268L621 677Q623 687 630
693T649 700H667Q677 700 681 694T684 677L598 271Q567 126 492 58T286 -10Q180 -10 126 35ZM406 750T403 753T399 762Q399 770 406 777L495 862Q505 872 513 876T536 880H582Q590 880 594 876T598 866Q598 855 589 849L461 760Q452 754 446 752T428 750H413Q406
750 403 753Z" />
<glyph unicode="&#xdb;" glyph-name="Ucircumflex" horiz-adv-x="691" d="M180 -10T126 35T72 175Q72 222 83 271L169 677Q171 687 178 693T196 700H214Q224 700 229 694T232 677L145 268Q134 216 134 181Q134 113 170 82T286 50Q487 50 534 268L621 677Q623 687
630 693T649 700H667Q677 700 681 694T684 677L598 271Q567 126 492 58T286 -10Q180 -10 126 35ZM291 750T291 760Q291 768 300 775L412 866Q423 875 430 877T447 880H457Q467 880 473 878T486 866L559 776Q563 771 563 765Q563 759 559 755T548 750H528Q518 750
511 757L446 817L355 757Q354 756 349 753T336 750H302Q291 750 291 760Z" />
<glyph unicode="&#xdc;" glyph-name="Udieresis" horiz-adv-x="691" d="M180 -10T126 35T72 175Q72 222 83 271L169 677Q171 687 178 693T196 700H214Q224 700 229 694T232 677L145 268Q134 216 134 181Q134 113 170 82T286 50Q487 50 534 268L621 677Q623 687
630 693T649 700H667Q677 700 681 694T684 677L598 271Q567 126 492 58T286 -10Q180 -10 126 35ZM310 750T306 756T303 772L311 810Q313 820 320 826T338 833H376Q386 833 391 827T394 810L386 772Q384 762 376 756T358 750H320Q310 750 306 756ZM493 750T489 756T486
772L494 810Q496 820 503 826T521 833H559Q569 833 574 827T577 810L569 772Q567 762 559 756T541 750H503Q493 750 489 756Z" />
<glyph unicode="&#xdd;" glyph-name="Yacute" horiz-adv-x="629" d="M232 0T227 6T224 22L275 267L116 667Q114 673 114 675Q114 685 121 692T139 700H156Q170 700 176 685L315 335L602 685Q614 700 628 700H659Q677 700 677 687Q677 678 668 667L339 267L286
22Q284 12 277 6T259 0H242Q232 0 227 6ZM360 750T357 753T353 762Q353 770 360 777L449 862Q459 872 467 876T490 880H536Q544 880 548 876T552 866Q552 855 543 849L415 760Q406 754 400 752T382 750H367Q360 750 357 753Z" />
<glyph unicode="&#xde;" glyph-name="Thorn" horiz-adv-x="633" d="M44 0T39 6T36 22L176 678Q177 688 184 694T202 700H221Q231 700 236 694T239 678L213 557H410Q505 557 556 518T607 405Q607 380 601 350Q579 249 510 196T333 143H125L99 22Q97 12 90 6T72
0H54Q44 0 39 6ZM328 203Q411 203 467 241T538 350Q545 385 545 404Q545 452 513 474T403 497H200L138 203H328Z" />
<glyph unicode="&#xdf;" glyph-name="germandbls" horiz-adv-x="568" d="M45 0T41 6T38 22L140 502Q159 592 221 651T386 710Q472 710 513 670T555 568Q555 550 550 528Q538 469 503 431T428 377Q516 347 516 254Q516 228 510 202Q500 154 468 108T380 31T251
0H176Q166 0 162 6T159 22L162 36Q164 46 171 52T189 58H254Q333 58 384 98T449 202Q453 226 453 235Q453 286 418 316T315 347H250Q240 347 236 353T233 369L236 383Q237 393 244 399T262 405H317Q464 406 489 528Q492 543 492 555Q492 599 461 625T374 652Q308
652 262 613T200 497L99 22Q97 12 90 6T72 0H55Q45 0 41 6Z" />
<glyph unicode="&#xe0;" glyph-name="agrave" horiz-adv-x="569" d="M117 -10T77 41T36 173Q36 199 41 232Q44 252 53 288Q116 530 310 530Q371 530 405 509T459 451L469 498Q471 508 478 514T495 520H512Q522 520 527 514T530 498L429 22Q427 12 420 6T403 0H386Q376
0 371 6T368 22L378 69Q341 29 304 10T207 -10Q117 -10 77 41ZM261 48T303 74T373 140T411 224Q418 252 428 302Q432 321 432 346Q432 401 403 436T310 472Q234 472 187 421T115 288Q108 264 103 232Q98 195 98 169Q98 48 207 48Q261 48 303 74ZM328 595T322 597T310
605L223 691Q218 696 218 704Q218 712 224 718T239 725H282Q296 725 302 722T315 707L365 626Q370 618 368 610Q366 604 361 600T349 595H339Q328 595 322 597Z" />
<glyph unicode="&#xe1;" glyph-name="aacute" horiz-adv-x="569" d="M117 -10T77 41T36 173Q36 199 41 232Q44 252 53 288Q116 530 310 530Q371 530 405 509T459 451L469 498Q471 508 478 514T495 520H512Q522 520 527 514T530 498L429 22Q427 12 420 6T403 0H386Q376
0 371 6T368 22L378 69Q341 29 304 10T207 -10Q117 -10 77 41ZM261 48T303 74T373 140T411 224Q418 252 428 302Q432 321 432 346Q432 401 403 436T310 472Q234 472 187 421T115 288Q108 264 103 232Q98 195 98 169Q98 48 207 48Q261 48 303 74ZM304 595T301 599T299
611Q301 618 307 624L394 707Q405 718 413 721T435 725H476Q483 725 487 721T491 710Q491 699 483 694L355 605Q346 599 340 597T322 595H311Q304 595 301 599Z" />
<glyph unicode="&#xe2;" glyph-name="acircumflex" horiz-adv-x="569" d="M117 -10T77 41T36 173Q36 199 41 232Q44 252 53 288Q116 530 310 530Q371 530 405 509T459 451L469 498Q471 508 478 514T495 520H512Q522 520 527 514T530 498L429 22Q427 12 420 6T403
0H386Q376 0 371 6T368 22L378 69Q341 29 304 10T207 -10Q117 -10 77 41ZM261 48T303 74T373 140T411 224Q418 252 428 302Q432 321 432 346Q432 401 403 436T310 472Q234 472 187 421T115 288Q108 264 103 232Q98 195 98 169Q98 48 207 48Q261 48 303 74ZM193
595T193 605Q193 613 202 620L314 711Q325 720 332 722T349 725H359Q368 725 374 723T388 711L461 621Q465 616 465 610Q465 604 461 600T450 595H430Q420 595 413 602L348 662L257 602Q256 601 251 598T238 595H204Q193 595 193 605Z" />
<glyph unicode="&#xe3;" glyph-name="atilde" horiz-adv-x="569" d="M117 -10T77 41T36 173Q36 199 41 232Q44 252 53 288Q116 530 310 530Q371 530 405 509T459 451L469 498Q471 508 478 514T495 520H512Q522 520 527 514T530 498L429 22Q427 12 420 6T403 0H386Q376
0 371 6T368 22L378 69Q341 29 304 10T207 -10Q117 -10 77 41ZM261 48T303 74T373 140T411 224Q418 252 428 302Q432 321 432 346Q432 401 403 436T310 472Q234 472 187 421T115 288Q108 264 103 232Q98 195 98 169Q98 48 207 48Q261 48 303 74ZM377 590T367 595T341
610Q334 615 326 619T310 624Q303 624 297 621T288 614T283 609Q276 602 271 599T259 595H239Q232 595 229 600T226 611Q230 640 255 662T310 684Q327 684 337 679T363 664Q365 663 371 659T382 652T394 650Q402 650 407 653T420 665Q427 673 432 676T444 680H464Q471
680 474 675T477 664Q473 635 449 613T394 590Q377 590 367 595Z" />
<glyph unicode="&#xe4;" glyph-name="adieresis" horiz-adv-x="569" d="M117 -10T77 41T36 173Q36 199 41 232Q44 252 53 288Q116 530 310 530Q371 530 405 509T459 451L469 498Q471 508 478 514T495 520H512Q522 520 527 514T530 498L429 22Q427 12 420 6T403
0H386Q376 0 371 6T368 22L378 69Q341 29 304 10T207 -10Q117 -10 77 41ZM261 48T303 74T373 140T411 224Q418 252 428 302Q432 321 432 346Q432 401 403 436T310 472Q234 472 187 421T115 288Q108 264 103 232Q98 195 98 169Q98 48 207 48Q261 48 303 74ZM233
627T228 633T225 649L234 687Q236 697 243 703T260 710H298Q308 710 313 704T317 687L308 649Q306 639 299 633T281 627H243Q233 627 228 633ZM386 627T381 633T378 649L387 687Q389 697 396 703T413 710H451Q461 710 466 704T470 687L461 649Q459 639 452 633T434
627H396Q386 627 381 633Z" />
<glyph unicode="&#xe5;" glyph-name="aring" horiz-adv-x="569" d="M117 -10T77 41T36 173Q36 199 41 232Q44 252 53 288Q116 530 310 530Q371 530 405 509T459 451L469 498Q471 508 478 514T495 520H512Q522 520 527 514T530 498L429 22Q427 12 420 6T403 0H386Q376
0 371 6T368 22L378 69Q341 29 304 10T207 -10Q117 -10 77 41ZM261 48T303 74T373 140T411 224Q418 252 428 302Q432 321 432 346Q432 401 403 436T310 472Q234 472 187 421T115 288Q108 264 103 232Q98 195 98 169Q98 48 207 48Q261 48 303 74ZM310 590T290 607T270
650Q270 655 272 665Q279 698 305 719T365 740Q395 740 414 724T434 680Q434 675 432 665Q425 632 399 611T339 590Q310 590 290 607ZM360 635T371 646T383 674Q383 695 361 695Q344 695 333 684T321 657Q321 647 326 641T342 635Q360 635 371 646Z" />
<glyph unicode="&#xe6;" glyph-name="ae" horiz-adv-x="881" d="M102 -10T62 23T21 110Q21 124 24 139Q38 205 101 248T257 304L420 326L426 358Q430 380 430 389Q430 429 402 450T315 472Q263 472 226 452T174 404Q168 392 162 388T146 383H132Q123 383 118 389T114
405Q119 427 145 456T219 508T327 530Q398 530 436 506T486 442Q522 483 570 506T679 530Q773 530 811 483T849 361Q849 317 839 272L836 257Q834 247 826 241T808 235H462L460 225Q455 195 455 176Q455 111 490 80T575 48Q617 48 657 64T728 113Q739 125 745 128T762
131H774Q783 131 787 126T791 111Q787 93 757 64T676 13T563 -10Q430 -10 399 100Q319 -10 171 -10Q102 -10 62 23ZM782 291L783 295Q789 324 789 350Q789 406 759 439T667 472Q605 472 551 427T475 295L474 291H782ZM266 48T323 96T400 234L407 268L274 250Q181
237 133 205T84 125Q84 88 115 68T193 48Q266 48 323 96Z" />
<glyph unicode="&#xe7;" glyph-name="ccedilla" horiz-adv-x="535" d="M112 275T102 225Q97 199 97 169Q97 48 218 48Q341 48 393 150Q400 163 405 167T420 171H438Q447 171 451 165T453 149Q442 110 413 74T334 14T219 -10L185 -57Q198 -50 225 -50Q250 -50 267
-68T284 -115Q284 -128 282 -135Q274 -173 249 -196T181 -220Q148 -220 122 -206T95 -178Q95 -174 100 -169L116 -156Q120 -152 124 -152Q128 -152 136 -158T154 -169T181 -174Q201 -174 217 -161T233 -126Q233 -112 223 -104T197 -96Q183 -96 168 -101T148 -106Q140
-106 136 -100L124 -83Q123 -81 123 -78Q123 -72 135 -53L166 -5Q104 8 70 52T35 164Q35 195 40 220Q52 280 57 300Q84 410 150 470T321 530Q414 530 457 487T501 383Q501 372 500 366Q499 356 494 350T479 344H460Q449 344 444 348T440 365Q442 420 411 446T321
472Q248 472 194 428T117 295Q112 275 102 225Z" />
<glyph unicode="&#xe8;" glyph-name="egrave" horiz-adv-x="544" d="M140 -10T95 39T50 172Q50 195 53 220Q58 250 70 300Q100 404 171 467T338 530Q423 530 468 484T513 353Q513 316 504 272L501 257Q499 247 491 241T473 235H117L115 225Q112 206 112 187Q112
127 144 88T235 48Q290 48 329 70T388 113Q400 125 405 128T422 131H438Q446 131 451 127T456 116Q456 97 424 67T338 13T223 -10Q140 -10 95 39ZM447 291L448 295Q453 323 453 343Q453 401 420 436T326 472Q253 472 200 422T130 295L129 291H447ZM329 595T323
597T311 605L224 691Q219 696 219 704Q219 712 225 718T240 725H283Q297 725 303 722T316 707L366 626Q371 618 369 610Q367 604 362 600T350 595H340Q329 595 323 597Z" />
<glyph unicode="&#xe9;" glyph-name="eacute" horiz-adv-x="544" d="M140 -10T95 39T50 172Q50 195 53 220Q58 250 70 300Q100 404 171 467T338 530Q423 530 468 484T513 353Q513 316 504 272L501 257Q499 247 491 241T473 235H117L115 225Q112 206 112 187Q112
127 144 88T235 48Q290 48 329 70T388 113Q400 125 405 128T422 131H438Q446 131 451 127T456 116Q456 97 424 67T338 13T223 -10Q140 -10 95 39ZM447 291L448 295Q453 323 453 343Q453 401 420 436T326 472Q253 472 200 422T130 295L129 291H447ZM309 595T306
599T304 611Q306 618 312 624L399 707Q410 718 418 721T440 725H481Q488 725 492 721T496 710Q496 699 488 694L360 605Q351 599 345 597T327 595H316Q309 595 306 599Z" />
<glyph unicode="&#xea;" glyph-name="ecircumflex" horiz-adv-x="544" d="M140 -10T95 39T50 172Q50 195 53 220Q58 250 70 300Q100 404 171 467T338 530Q423 530 468 484T513 353Q513 316 504 272L501 257Q499 247 491 241T473 235H117L115 225Q112 206 112 187Q112
127 144 88T235 48Q290 48 329 70T388 113Q400 125 405 128T422 131H438Q446 131 451 127T456 116Q456 97 424 67T338 13T223 -10Q140 -10 95 39ZM447 291L448 295Q453 323 453 343Q453 401 420 436T326 472Q253 472 200 422T130 295L129 291H447ZM192 595T192
605Q192 613 201 620L313 711Q324 720 331 722T348 725H358Q367 725 373 723T387 711L460 621Q464 616 464 610Q464 604 460 600T449 595H429Q419 595 412 602L347 662L256 602Q255 601 250 598T237 595H203Q192 595 192 605Z" />
<glyph unicode="&#xeb;" glyph-name="edieresis" horiz-adv-x="544" d="M140 -10T95 39T50 172Q50 195 53 220Q58 250 70 300Q100 404 171 467T338 530Q423 530 468 484T513 353Q513 316 504 272L501 257Q499 247 491 241T473 235H117L115 225Q112 206 112 187Q112
127 144 88T235 48Q290 48 329 70T388 113Q400 125 405 128T422 131H438Q446 131 451 127T456 116Q456 97 424 67T338 13T223 -10Q140 -10 95 39ZM447 291L448 295Q453 323 453 343Q453 401 420 436T326 472Q253 472 200 422T130 295L129 291H447ZM238 627T233
633T230 649L239 687Q241 697 248 703T265 710H303Q313 710 318 704T322 687L313 649Q311 639 304 633T286 627H248Q238 627 233 633ZM391 627T386 633T383 649L392 687Q394 697 401 703T418 710H456Q466 710 471 704T475 687L466 649Q464 639 457 633T439 627H401Q391
627 386 633Z" />
<glyph unicode="&#xec;" glyph-name="igrave" horiz-adv-x="224" d="M31 0T26 6T23 22L124 498Q126 508 133 514T151 520H168Q178 520 182 514T185 498L84 22Q82 12 75 6T58 0H41Q31 0 26 6ZM164 595T158 597T146 605L59 691Q54 696 54 704Q54 712 60 718T75 725H118Q132
725 138 722T151 707L201 626Q206 618 204 610Q202 604 197 600T185 595H175Q164 595 158 597Z" />
<glyph unicode="&#xed;" glyph-name="iacute" horiz-adv-x="224" d="M31 0T26 6T23 22L124 498Q126 508 133 514T151 520H168Q178 520 182 514T185 498L84 22Q82 12 75 6T58 0H41Q31 0 26 6ZM151 595T148 599T146 611Q148 618 154 624L241 707Q252 718 260 721T282
725H323Q330 725 334 721T338 710Q338 699 330 694L202 605Q193 599 187 597T169 595H158Q151 595 148 599Z" />
<glyph unicode="&#xee;" glyph-name="icircumflex" horiz-adv-x="224" d="M31 0T26 6T23 22L124 498Q126 508 133 514T151 520H168Q178 520 182 514T185 498L84 22Q82 12 75 6T58 0H41Q31 0 26 6ZM36 595T36 605Q36 613 45 620L157 711Q168 720 175 722T192 725H202Q211
725 217 723T231 711L304 621Q308 616 308 610Q308 604 304 600T293 595H273Q263 595 256 602L191 662L100 602Q99 601 94 598T81 595H47Q36 595 36 605Z" />
<glyph unicode="&#xef;" glyph-name="idieresis" horiz-adv-x="224" d="M31 0T26 6T23 22L124 498Q126 508 133 514T151 520H168Q178 520 182 514T185 498L84 22Q82 12 75 6T58 0H41Q31 0 26 6ZM76 627T71 633T68 649L77 687Q79 697 86 703T103 710H141Q151 710
156 704T160 687L151 649Q149 639 142 633T124 627H86Q76 627 71 633ZM229 627T224 633T221 649L230 687Q232 697 239 703T256 710H294Q304 710 309 704T313 687L304 649Q302 639 295 633T277 627H239Q229 627 224 633Z" />
<glyph unicode="&#xf0;" glyph-name="eth" horiz-adv-x="550" d="M136 -10T91 36T46 162Q46 193 54 231Q76 337 147 403T324 470Q403 470 448 431Q439 500 409 553L305 516Q296 513 291 513Q273 513 276 531L280 550Q282 561 287 565T307 575L375 599Q354 624
320 658Q308 669 308 677Q308 687 315 693T332 700H352Q372 700 385 687Q417 653 440 622L541 658Q548 661 555 661Q573 661 570 643L566 624Q564 613 559 609T539 599L471 575Q512 502 512 399Q512 327 493 232Q492 231 492 229Q470 123 398 57T222 -10Q136 -10
91 36ZM309 48T361 98T431 228L432 232Q438 259 438 284Q438 342 406 377T312 412Q236 412 185 362T116 232L114 226Q109 198 109 178Q109 118 140 83T234 48Q309 48 361 98Z" />
<glyph unicode="&#xf1;" glyph-name="ntilde" horiz-adv-x="590" d="M31 0T26 6T23 22L124 498Q126 508 133 514T151 520H168Q178 520 182 514T185 498L175 451Q208 488 252 509T351 530Q440 530 482 489T524 374Q524 344 516 306L455 22Q453 12 446 6T429 0H412Q402
0 397 6T394 22L453 301Q463 349 463 376Q463 425 437 448T351 472Q272 472 216 427T143 301L84 22Q82 12 75 6T58 0H41Q31 0 26 6ZM387 590T377 595T351 610Q344 615 336 619T320 624Q313 624 307 621T298 614T293 609Q286 602 281 599T269 595H249Q242 595 239
600T236 611Q240 640 265 662T320 684Q337 684 347 679T373 664Q375 663 381 659T392 652T404 650Q412 650 417 653T430 665Q437 673 442 676T454 680H474Q481 680 484 675T487 664Q483 635 459 613T404 590Q387 590 377 595Z" />
<glyph unicode="&#xf2;" glyph-name="ograve" horiz-adv-x="556" d="M130 -10T82 38T34 167Q34 188 39 218Q42 237 47 260T57 302Q82 404 149 467T321 530Q411 530 458 482T506 354Q506 332 501 302Q489 242 483 218Q458 116 390 53T218 -10Q130 -10 82 38ZM291
48T347 94T423 223Q429 247 439 297Q444 327 444 348Q444 409 413 440T321 472Q248 472 193 426T117 297Q107 264 101 223Q96 191 96 171Q96 111 127 80T218 48Q291 48 347 94ZM337 595T331 597T319 605L232 691Q227 696 227 704Q227 712 233 718T248 725H291Q305
725 311 722T324 707L374 626Q379 618 377 610Q375 604 370 600T358 595H348Q337 595 331 597Z" />
<glyph unicode="&#xf3;" glyph-name="oacute" horiz-adv-x="556" d="M130 -10T82 38T34 167Q34 188 39 218Q42 237 47 260T57 302Q82 404 149 467T321 530Q411 530 458 482T506 354Q506 332 501 302Q489 242 483 218Q458 116 390 53T218 -10Q130 -10 82 38ZM291
48T347 94T423 223Q429 247 439 297Q444 327 444 348Q444 409 413 440T321 472Q248 472 193 426T117 297Q107 264 101 223Q96 191 96 171Q96 111 127 80T218 48Q291 48 347 94ZM316 595T313 599T311 611Q313 618 319 624L406 707Q417 718 425 721T447 725H488Q495
725 499 721T503 710Q503 699 495 694L367 605Q358 599 352 597T334 595H323Q316 595 313 599Z" />
<glyph unicode="&#xf4;" glyph-name="ocircumflex" horiz-adv-x="556" d="M130 -10T82 38T34 167Q34 188 39 218Q42 237 47 260T57 302Q82 404 149 467T321 530Q411 530 458 482T506 354Q506 332 501 302Q489 242 483 218Q458 116 390 53T218 -10Q130 -10 82 38ZM291
48T347 94T423 223Q429 247 439 297Q444 327 444 348Q444 409 413 440T321 472Q248 472 193 426T117 297Q107 264 101 223Q96 191 96 171Q96 111 127 80T218 48Q291 48 347 94ZM201 595T201 605Q201 613 210 620L322 711Q333 720 340 722T357 725H367Q376 725 382
723T396 711L469 621Q473 616 473 610Q473 604 469 600T458 595H438Q428 595 421 602L356 662L265 602Q264 601 259 598T246 595H212Q201 595 201 605Z" />
<glyph unicode="&#xf5;" glyph-name="otilde" horiz-adv-x="556" d="M130 -10T82 38T34 167Q34 188 39 218Q42 237 47 260T57 302Q82 404 149 467T321 530Q411 530 458 482T506 354Q506 332 501 302Q489 242 483 218Q458 116 390 53T218 -10Q130 -10 82 38ZM291
48T347 94T423 223Q429 247 439 297Q444 327 444 348Q444 409 413 440T321 472Q248 472 193 426T117 297Q107 264 101 223Q96 191 96 171Q96 111 127 80T218 48Q291 48 347 94ZM375 590T365 595T339 610Q332 615 324 619T308 624Q301 624 295 621T286 614T281 609Q274
602 269 599T257 595H237Q230 595 227 600T224 611Q228 640 253 662T308 684Q325 684 335 679T361 664Q363 663 369 659T380 652T392 650Q400 650 405 653T418 665Q425 673 430 676T442 680H462Q469 680 472 675T475 664Q471 635 447 613T392 590Q375 590 365 595Z"
/>
<glyph unicode="&#xf6;" glyph-name="odieresis" horiz-adv-x="556" d="M130 -10T82 38T34 167Q34 188 39 218Q42 237 47 260T57 302Q82 404 149 467T321 530Q411 530 458 482T506 354Q506 332 501 302Q489 242 483 218Q458 116 390 53T218 -10Q130 -10 82 38ZM291
48T347 94T423 223Q429 247 439 297Q444 327 444 348Q444 409 413 440T321 472Q248 472 193 426T117 297Q107 264 101 223Q96 191 96 171Q96 111 127 80T218 48Q291 48 347 94ZM242 627T237 633T234 649L243 687Q245 697 252 703T269 710H307Q317 710 322 704T326
687L317 649Q315 639 308 633T290 627H252Q242 627 237 633ZM395 627T390 633T387 649L396 687Q398 697 405 703T422 710H460Q470 710 475 704T479 687L470 649Q468 639 461 633T443 627H405Q395 627 390 633Z" />
<glyph unicode="&#xf7;" glyph-name="divide" horiz-adv-x="561" d="M274 430T270 436T267 452L277 500Q279 510 286 516T304 523H352Q362 523 367 517T370 500L360 452Q358 442 350 436T332 430H284Q274 430 270 436ZM77 272T73 278T70 294L73 308Q75 318 82
324T100 330H475Q485 330 489 324T492 308L489 294Q487 284 480 278T462 272H87Q77 272 73 278ZM200 80T195 86T192 102L202 150Q204 160 211 166T229 173H277Q287 173 292 167T295 150L285 102Q283 92 276 86T258 80H210Q200 80 195 86Z" />
<glyph unicode="&#xf8;" glyph-name="oslash" horiz-adv-x="594" d="M157 -10T114 32T67 144L26 129Q17 126 12 126Q3 126 -1 130T-3 144L1 163Q3 174 8 178T28 188L70 203Q76 247 90 302Q114 397 181 463T361 530Q451 530 493 486T539 371L580 386Q589 389 594
389Q603 389 607 385T609 371L605 352Q603 341 598 337T578 327L536 312Q531 274 517 218Q493 123 426 57T246 -10Q157 -10 114 32ZM477 349Q477 412 442 442T349 472Q281 472 227 431T151 302Q139 248 135 226L477 349ZM326 48T380 89T456 218Q464 249 471 289L128
166Q130 106 165 77T258 48Q326 48 380 89Z" />
<glyph unicode="&#xf9;" glyph-name="ugrave" horiz-adv-x="586" d="M134 -10T93 31T51 143Q51 174 59 214L119 498Q121 508 128 514T146 520H163Q173 520 177 514T180 498L121 219Q111 171 111 142Q111 94 137 71T222 48Q298 48 354 94T427 219L486 498Q488 508
495 514T513 520H530Q540 520 544 514T547 498L446 22Q444 12 437 6T420 0H403Q393 0 388 6T385 22L395 69Q367 41 346 25T295 0T222 -10Q134 -10 93 31ZM346 595T340 597T328 605L241 691Q236 696 236 704Q236 712 242 718T257 725H300Q314 725 320 722T333 707L383
626Q388 618 386 610Q384 604 379 600T367 595H357Q346 595 340 597Z" />
<glyph unicode="&#xfa;" glyph-name="uacute" horiz-adv-x="586" d="M134 -10T93 31T51 143Q51 174 59 214L119 498Q121 508 128 514T146 520H163Q173 520 177 514T180 498L121 219Q111 171 111 142Q111 94 137 71T222 48Q298 48 354 94T427 219L486 498Q488 508
495 514T513 520H530Q540 520 544 514T547 498L446 22Q444 12 437 6T420 0H403Q393 0 388 6T385 22L395 69Q367 41 346 25T295 0T222 -10Q134 -10 93 31ZM317 595T314 599T312 611Q314 618 320 624L407 707Q418 718 426 721T448 725H489Q496 725 500 721T504 710Q504
699 496 694L368 605Q359 599 353 597T335 595H324Q317 595 314 599Z" />
<glyph unicode="&#xfb;" glyph-name="ucircumflex" horiz-adv-x="586" d="M134 -10T93 31T51 143Q51 174 59 214L119 498Q121 508 128 514T146 520H163Q173 520 177 514T180 498L121 219Q111 171 111 142Q111 94 137 71T222 48Q298 48 354 94T427 219L486 498Q488
508 495 514T513 520H530Q540 520 544 514T547 498L446 22Q444 12 437 6T420 0H403Q393 0 388 6T385 22L395 69Q367 41 346 25T295 0T222 -10Q134 -10 93 31ZM198 595T198 605Q198 613 207 620L319 711Q330 720 337 722T354 725H364Q373 725 379 723T393 711L466
621Q470 616 470 610Q470 604 466 600T455 595H435Q425 595 418 602L353 662L262 602Q261 601 256 598T243 595H209Q198 595 198 605Z" />
<glyph unicode="&#xfc;" glyph-name="udieresis" horiz-adv-x="586" d="M134 -10T93 31T51 143Q51 174 59 214L119 498Q121 508 128 514T146 520H163Q173 520 177 514T180 498L121 219Q111 171 111 142Q111 94 137 71T222 48Q298 48 354 94T427 219L486 498Q488
508 495 514T513 520H530Q540 520 544 514T547 498L446 22Q444 12 437 6T420 0H403Q393 0 388 6T385 22L395 69Q367 41 346 25T295 0T222 -10Q134 -10 93 31ZM245 627T240 633T237 649L246 687Q248 697 255 703T272 710H310Q320 710 325 704T329 687L320 649Q318
639 311 633T293 627H255Q245 627 240 633ZM398 627T393 633T390 649L399 687Q401 697 408 703T425 710H463Q473 710 478 704T482 687L473 649Q471 639 464 633T446 627H408Q398 627 393 633Z" />
<glyph unicode="&#xfd;" glyph-name="yacute" horiz-adv-x="534" d="M47 -190T47 -174Q47 -166 53 -157L176 35L78 494Q77 496 77 501Q77 509 82 514T99 520H117Q135 520 138 505L223 108L480 505Q489 520 506 520H530Q537 520 542 516T548 504Q548 499 543 491L112
-175Q103 -190 86 -190H63Q47 -190 47 -174ZM295 595T292 599T290 611Q292 618 298 624L385 707Q396 718 404 721T426 725H467Q474 725 478 721T482 710Q482 699 474 694L346 605Q337 599 331 597T313 595H302Q295 595 292 599Z" />
<glyph unicode="&#xfe;" glyph-name="thorn" horiz-adv-x="579" d="M-9 -190T-14 -184T-17 -168L166 688Q168 698 175 704T192 710H209Q219 710 224 704T227 688L176 451Q209 488 250 509T352 530Q444 530 485 478T527 343Q527 312 523 288Q520 268 511 232Q484
128 422 59T249 -10Q136 -10 95 69L44 -168Q42 -178 35 -184T18 -190H1Q-9 -190 -14 -184ZM325 48T375 100T449 232Q456 256 461 288Q466 321 466 345Q466 472 352 472Q298 472 254 446T182 380T143 296Q136 268 126 218Q122 192 122 178Q122 122 153 85T249 48Q325
48 375 100Z" />
<glyph unicode="&#xff;" glyph-name="ydieresis" horiz-adv-x="534" d="M47 -190T47 -174Q47 -166 53 -157L176 35L78 494Q77 496 77 501Q77 509 82 514T99 520H117Q135 520 138 505L223 108L480 505Q489 520 506 520H530Q537 520 542 516T548 504Q548 499 543
491L112 -175Q103 -190 86 -190H63Q47 -190 47 -174ZM218 627T213 633T210 649L219 687Q221 697 228 703T245 710H283Q293 710 298 704T302 687L293 649Q291 639 284 633T266 627H228Q218 627 213 633ZM371 627T366 633T363 649L372 687Q374 697 381 703T398 710H436Q446
710 451 704T455 687L446 649Q444 639 437 633T419 627H381Q371 627 366 633Z" />
<glyph unicode="&#x2013;" glyph-name="endash" horiz-adv-x="578" d="M80 271T76 277T73 293L76 307Q78 317 85 323T102 329H487Q497 329 502 323T505 307L502 293Q500 283 493 277T475 271H90Q80 271 76 277Z" />
<glyph unicode="&#x2014;" glyph-name="emdash" horiz-adv-x="768" d="M80 271T76 277T73 293L76 307Q78 317 85 323T102 329H677Q687 329 692 323T695 307L692 293Q690 283 683 277T665 271H90Q80 271 76 277Z" />
<glyph unicode="&#x2018;" glyph-name="quoteleft" horiz-adv-x="223" d="M190 542T170 542H125Q111 542 111 553Q111 560 116 567L188 689Q194 700 200 705T218 710H235Q247 710 247 698L245 689L200 569Q190 542 170 542Z" />
<glyph unicode="&#x2019;" glyph-name="quoteright" horiz-adv-x="216" d="M173 710T193 710H238Q252 710 252 699Q252 692 247 685L175 563Q169 552 163 547T145 542H128Q116 542 116 554L118 563L163 683Q173 710 193 710Z" />
<glyph unicode="&#x201a;" glyph-name="quotesinglbase" horiz-adv-x="238" d="M44 93T64 93H109Q123 93 123 82Q123 75 118 68L46 -54Q40 -65 34 -70T16 -75H-1Q-13 -75 -13 -63L-11 -54L34 66Q44 93 64 93Z" />
<glyph unicode="&#x201c;" glyph-name="quotedblleft" horiz-adv-x="357" d="M111 542T111 553Q111 560 116 567L188 689Q194 700 200 705T218 710H235Q247 710 247 698L245 689L200 569Q190 542 170 542H125Q111 542 111 553ZM245 542T245 553Q245 560 250 567L322
689Q328 700 334 705T352 710H369Q381 710 381 698L379 689L334 569Q324 542 304 542H259Q245 542 245 553Z" />
<glyph unicode="&#x201d;" glyph-name="quotedblright" horiz-adv-x="350" d="M173 710T193 710H238Q252 710 252 699Q252 692 247 685L175 563Q169 552 163 547T145 542H128Q116 542 116 554L118 563L163 683Q173 710 193 710ZM307 710T327 710H372Q386 710 386
699Q386 692 381 685L309 563Q303 552 297 547T279 542H262Q250 542 250 554L252 563L297 683Q307 710 327 710Z" />
<glyph unicode="&#x201e;" glyph-name="quotedblbase" horiz-adv-x="372" d="M44 93T64 93H109Q123 93 123 82Q123 75 118 68L46 -54Q40 -65 34 -70T16 -75H-1Q-13 -75 -13 -63L-11 -54L34 66Q44 93 64 93ZM178 93T198 93H243Q257 93 257 82Q257 75 252 68L180
-54Q174 -65 168 -70T150 -75H133Q121 -75 121 -63L123 -54L168 66Q178 93 198 93Z" />
<glyph unicode="&#x2022;" glyph-name="bullet" horiz-adv-x="376" d="M86 311T104 339T151 383T210 400Q246 400 268 378T290 321Q290 290 273 262T227 217T167 200Q131 200 109 223T86 280Q86 311 104 339Z" />
<glyph unicode="&#x2039;" glyph-name="guilsinglleft" horiz-adv-x="354" d="M237 92T225 104L76 286Q64 301 66 321L70 337Q75 356 94 372L321 554Q336 566 348 566Q357 566 361 561T363 546L360 529Q357 517 352 510T334 493L130 329L264 165Q271 157 273 152T276
139Q276 133 275 129L271 112Q269 103 263 98T247 92Q237 92 225 104Z" />
<glyph unicode="&#x203a;" glyph-name="guilsinglright" horiz-adv-x="354" d="M40 92T36 97T33 112L37 129Q39 140 44 147T62 165L266 329L132 493Q131 495 126 502T120 518Q120 521 122 529L125 546Q127 555 134 560T150 566Q159 566 171 554L320 372Q327 363
329 355T330 337L326 321Q321 301 302 286L75 104Q60 92 49 92Q40 92 36 97Z" />
</font>
</defs>
</svg>
