<?xml version="1.0" standalone="no"?>
<!DOCTYPE svg PUBLIC "-//W3C//DTD SVG 1.1//EN" "http://www.w3.org/Graphics/SVG/1.1/DTD/svg11.dtd">
<svg xmlns="http://www.w3.org/2000/svg">
<defs >
<font id="Rubik" horiz-adv-x="603" ><font-face
    font-family="Rubik"
    units-per-em="1000"
    panose-1="0 0 8 0 0 0 0 0 0 0"
    ascent="935"
    descent="-250"
    alphabetic="0" />
<glyph unicode=" " glyph-name="space" horiz-adv-x="210" />
<glyph unicode="!" glyph-name="exclam" horiz-adv-x="295" d="M76 226T69 233T61 252V675Q61 686 68 693T87 700H208Q219 700 226 693T234 675V252Q234 241 227 234T208 226H87Q76 226 69 233ZM73 0T66 7T58 25V154Q58 165 65 172T83 180H212Q222 180 229 173T237
154V25Q237 15 230 8T212 0H83Q73 0 66 7Z" />
<glyph unicode="&quot;" glyph-name="quotedbl" horiz-adv-x="459" d="M67 441T63 469L40 679Q39 693 45 701T64 710H181Q193 710 199 702T205 679L182 469Q178 441 153 441H92Q67 441 63 469ZM281 441T277 469L254 679Q253 693 259 701T279 710H395Q408 710 414
702T419 679L396 469Q394 441 367 441H306Q281 441 277 469Z" />
<glyph unicode="#" glyph-name="numbersign" horiz-adv-x="685" d="M135 39T128 45T122 61L136 154H68Q58 154 51 161T44 178V262Q44 272 51 279T68 286H156L174 408H94Q84 408 77 415T70 432V516Q70 526 77 533T94 540H194L208 634Q210 643 216 649T232 655H315Q324
655 330 649T336 633L322 540H421L435 634Q437 643 443 649T459 655H542Q551 655 557 649T563 633L549 540H617Q627 540 634 533T641 516V432Q641 422 634 415T617 408H530L512 286H591Q601 286 608 279T615 262V178Q615 168 608 161T591 154H492L478 60Q476 51
470 45T454 39H371Q362 39 356 45T349 61L363 154H265L251 60Q249 51 243 45T227 39H144Q135 39 128 45ZM285 286H383L401 408H303L285 286Z" />
<glyph unicode="$" glyph-name="dollar" horiz-adv-x="673" d="M281 -100T274 -93T266 -75V-5Q191 4 139 32T60 103T31 192Q31 201 37 207T53 213H186Q199 213 206 209T222 195Q253 140 336 140Q390 140 419 156T449 202Q449 223 434 236T386 260T290 284Q169
308 109 357T49 497Q49 578 107 634T266 705V775Q266 786 273 793T291 800H378Q389 800 396 793T403 775V703Q469 691 517 661T590 591T618 514Q618 505 612 499T597 492H457Q434 492 423 510Q417 531 392 545T330 560Q288 560 265 545T242 501Q242 472 272 456T383
422Q477 405 533 380T615 314T641 211Q641 123 577 66T403 -5V-75Q403 -86 396 -93T378 -100H291Q281 -100 274 -93Z" />
<glyph unicode="%" glyph-name="percent" horiz-adv-x="811" d="M123 347T82 382T37 477Q35 507 35 519Q35 532 37 572Q40 633 80 669T191 705Q262 705 302 669T346 572Q348 532 348 519Q348 507 346 477Q342 417 301 382T191 347Q123 347 82 382ZM102 0T96 5T89
20Q89 26 93 31L587 681Q595 691 602 695T622 700H697Q707 700 713 695T720 680Q720 674 716 669L222 19Q214 9 207 5T187 0H112Q102 0 96 5ZM213 436T223 449T235 483Q237 513 237 525Q237 538 235 566Q234 587 224 600T191 614Q151 614 147 566Q146 552 146 525Q146
498 147 483Q149 462 159 449T191 436Q213 436 223 449ZM552 -5T511 31T465 127Q463 157 463 169Q463 181 465 221Q469 283 509 319T620 355Q691 355 731 319T774 221Q776 181 776 169Q776 157 774 127Q770 67 729 31T620 -5Q552 -5 511 31ZM641 85T651 98T664
133Q666 163 666 175Q666 188 664 216Q662 237 652 250T620 263Q598 263 588 250T576 216Q575 202 575 175Q575 148 576 133Q577 112 587 99T620 85Q641 85 651 98Z" />
<glyph unicode="&amp;" glyph-name="ampersand" horiz-adv-x="747" d="M182 -10T113 44T43 195Q43 257 77 303T178 386Q140 426 124 461T107 533Q107 581 132 621T207 686T328 710Q393 710 440 686T513 623T538 536Q538 479 503 437T400 356L514 241Q529 266 541
289T565 352Q569 366 586 366H693Q701 366 706 361T712 347Q711 313 679 254T609 147L721 32Q728 25 728 18Q728 10 723 5T709 0H566Q550 0 540 10L497 51Q456 19 408 5T301 -10Q182 -10 113 44ZM349 469T369 487T389 531Q389 556 372 572T327 588Q302 588 284
572T266 530Q266 513 276 495T312 450Q349 469 369 487ZM359 121T400 156L271 284Q209 251 209 203Q209 166 236 144T301 121Q359 121 400 156Z" />
<glyph unicode="&apos;" glyph-name="quotesingle" horiz-adv-x="245" d="M67 441T63 469L40 679Q39 693 45 701T64 710H181Q193 710 199 702T205 679L182 469Q178 441 153 441H92Q67 441 63 469Z" />
<glyph unicode="(" glyph-name="parenleft" horiz-adv-x="388" d="M41 -159T41 309Q41 776 340 776Q351 776 358 769T365 751V661Q365 651 358 644T341 636Q263 631 232 551T201 309Q201 148 232 67T341 -19Q351 -20 358 -27T365 -44V-134Q365 -145 358 -152T340
-159Q41 -159 41 309Z" />
<glyph unicode=")" glyph-name="parenright" horiz-adv-x="388" d="M38 -159T31 -152T23 -134V-44Q23 -34 30 -27T47 -19Q126 -14 156 66T187 309Q187 470 157 550T47 636Q37 637 30 644T23 661V751Q23 762 30 769T48 776Q348 776 348 309Q348 -159 48 -159Q38
-159 31 -152Z" />
<glyph unicode="*" glyph-name="asterisk" horiz-adv-x="445" d="M81 439Q72 445 72 456Q72 461 76 469Q76 470 81 475L145 529L62 534L54 536Q46 538 42 546T40 564L69 653Q71 661 79 665T96 667L104 664L174 620L155 700L154 708Q154 716 160 723T176 730H269Q278
730 284 723T291 708L290 700L269 619L340 664L348 667Q350 668 353 668Q361 668 367 664T375 653L405 564L406 558Q406 551 402 545T390 536L383 534L299 528L364 475Q369 470 369 469Q373 461 373 456Q373 445 364 439L289 383Q283 380 276 380Q264 380 258 389L254
395L222 473L191 395Q188 390 186 389Q180 380 168 380Q161 380 155 383L81 439Z" />
<glyph unicode="+" glyph-name="plus" horiz-adv-x="605" d="M250 33T243 40T235 58V239H59Q49 239 42 246T34 264V341Q34 352 41 359T59 367H235V542Q235 553 242 560T260 567H346Q357 567 364 560T372 542V367H546Q557 367 564 360T572 341V264Q572 253 565
246T546 239H372V58Q372 47 365 40T346 33H260Q250 33 243 40Z" />
<glyph unicode="," glyph-name="comma" horiz-adv-x="281" d="M42 -75T37 -69T32 -53L63 148Q65 162 74 172T100 183H221Q229 183 235 177T241 163Q241 157 239 152L161 -47Q150 -75 124 -75H51Q42 -75 37 -69Z" />
<glyph unicode="-" glyph-name="hyphen" horiz-adv-x="476" d="M70 225T63 232T55 250V350Q55 361 62 368T81 375H396Q407 375 414 368T421 350V250Q421 240 414 233T396 225H81Q70 225 63 232Z" />
<glyph unicode="." glyph-name="period" horiz-adv-x="287" d="M67 0T60 7T52 25V157Q52 168 59 175T78 183H210Q221 183 228 176T235 157V25Q235 15 228 8T210 0H78Q67 0 60 7Z" />
<glyph unicode="/" glyph-name="slash" horiz-adv-x="539" d="M36 -84T30 -78T23 -63Q23 -58 25 -53L363 761Q374 786 400 786H495Q504 786 510 780T516 765Q516 760 514 755L174 -59Q164 -84 137 -84H44Q36 -84 30 -78Z" />
<glyph unicode="0" glyph-name="zero" horiz-adv-x="684" d="M203 -9T131 63T52 253Q50 307 50 350Q50 394 52 450Q56 525 89 583T186 676T341 710Q432 710 496 676T593 584T631 450Q633 422 633 350Q633 280 631 253Q624 135 552 63T341 -10Q203 -9 131 63ZM388
141T411 171T436 258Q438 287 438 352Q438 417 436 444Q434 498 411 529T341 561Q251 561 246 444Q245 417 245 352Q245 287 246 258Q251 141 341 141Q388 141 411 171Z" />
<glyph unicode="1" glyph-name="one" horiz-adv-x="504" d="M267 0T260 7T252 25V493L118 390Q110 385 103 385Q91 385 82 397L20 477Q16 484 16 492Q16 506 27 514L259 693Q269 700 282 700H414Q425 700 432 693T440 675V25Q440 14 433 7T414 0H277Q267 0 260 7Z" />
<glyph unicode="2" glyph-name="two" horiz-adv-x="656" d="M56 0T49 7T41 25V100Q41 130 66 150L159 241Q254 313 302 353T376 425T402 487Q402 561 328 561Q289 561 268 538T240 479Q234 456 206 456H74Q65 456 59 462T52 477Q54 543 88 596T185 681T328 713Q412
713 473 686T565 610T597 496Q597 424 553 366T417 240L334 157H587Q598 157 605 150T612 132V25Q612 15 605 8T587 0H66Q56 0 49 7Z" />
<glyph unicode="3" glyph-name="three" horiz-adv-x="665" d="M229 -10T163 20T65 96T31 186Q31 195 37 201T53 207H191Q203 207 210 203T223 188Q242 139 328 139Q377 139 404 162T431 224Q431 299 331 299H219Q208 299 201 306T193 325V384Q193 407 210 418L371
550H95Q85 550 78 557T70 575V674Q70 685 77 692T95 700H561Q572 700 579 693T586 674V585Q586 564 570 552L422 417L429 415Q519 402 572 353T625 212Q625 145 587 95T481 17T327 -10Q229 -10 163 20Z" />
<glyph unicode="4" glyph-name="four" horiz-adv-x="688" d="M378 0T371 7T363 25V135H53Q43 135 36 142T28 160V261Q28 276 39 291L329 683Q343 700 366 700H518Q529 700 536 693T544 675V290H632Q644 290 651 283T658 265V160Q658 150 651 143T633 135H544V25Q544
14 537 7T518 0H388Q378 0 371 7ZM206 283H367V508L206 283Z" />
<glyph unicode="5" glyph-name="five" horiz-adv-x="651" d="M232 -11T167 18T68 95T32 200Q32 209 38 215T53 221H194Q218 221 227 202Q241 169 264 154T323 139Q366 139 394 165T423 238Q423 279 395 306T323 333Q298 333 283 327T254 309Q239 297 228 297H89Q80
297 74 303T67 319L104 670Q105 684 114 692T137 700H544Q555 700 562 693T569 675V575Q569 565 562 558T544 550H253L241 427Q265 444 295 452T373 461Q437 461 493 433T582 352T616 233Q616 163 581 108T480 21T323 -11Q232 -11 167 18Z" />
<glyph unicode="6" glyph-name="six" horiz-adv-x="655" d="M244 -10T176 21T70 110T32 241Q32 327 117 446L292 680Q306 700 328 700H468Q477 700 483 694T490 678Q490 673 485 665L351 483Q363 486 379 486Q440 483 497 452T591 368T628 245Q628 175 591 117T487
24T333 -10Q244 -10 176 21ZM375 140T406 167T437 242Q437 290 407 317T331 344Q286 344 256 317T225 242Q225 194 255 167T331 140Q375 140 406 167Z" />
<glyph unicode="7" glyph-name="seven" horiz-adv-x="579" d="M131 0T125 6T119 22Q119 27 121 31L351 543H54Q43 543 36 550T28 569V674Q28 685 35 692T54 700H527Q538 700 545 693T553 674V581Q553 563 548 550T542 535L312 24Q301 0 276 0H140Q131 0 125 6Z" />
<glyph unicode="8" glyph-name="eight" horiz-adv-x="681" d="M243 -10T176 19T77 99T44 211Q44 263 70 305T140 371Q69 417 69 509Q69 598 137 654T340 710Q473 710 540 655T608 510Q608 419 540 371Q584 350 610 307T637 210Q637 148 604 99T504 20T340 -10Q243
-10 176 19ZM382 424T409 445T436 500Q436 534 409 555T340 577Q297 577 271 556T244 500Q244 466 270 445T340 423Q382 424 409 445ZM387 122T417 146T448 210Q448 250 418 274T340 298Q293 298 262 274T231 210Q231 170 262 146T340 122Q387 122 417 146Z" />
<glyph unicode="9" glyph-name="nine" horiz-adv-x="646" d="M163 0T157 6T151 22Q151 29 155 35L295 226Q282 223 268 224Q207 228 152 257T63 339T28 459Q28 525 61 582T160 675T318 710Q411 710 478 678T579 591T614 466Q614 411 592 366T524 259L506 234L349
20Q335 0 313 0H172Q163 0 157 6ZM364 360T392 387T421 460Q421 506 392 533T320 560Q276 560 248 533T219 460Q219 414 247 387T320 360Q364 360 392 387Z" />
<glyph unicode=":" glyph-name="colon" horiz-adv-x="295" d="M71 350T64 357T56 375V501Q56 512 63 519T81 526H213Q224 526 231 519T239 501V375Q239 364 232 357T213 350H81Q71 350 64 357ZM71 0T64 7T56 25V151Q56 162 63 169T81 176H213Q224 176 231 169T239
151V25Q239 14 232 7T213 0H81Q71 0 64 7Z" />
<glyph unicode=";" glyph-name="semicolon" horiz-adv-x="303" d="M84 350T77 357T69 375V501Q69 512 76 519T95 526H227Q238 526 245 519T252 501V375Q252 365 245 358T227 350H95Q84 350 77 357ZM48 -75T43 -69T37 -53L68 148Q71 163 80 173T105 183H227Q235
183 241 177T247 163Q247 162 245 152L167 -47Q156 -75 130 -75H57Q48 -75 43 -69Z" />
<glyph unicode="&lt;" glyph-name="less" horiz-adv-x="519" d="M433 37T423 43L58 291Q43 301 36 311T29 335V367Q29 381 35 390T58 410L423 658Q433 664 439 664Q448 664 454 659T460 643V530Q460 515 453 507T432 490L219 351L432 211Q446 201 453 194T460
172V58Q460 49 454 43T439 37Q433 37 423 43Z" />
<glyph unicode="=" glyph-name="equal" horiz-adv-x="566" d="M75 359T68 366T60 384V466Q60 477 67 484T85 491H480Q491 491 498 484T506 466V384Q506 373 499 366T480 359H85Q75 359 68 366ZM75 109T68 116T60 134V216Q60 227 67 234T85 241H480Q491 241 498
234T506 216V134Q506 123 499 116T480 109H85Q75 109 68 116Z" />
<glyph unicode="&gt;" glyph-name="greater" horiz-adv-x="519" d="M71 37T65 43T59 58V172Q59 186 66 193T87 211L300 351L87 490Q74 498 67 506T59 530V643Q59 653 65 658T80 664Q86 664 96 658L461 410Q477 399 483 390T490 367V335Q490 321 483 311T461 291L96
43Q86 37 80 37Q71 37 65 43Z" />
<glyph unicode="?" glyph-name="question" d="M225 216T219 222T213 236Q213 250 214 257Q221 298 245 331T312 405Q343 435 359 455T376 496Q379 525 358 543T304 561Q230 561 213 490Q208 478 201 472T181 466H51Q41 466 35 473T28 493Q30 547 63 597T161 678T316
710Q408 710 465 682T548 612T573 529Q573 478 550 440T484 355Q457 325 443 307T420 268Q416 259 413 243Q405 228 399 222T381 216H233Q225 216 219 222ZM225 0T218 7T210 25V144Q210 155 217 162T236 170H370Q381 170 388 163T396 144V25Q396 14 389 7T370 0H236Q225
0 218 7Z" />
<glyph unicode="@" glyph-name="at" horiz-adv-x="846" d="M252 -132T157 -46T49 186Q46 215 46 272Q46 332 49 357Q57 444 100 516T224 632T417 676Q613 676 702 591T802 357Q804 319 804 296Q804 263 802 231Q798 160 754 120T648 79Q603 79 572 94T525 129Q509
103 481 86T395 69Q320 69 278 124T235 273Q235 368 276 423T392 478Q428 478 451 466T492 432V445Q492 456 499 463T517 470H571Q582 470 589 463T596 445V243Q596 212 610 196T648 179Q675 179 687 197T699 243Q700 260 700 302Q700 335 699 352Q694 430 666
479T578 552T417 576Q295 576 231 517T153 352Q150 327 150 272Q150 220 153 191Q177 -32 430 -32Q513 -32 554 -19T629 20Q636 26 643 30T660 34H734Q745 34 752 27T759 9Q759 2 753 -6Q705 -62 626 -97T430 -132Q252 -132 157 -46ZM454 169T473 194T492 273Q492
327 473 352T415 378Q339 378 339 273Q339 222 358 196T415 169Q454 169 473 194Z" />
<glyph unicode="A" glyph-name="A" horiz-adv-x="720" d="M21 0T15 6T8 21Q8 27 9 30L242 671Q252 700 282 700H438Q468 700 478 671L711 30Q712 27 712 21Q712 13 706 7T691 0H561Q537 0 527 22L491 119H229L193 22Q183 0 159 0H29Q21 0 15 6ZM271 269H449L360
524L271 269Z" />
<glyph unicode="B" glyph-name="B" horiz-adv-x="707" d="M83 0T76 7T68 25V674Q68 685 75 692T93 700H402Q529 700 591 648T653 500Q653 452 628 417T571 366Q612 348 640 307T668 213Q668 112 602 56T411 0H93Q83 0 76 7ZM381 423Q418 423 438 443T458 495Q458
526 439 545T381 565H256V423H381ZM390 135Q429 135 450 157T472 213Q472 247 450 269T390 292H256V135H390Z" />
<glyph unicode="C" glyph-name="C" horiz-adv-x="706" d="M215 -10T134 59T47 261Q46 288 46 349Q46 411 47 439Q52 569 134 639T358 710Q447 710 517 681T629 597T672 467Q672 458 666 452T650 446H508Q494 446 488 451T476 472Q462 521 434 540T358 560Q245
560 241 434Q240 407 240 351Q240 295 241 266Q245 140 358 140Q404 140 433 160T476 228Q480 243 487 248T508 254H650Q659 254 665 248T672 233Q670 158 629 103T518 19T358 -10Q215 -10 134 59Z" />
<glyph unicode="D" glyph-name="D" horiz-adv-x="719" d="M83 0T76 7T68 25V674Q68 685 75 692T93 700H356Q504 700 586 630T672 427Q673 398 673 350Q673 302 672 274Q662 0 361 0H93Q83 0 76 7ZM356 150Q419 150 449 180T481 276Q483 305 483 351Q483 397 481
425Q479 489 447 519T351 550H256V150H356Z" />
<glyph unicode="E" glyph-name="E" horiz-adv-x="642" d="M83 0T76 7T68 25V674Q68 685 75 692T93 700H565Q576 700 583 693T591 674V575Q591 564 584 557T565 550H249V423H543Q554 423 561 416T569 397V306Q569 295 562 288T543 280H249V150H573Q584 150 591
143T599 124V25Q599 14 592 7T573 0H93Q83 0 76 7Z" />
<glyph unicode="F" glyph-name="F" horiz-adv-x="621" d="M83 0T76 7T68 25V674Q68 685 75 692T93 700H558Q569 700 576 693T584 674V568Q584 557 577 550T558 543H252V404H538Q549 404 556 397T564 378V272Q564 261 557 254T538 247H252V25Q252 15 245 8T227
0H93Q83 0 76 7Z" />
<glyph unicode="G" glyph-name="G" horiz-adv-x="723" d="M216 -10T134 60T47 262Q46 290 46 353Q46 416 47 445Q51 571 134 640T361 710Q457 710 528 679T637 600T677 500Q677 491 671 485T655 478H500Q490 478 485 481T474 492Q462 520 436 540T361 560Q245
560 241 440Q240 412 240 354Q240 296 241 267Q245 140 363 140Q421 140 455 169T489 257V275H400Q389 275 382 282T374 301V379Q374 390 381 397T400 405H654Q665 405 672 398T680 379V263Q680 178 641 117T529 23T361 -10Q216 -10 134 60Z" />
<glyph unicode="H" glyph-name="H" horiz-adv-x="748" d="M82 0T75 7T68 25V674Q68 685 75 692T93 700H230Q241 700 248 693T256 674V437H492V674Q492 685 499 692T518 700H654Q665 700 672 693T680 674V25Q680 14 673 7T654 0H518Q507 0 500 7T492 25V270H256V25Q256
14 249 7T230 0H93Q82 0 75 7Z" />
<glyph unicode="I" glyph-name="I" horiz-adv-x="329" d="M83 0T76 7T68 25V675Q68 686 75 693T93 700H236Q247 700 254 693T261 675V25Q261 15 254 8T236 0H93Q83 0 76 7Z" />
<glyph unicode="J" glyph-name="J" horiz-adv-x="674" d="M236 -10T170 16T64 95T22 221Q22 230 28 236T43 243H186Q200 243 208 237T221 215Q237 140 319 140Q367 140 392 171T418 263V545H97Q87 545 80 552T72 570V675Q72 686 79 693T97 700H586Q597 700 604
693T612 674V257Q612 172 575 112T470 21T314 -10Q236 -10 170 16Z" />
<glyph unicode="K" glyph-name="K" horiz-adv-x="668" d="M83 0T76 7T68 25V674Q68 685 75 692T93 700H227Q238 700 245 693T252 674V456L429 680Q440 700 468 700H621Q629 700 635 694T642 679Q642 671 638 667L405 365L657 33Q661 29 661 21Q661 13 655 7T639
0H482Q466 0 456 6T442 20L252 264V25Q252 15 245 8T227 0H93Q83 0 76 7Z" />
<glyph unicode="L" glyph-name="L" horiz-adv-x="600" d="M83 0T76 7T68 25V675Q68 686 75 693T93 700H233Q244 700 251 693T258 675V157H558Q569 157 576 150T584 131V25Q584 14 577 7T558 0H93Q83 0 76 7Z" />
<glyph unicode="M" glyph-name="M" horiz-adv-x="831" d="M83 0T76 7T68 25V674Q68 685 75 692T94 700H207Q232 700 243 678L415 370L588 678Q599 700 624 700H737Q748 700 755 693T763 674V25Q763 14 756 7T737 0H610Q600 0 593 7T585 25V389L477 191Q464 168
442 168H388Q368 168 353 191L246 389V25Q246 14 239 7T220 0H94Q83 0 76 7Z" />
<glyph unicode="N" glyph-name="N" horiz-adv-x="721" d="M83 0T76 7T68 25V674Q68 685 75 692T93 700H206Q229 700 240 681L476 308V674Q476 685 483 692T501 700H628Q639 700 646 693T653 674V26Q653 15 646 8T628 0H515Q492 0 481 19L246 377V25Q246 14 239
7T220 0H93Q83 0 76 7Z" />
<glyph unicode="O" glyph-name="O" horiz-adv-x="715" d="M216 -10T134 59T47 262Q46 290 46 348Q46 406 47 435Q51 567 134 638T358 710Q497 710 580 639T668 435Q670 377 670 348Q670 318 668 262Q663 128 582 59T358 -10Q216 -10 134 59ZM410 140T441 171T474
268Q476 326 476 351Q476 376 474 432Q472 497 441 528T358 560Q305 560 274 529T241 432Q240 404 240 351Q240 297 241 268Q243 203 274 172T358 140Q410 140 441 171Z" />
<glyph unicode="P" glyph-name="P" horiz-adv-x="679" d="M83 0T76 7T68 25V674Q68 685 75 692T93 700H376Q506 700 580 641T654 468Q654 354 580 298T376 241H262V25Q262 15 255 8T237 0H93Q83 0 76 7ZM371 384Q412 384 435 405T459 469Q459 508 438 532T371
556H259V384H371Z" />
<glyph unicode="Q" glyph-name="Q" horiz-adv-x="715" d="M500 -65T492 -59T476 -42L442 2Q405 -10 357 -10Q215 -10 133 59T46 262Q45 290 45 348Q45 406 46 435Q51 567 134 638T357 710Q497 710 580 639T668 435Q670 377 670 348Q670 318 668 262Q662 140 595
71L669 -34Q672 -40 672 -44V-47Q672 -54 666 -59T652 -65H514Q500 -65 492 -59ZM409 140T440 171T473 268Q475 326 475 351Q475 376 473 432Q471 497 440 528T357 560Q305 560 274 529T241 432Q240 404 240 351Q240 297 241 268Q243 203 274 172T357 140Q409 140
440 171Z" />
<glyph unicode="R" glyph-name="R" horiz-adv-x="695" d="M83 0T76 7T68 25V674Q68 685 75 692T93 700H368Q500 700 574 640T649 471Q649 401 617 352T527 276L662 32Q665 26 665 21Q665 13 659 7T644 0H503Q474 0 462 27L352 244H256V25Q256 14 249 7T230 0H93Q83
0 76 7ZM367 391Q410 391 432 412T455 472Q455 510 433 533T367 556H256V391H367Z" />
<glyph unicode="S" glyph-name="S" horiz-adv-x="666" d="M236 -10T168 18T65 92T28 192Q28 201 34 207T50 213H183Q195 213 202 209T219 195Q232 171 259 156T333 140Q387 140 416 156T445 202Q445 223 430 236T382 260T287 284Q166 308 106 357T46 497Q46 559
80 607T178 683T326 710Q414 710 478 680T577 604T614 514Q614 505 608 499T593 492H453Q431 492 419 510Q413 531 388 545T326 560Q284 560 261 545T238 501Q238 472 268 456T380 422Q474 405 529 380T611 314T638 211Q638 143 599 93T491 17T333 -10Q236 -10
168 18Z" />
<glyph unicode="T" glyph-name="T" horiz-adv-x="635" d="M237 0T230 7T222 25V537H46Q35 537 28 544T20 562V674Q20 685 27 692T46 700H589Q600 700 607 693T615 674V562Q615 551 608 544T589 537H413V25Q413 14 406 7T387 0H248Q237 0 230 7Z" />
<glyph unicode="U" glyph-name="U" horiz-adv-x="728" d="M223 -10T143 59T62 266V674Q62 685 69 692T87 700H224Q235 700 242 693T250 674V268Q250 206 279 175T364 144Q419 144 448 175T478 268V674Q478 685 485 692T504 700H640Q651 700 658 693T666 674V266Q666
128 586 59T365 -10Q223 -10 143 59Z" />
<glyph unicode="V" glyph-name="V" horiz-adv-x="697" d="M251 0T241 8T226 30L24 670L22 679Q22 687 28 693T44 700H175Q190 700 199 692T212 673L348 221L485 673Q488 684 497 692T522 700H653Q662 700 668 694T674 679Q674 674 673 670L470 30Q467 17 457 9T429
0H268Q251 0 241 8Z" />
<glyph unicode="W" glyph-name="W" horiz-adv-x="833" d="M163 0T153 9T140 33L33 673Q32 675 32 679Q32 687 38 693T53 700H184Q213 700 216 677L277 299L346 518Q354 545 379 545H454Q479 545 487 518L556 300L618 677Q620 689 627 694T649 700H780Q789 700
795 694T801 679V673L694 33Q692 19 681 10T654 0H553Q537 0 528 8T516 26L417 303L318 26Q314 16 305 8T280 0H180Q163 0 153 9Z" />
<glyph unicode="X" glyph-name="X" horiz-adv-x="696" d="M23 0T17 6T10 21Q10 27 13 33L231 357L30 667Q27 673 27 679Q27 687 33 693T48 700H201Q223 700 237 678L350 504L467 678Q481 700 502 700H648Q656 700 662 694T669 679Q669 673 666 667L463 359L683
33Q686 27 686 21Q686 13 680 7T665 0H507Q485 0 472 20L344 206L219 20Q206 0 184 0H31Q23 0 17 6Z" />
<glyph unicode="Y" glyph-name="Y" horiz-adv-x="684" d="M263 0T256 7T248 25V238L17 668Q14 673 14 679Q14 687 20 693T35 700H167Q181 700 190 693T203 678L342 427L481 678Q485 686 494 693T517 700H649Q657 700 663 694T670 679Q670 673 667 668L436 238V25Q436
14 429 7T410 0H273Q263 0 256 7Z" />
<glyph unicode="Z" glyph-name="Z" horiz-adv-x="655" d="M52 0T45 7T37 26V128Q37 141 41 148T52 164L370 545H72Q62 545 55 552T47 570V674Q47 685 54 692T72 700H581Q592 700 599 693T607 674V573Q607 554 594 539L287 157H593Q604 157 611 150T619 131V25Q619
14 612 7T593 0H63Q52 0 45 7Z" />
<glyph unicode="[" glyph-name="bracketleft" horiz-adv-x="388" d="M75 -159T68 -152T60 -134V751Q60 762 67 769T85 776H338Q349 776 356 769T363 751V660Q363 650 356 643T338 635H221V-6H338Q349 -6 356 -13T363 -31V-134Q363 -145 356 -152T338 -159H85Q75
-159 68 -152Z" />
<glyph unicode="\" glyph-name="backslash" horiz-adv-x="538" d="M386 -84T377 -77T364 -59L24 755Q22 760 22 765Q22 773 28 779T43 786H138Q164 786 175 761L513 -53Q515 -58 515 -63Q515 -71 509 -77T494 -84H401Q386 -84 377 -77Z" />
<glyph unicode="]" glyph-name="bracketright" horiz-adv-x="388" d="M40 -159T33 -152T25 -134V-31Q25 -20 32 -13T51 -6H167V635H51Q40 635 33 642T25 660V751Q25 762 32 769T51 776H303Q314 776 321 769T328 751V-134Q328 -145 321 -152T303 -159H51Q40 -159 33 -152Z" />
<glyph unicode="^" glyph-name="asciicircum" horiz-adv-x="467" d="M46 588T46 603Q46 611 53 618L157 728Q166 738 174 741T192 745H275Q286 745 293 742T311 728L414 618Q422 610 422 603Q422 588 406 588H357Q335 588 322 595L234 643L146 595Q133 588 111
588H61Q46 588 46 603Z" />
<glyph unicode="_" glyph-name="underscore" horiz-adv-x="734" d="M59 -75T52 -68T44 -49V50Q44 61 51 68T70 75H665Q676 75 683 68T690 50V-49Q690 -60 683 -67T665 -75H70Q59 -75 52 -68Z" />
<glyph unicode="`" glyph-name="grave" horiz-adv-x="404" d="M224 595T216 598T198 610L64 720Q59 725 59 732Q59 741 64 746T78 752H215Q228 752 235 749T252 733L342 624Q347 619 347 611Q347 595 331 595H236Q224 595 216 598Z" />
<glyph unicode="a" glyph-name="a" horiz-adv-x="593" d="M161 -10T118 10T50 67T25 146Q25 214 81 256T237 315L361 334V346Q361 383 346 400T295 417Q275 417 262 410T231 389Q218 378 208 373Q204 366 198 366H82Q72 366 66 372T60 388Q61 415 87 448T166 506T297
530Q421 530 481 476T541 328V25Q541 15 534 8T516 0H393Q383 0 376 7T368 25V60Q346 29 307 10T214 -10Q161 -10 118 10ZM308 108T335 137T363 221V233L280 219Q196 203 196 159Q196 136 215 122T264 108Q308 108 335 137Z" />
<glyph unicode="b" glyph-name="b" horiz-adv-x="634" d="M281 -10T227 56V25Q227 15 220 8T202 0H83Q72 0 65 7T57 25V685Q57 696 64 703T83 710H212Q223 710 230 703T237 685V472Q292 530 382 530Q478 530 534 468T594 296Q595 283 595 260Q595 238 594 225Q590
112 535 51T382 -10Q281 -10 227 56ZM369 129T388 155T411 229Q412 239 412 260Q412 281 411 291Q408 338 389 364T324 391Q282 391 261 366T237 301Q236 288 236 264Q236 240 237 226Q239 184 260 157T324 129Q369 129 388 155Z" />
<glyph unicode="c" glyph-name="c" horiz-adv-x="593" d="M185 -10T115 50T39 219L38 259L39 300Q43 408 114 469T299 530Q386 530 445 499T533 426T564 348Q565 337 557 330T538 322H404Q393 322 387 327T376 343Q365 371 348 384T303 397Q226 397 223 295L222
257L223 224Q224 172 244 148T303 123Q332 123 348 135T376 177Q381 188 387 193T404 198H538Q548 198 556 191T564 174Q564 143 537 100T449 23T299 -10Q185 -10 115 50Z" />
<glyph unicode="d" glyph-name="d" horiz-adv-x="634" d="M155 -10T100 51T40 225L39 260L40 296Q44 405 100 467T252 530Q342 530 397 472V685Q397 696 404 703T422 710H551Q562 710 569 703T577 685V25Q577 14 570 7T551 0H432Q422 0 415 7T407 25V56Q353 -10
252 -10Q155 -10 100 51ZM353 129T374 156T397 226Q399 254 399 264Q399 275 397 301Q395 340 374 365T310 391Q265 391 246 365T223 291L222 260L223 229Q226 182 245 156T310 129Q353 129 374 156Z" />
<glyph unicode="e" glyph-name="e" horiz-adv-x="597" d="M179 -10T109 55T37 246V277Q41 396 111 463T300 530Q386 530 445 496T534 401T564 263V238Q564 227 557 220T538 212H221V206Q222 161 242 134T299 106Q323 106 337 115T365 140Q374 150 379 152T397
155H528Q537 155 543 150T550 136Q550 110 521 75T435 15T301 -10Q179 -10 109 55ZM380 314V316Q380 364 359 390T300 417Q262 417 242 391T221 316V314H380Z" />
<glyph unicode="f" glyph-name="f" horiz-adv-x="448" d="M132 0T125 7T117 25V384H42Q31 384 24 391T16 409V495Q16 506 23 513T42 520H117V550Q117 650 175 695T341 740H420Q431 740 438 733T446 715V629Q446 618 439 611T420 604H349Q317 604 304 590T290 545V520H410Q421
520 428 513T436 495V409Q436 398 429 391T410 384H290V25Q290 15 283 8T265 0H143Q132 0 125 7Z" />
<glyph unicode="g" glyph-name="g" horiz-adv-x="638" d="M221 -220T161 -189T75 -118T49 -50Q49 -40 57 -33T75 -26H209Q219 -26 225 -30T236 -46Q246 -68 262 -80T312 -93Q355 -93 376 -72T397 0V67Q344 12 252 12Q151 12 98 70T39 243L38 270Q38 392 92 461T252
530Q303 530 342 511T407 458V494Q407 505 414 512T432 520H554Q565 520 572 513T580 494V15Q580 -100 511 -160T317 -220Q221 -220 161 -189ZM352 147T373 173T397 239Q398 246 398 269Q398 293 397 299Q394 340 373 365T309 391Q265 391 245 365T223 291L222
269Q222 212 241 180T309 147Q352 147 373 173Z" />
<glyph unicode="h" glyph-name="h" horiz-adv-x="654" d="M72 0T65 7T57 25V685Q57 696 64 703T83 710H218Q229 710 236 703T244 685V462Q302 530 401 530Q458 530 504 504T576 427T602 304V25Q602 14 595 7T576 0H440Q430 0 423 7T415 25V298Q415 342 393 366T330
391Q290 391 267 367T244 298V25Q244 14 237 7T218 0H83Q72 0 65 7Z" />
<glyph unicode="i" glyph-name="i" horiz-adv-x="290" d="M71 592T64 599T57 618V711Q57 722 64 729T82 737H207Q218 737 225 730T233 711V618Q233 607 226 600T207 592H82Q71 592 64 599ZM72 0T65 7T57 25V495Q57 506 64 513T82 520H207Q218 520 225 513T233
495V25Q233 14 226 7T207 0H82Q72 0 65 7Z" />
<glyph unicode="j" glyph-name="j" horiz-adv-x="308" d="M83 592T76 599T68 618V711Q68 722 75 729T94 737H225Q236 737 243 730T251 711V618Q251 607 244 600T225 592H94Q83 592 76 599ZM-41 -190T-48 -183T-55 -165V-79Q-55 -69 -48 -62T-30 -54H10Q43 -54
56 -36T69 16V495Q69 506 76 513T94 520H225Q236 520 243 513T250 495V12Q250 -85 192 -137T30 -190H-30Q-41 -190 -48 -183Z" />
<glyph unicode="k" glyph-name="k" horiz-adv-x="591" d="M72 0T65 7T57 25V685Q57 696 64 703T83 710H205Q216 710 223 703T230 685V351L363 503Q365 505 370 510T382 517T397 520H538Q547 520 553 514T560 497Q560 488 553 481L377 287L578 38Q585 29 585 23Q585
13 579 7T562 0H417Q404 0 398 4T382 17L230 205V25Q230 15 223 8T205 0H83Q72 0 65 7Z" />
<glyph unicode="l" glyph-name="l" horiz-adv-x="290" d="M72 0T65 7T57 25V685Q57 696 64 703T83 710H208Q219 710 226 703T233 685V25Q233 15 226 8T208 0H83Q72 0 65 7Z" />
<glyph unicode="m" glyph-name="m" horiz-adv-x="918" d="M72 0T65 7T57 25V495Q57 506 64 513T82 520H198Q209 520 216 513T223 495V461Q247 490 285 510T371 530Q481 530 522 444Q546 482 589 506T681 530Q763 530 814 475T866 309V25Q866 15 859 8T841 0H718Q707
0 700 7T692 25V302Q692 348 673 369T620 391Q589 391 570 370T550 302V25Q550 15 543 8T525 0H402Q391 0 384 7T376 25V302Q376 348 356 369T304 391Q273 391 253 370T233 303V25Q233 15 226 8T208 0H82Q72 0 65 7Z" />
<glyph unicode="n" glyph-name="n" horiz-adv-x="646" d="M72 0T65 7T57 25V495Q57 506 64 513T82 520H205Q216 520 223 513T230 495V457Q257 490 299 510T397 530Q454 530 498 504T568 427T594 304V25Q594 15 587 8T569 0H436Q425 0 418 7T410 25V298Q410 343
389 367T326 391Q286 391 263 367T240 298V25Q240 15 233 8T215 0H82Q72 0 65 7Z" />
<glyph unicode="o" glyph-name="o" horiz-adv-x="614" d="M181 -10T114 48T40 215Q39 228 39 260Q39 292 40 305Q46 411 115 470T307 530Q429 530 498 471T574 305Q576 279 576 260Q576 241 574 215Q568 107 501 49T307 -10Q181 -10 114 48ZM348 116T368 141T391
220Q392 230 392 260Q392 290 391 300Q388 352 368 378T307 404Q266 404 246 378T223 300L222 260L223 220Q226 167 246 142T307 116Q348 116 368 141Z" />
<glyph unicode="p" glyph-name="p" horiz-adv-x="634" d="M72 -190T65 -183T57 -165V495Q57 506 64 513T83 520H202Q213 520 220 513T227 495V459Q281 530 382 530Q479 530 534 470T594 297Q595 284 595 260Q595 236 594 222Q590 114 534 52T382 -10Q285 -10 237
56V-165Q237 -176 230 -183T212 -190H83Q72 -190 65 -183ZM369 129T388 155T411 229Q412 239 412 260Q412 281 411 291Q408 338 389 364T324 391Q281 391 260 364T237 294Q236 281 236 256Q236 232 237 219Q239 180 260 155T324 129Q369 129 388 155Z" />
<glyph unicode="q" glyph-name="q" horiz-adv-x="634" d="M412 -190T405 -183T397 -165V56Q349 -10 253 -10Q156 -10 100 52T40 222L39 260L40 297Q44 409 99 469T253 530Q305 530 343 511T407 459V495Q407 506 414 513T433 520H552Q563 520 570 513T577 495V-165Q577
-176 570 -183T552 -190H423Q412 -190 405 -183ZM352 129T373 154T397 219Q399 245 399 256Q399 268 397 294Q395 337 375 364T310 391Q265 391 246 365T224 291Q223 281 223 260Q223 239 224 229Q227 182 246 156T310 129Q352 129 373 154Z" />
<glyph unicode="r" glyph-name="r" horiz-adv-x="461" d="M72 0T65 7T57 25V494Q57 505 64 512T82 520H204Q215 520 222 513T230 494V456Q258 487 295 503T379 520H424Q435 520 442 513T449 495V386Q449 376 442 369T424 361H323Q283 361 262 339T240 277V25Q240
14 233 7T214 0H82Q72 0 65 7Z" />
<glyph unicode="s" glyph-name="s" horiz-adv-x="557" d="M193 -10T138 13T57 68T30 126Q30 136 37 142T54 149H175Q181 149 185 145Q202 134 204 132Q223 118 239 111T279 103Q306 103 323 113T341 143Q341 159 332 169T296 188T215 208Q42 243 42 368Q42 409
68 446T146 507T270 530Q343 530 396 508T478 454T506 396Q506 387 500 380T484 373H374Q365 373 360 377Q348 383 336 392Q318 404 305 410T270 417Q245 417 231 406T217 378Q217 363 225 354T260 335T341 316Q439 299 483 256T528 154Q528 79 462 35T275 -10Q193
-10 138 13Z" />
<glyph unicode="t" glyph-name="t" horiz-adv-x="474" d="M118 0T118 199V384H39Q29 384 22 391T14 409V495Q14 506 21 513T39 520H118V685Q118 696 125 703T143 710H266Q277 710 284 703T291 685V520H416Q427 520 434 513T442 495V409Q442 398 435 391T416 384H291V214Q291
179 304 161T346 143H425Q436 143 443 136T450 117V25Q450 15 443 8T425 0H330Q118 0 118 199Z" />
<glyph unicode="u" glyph-name="u" horiz-adv-x="644" d="M160 -10T106 49T52 216V495Q52 506 59 513T77 520H210Q221 520 228 513T236 495V222Q236 129 319 129Q359 129 381 153T404 222V495Q404 506 411 513T430 520H562Q573 520 580 513T587 495V25Q587 15
580 8T562 0H440Q429 0 422 7T414 25V63Q362 -10 248 -10Q160 -10 106 49Z" />
<glyph unicode="v" glyph-name="v" horiz-adv-x="599" d="M229 0T222 6T209 25L19 489Q18 492 18 497Q18 507 24 513T41 520H160Q181 520 190 499L299 200L409 499Q412 507 419 513T438 520H558Q567 520 574 514T581 497L579 489L390 25Q385 13 377 7T355 0H243Q229
0 222 6Z" />
<glyph unicode="w" glyph-name="w" horiz-adv-x="841" d="M189 0T182 6T170 25L26 488L24 497Q24 507 31 513T47 520H156Q168 520 176 514T186 499L268 222L355 497Q357 506 365 513T386 520H455Q468 520 476 513T487 497L574 222L655 499Q658 507 665 513T685
520H794Q804 520 810 514T817 497Q817 492 816 488L671 25Q664 0 639 0H544Q519 0 510 25L421 291L331 25Q324 0 298 0H203Q189 0 182 6Z" />
<glyph unicode="x" glyph-name="x" horiz-adv-x="593" d="M28 0T21 6T14 23Q14 31 20 38L186 267L35 482Q29 490 29 497Q29 507 36 513T52 520H181Q193 520 199 515T211 502L299 379L388 502Q389 503 393 508T403 516T418 520H541Q550 520 557 514T564 498Q564
490 558 482L404 267L573 38Q578 31 578 23Q578 13 572 7T555 0H420Q403 0 392 16L295 148L197 16Q191 8 185 4T168 0H37Q28 0 21 6Z" />
<glyph unicode="y" glyph-name="y" horiz-adv-x="601" d="M146 -190T140 -184T134 -169Q134 -162 136 -156L215 32L23 486Q20 494 20 497Q22 507 28 513T44 520H163Q184 520 192 499L303 215L417 499Q427 520 447 520H565Q574 520 580 514T587 499Q587 492 585
486L302 -169Q292 -190 271 -190H155Q146 -190 140 -184Z" />
<glyph unicode="z" glyph-name="z" horiz-adv-x="557" d="M53 0T46 7T38 25V108Q38 126 53 141L284 386H71Q61 386 54 393T46 411V495Q46 506 53 513T71 520H478Q489 520 496 513T503 495V405Q503 389 489 375L265 134H499Q510 134 517 127T524 109V25Q524 15
517 8T499 0H63Q53 0 46 7Z" />
<glyph unicode="{" glyph-name="braceleft" horiz-adv-x="431" d="M299 -157T237 -125T139 -28T103 131Q103 216 49 244L36 249Q21 257 15 266T8 290V328Q8 343 14 352T36 369L49 375Q103 402 103 487Q103 581 138 645T236 742T378 776H384Q394 776 400 770T406
754V658Q406 649 400 643T386 636H383Q320 631 292 594T264 473Q264 411 244 368T190 309Q222 294 243 249T264 145Q264 62 291 25T381 -18H386Q394 -19 400 -25T406 -40V-136Q406 -146 400 -152T384 -158H379Q299 -157 237 -125Z" />
<glyph unicode="|" glyph-name="bar" horiz-adv-x="268" d="M76 -208T69 -201T61 -183V871Q61 882 68 889T86 896H181Q192 896 199 889T207 871V-183Q207 -194 200 -201T181 -208H86Q76 -208 69 -201Z" />
<glyph unicode="}" glyph-name="braceright" horiz-adv-x="431" d="M131 775T193 743T291 647T327 487Q327 402 382 374L395 368Q409 360 415 351T422 328V289Q422 275 416 266T395 249L382 243Q327 216 327 131Q327 37 292 -28T195 -125T53 -158H46Q37 -158 31
-152T24 -136V-40Q24 -31 30 -25T44 -18H48Q111 -13 139 24T167 145Q167 207 187 250T241 309Q209 324 188 369T167 472Q167 555 139 592T49 635L44 636Q36 637 30 643T24 658V754Q24 763 30 769T46 776H51Q131 775 193 743Z" />
<glyph unicode="~" glyph-name="asciitilde" horiz-adv-x="554" d="M68 211T64 218T59 242V321Q59 350 90 371T169 393Q201 393 226 388T283 372Q317 362 338 358T387 353Q409 353 426 361T458 381Q459 382 464 385T475 388Q487 388 491 381T496 358V278Q496 249
465 228T386 207Q355 207 331 212T273 227Q244 236 221 241T168 246Q133 246 97 219Q88 212 79 211Q68 211 64 218Z" />
<glyph unicode="&#xa0;" glyph-name="uni00A0" horiz-adv-x="210" />
<glyph unicode="&#xa1;" glyph-name="exclamdown" horiz-adv-x="288" d="M220 518T227 511T234 493V364Q234 353 227 346T209 338H80Q70 338 63 345T55 364V493Q55 504 62 511T80 518H209Q220 518 227 511ZM216 292T223 285T231 266V-157Q231 -168 224 -175T205
-182H84Q73 -182 66 -175T58 -157V266Q58 277 65 284T84 292H205Q216 292 223 285Z" />
<glyph unicode="&#xa2;" glyph-name="cent" horiz-adv-x="600" d="M234 -100T227 -93T219 -75V-1Q139 17 92 74T40 219L39 259L40 300Q43 388 91 445T219 520V585Q219 596 226 603T245 610H349Q360 610 367 603T375 585V522Q439 509 481 477T544 408T564 346Q564
336 557 329T539 322H404Q394 322 388 327T377 343Q356 397 301 397Q265 397 245 371T223 295L222 257L223 224Q227 123 301 123Q330 123 348 135T377 177Q385 198 404 198H539Q549 198 556 191T564 174Q564 150 545 114T483 44T375 -2V-75Q375 -86 368 -93T349
-100H245Q234 -100 227 -93Z" />
<glyph unicode="&#xa3;" glyph-name="sterling" horiz-adv-x="725" d="M458 -8T426 2T351 32Q316 47 296 54T253 61Q227 61 212 49T188 13Q184 0 171 0H61Q53 0 48 5T42 18Q44 80 73 125T153 192Q152 215 144 272H68Q58 272 51 279T43 297V377Q43 388 50 395T68
402H115Q113 417 113 449Q113 576 184 643T391 711Q475 711 539 682T640 600T678 475Q678 466 672 460T657 453H515Q489 453 480 479Q469 521 448 541T390 561Q307 561 307 448Q307 432 309 402H455Q466 402 473 395T480 377V297Q480 287 473 280T455 272H316Q317
264 319 238T320 189Q349 183 391 163Q415 151 432 146T470 140Q500 140 518 154T549 196Q556 208 567 208H663Q672 208 677 203T682 189Q681 128 655 84T587 16T498 -8Q458 -8 426 2Z" />
<glyph unicode="&#xa4;" glyph-name="currency" horiz-adv-x="615" d="M57 103Q50 110 50 121Q50 132 57 139L102 184Q71 237 71 300Q71 363 102 416L57 461Q50 468 50 479Q50 490 57 497L111 551Q119 559 129 559Q140 559 146 551L192 505Q245 537 308 537Q368
537 424 505L469 551Q477 559 487 559Q497 559 505 551L559 497Q566 490 566 479Q566 468 559 461L513 416Q544 361 544 300Q544 239 513 184L559 139Q566 132 566 121Q566 110 559 103L505 49Q498 42 487 42Q476 42 469 49L424 95Q371 63 308 63Q242 63 192 95L146
49Q140 42 129 42Q118 42 111 49L57 103ZM354 190T386 222T418 300Q418 346 386 378T308 410Q262 410 230 378T198 300Q198 254 230 222T308 190Q354 190 386 222Z" />
<glyph unicode="&#xa5;" glyph-name="yen" horiz-adv-x="695" d="M668 673T665 668L464 286H570Q581 286 588 279T595 261V178Q595 168 588 161T570 153H442V25Q442 14 435 7T416 0H279Q269 0 262 7T254 25V153H126Q116 153 109 160T101 178V261Q101 272 108 279T126
286H232L30 668Q27 677 27 679Q27 687 33 693T49 700H181Q195 700 204 693T217 678L348 436L478 678Q482 686 491 693T514 700H647Q655 700 661 694T668 679Q668 673 665 668Z" />
<glyph unicode="&#xa6;" glyph-name="brokenbar" horiz-adv-x="272" d="M78 475T71 482T63 500V804Q63 815 70 822T89 829H184Q195 829 202 822T209 804V500Q209 490 202 483T184 475H89Q78 475 71 482ZM78 0T71 7T63 25V329Q63 340 70 347T89 354H184Q195 354
202 347T209 329V25Q209 15 202 8T184 0H89Q78 0 71 7Z" />
<glyph unicode="&#xa7;" glyph-name="section" horiz-adv-x="608" d="M223 -140T170 -117T88 -58T57 9V11Q57 20 63 25T79 31H196Q212 31 222 16Q232 -1 247 -10T293 -20Q320 -20 335 -5T350 33Q350 51 342 62T308 85T231 108Q122 137 78 182T33 307Q33 387 104
442Q85 473 85 519Q85 571 111 614T189 684T313 710Q385 710 438 687T520 629T551 562V560Q551 551 545 546T529 540H413Q403 540 398 543T385 556Q375 572 360 581T315 590Q288 590 273 575T258 537Q258 519 266 508T300 485T377 462Q486 433 531 388T576 263Q576
222 557 188T504 128Q524 97 524 51Q524 -1 498 -44T419 -114T295 -140Q223 -140 170 -117ZM417 221T417 255Q417 282 398 298T328 329Q291 339 232 359Q212 355 202 343T192 315Q192 289 210 273T282 240Q354 218 377 210Q417 221 417 255Z" />
<glyph unicode="&#xa8;" glyph-name="dieresis" horiz-adv-x="465" d="M69 606T63 612T57 628V724Q57 734 63 740T79 747H175Q185 747 191 741T198 724V628Q198 618 192 612T175 606H79Q69 606 63 612ZM280 606T274 612T267 628V724Q267 734 273 740T290 747H385Q395
747 401 741T408 724V628Q408 618 402 612T385 606H290Q280 606 274 612Z" />
<glyph unicode="&#xa9;" glyph-name="copyright" horiz-adv-x="806" d="M305 -10T223 38T92 169T43 350Q43 448 91 530T222 661T403 710Q501 710 583 662T714 531T763 350Q763 252 715 170T584 39T403 -10Q305 -10 223 38ZM478 72T540 109T639 211T676 350Q676
425 640 489T541 590T403 628Q328 628 266 591T167 489T130 350Q130 275 166 211T265 110T403 72Q478 72 540 109ZM326 158T281 201T232 314L231 351L232 388Q236 458 281 501T403 544Q459 544 498 526T556 479T577 422V420Q577 411 571 406T555 400H485Q475 400
470 406T460 421Q452 439 440 447T403 455Q371 455 359 436T345 385L344 351L345 317Q347 286 359 267T403 247Q427 247 439 255T460 281Q464 290 469 296T485 302H555Q565 302 571 296T577 280Q576 251 557 223T498 177T403 158Q326 158 281 201Z" />
<glyph unicode="&#xaa;" glyph-name="ordfeminine" horiz-adv-x="356" d="M89 429T62 451T34 508Q34 545 63 567T147 599L204 608Q204 623 199 630T177 638Q163 638 149 628Q139 620 130 620H66Q60 620 56 623T52 632Q52 646 66 663T109 692T179 705Q242 705 274
677T306 595V451Q306 444 302 439T290 434H225Q218 434 213 439T207 451V462Q197 447 177 438T132 429Q89 429 62 451ZM181 498T192 511T204 549L170 542Q131 534 131 514Q131 507 138 503T158 498Q181 498 192 511Z" />
<glyph unicode="&#xab;" glyph-name="guillemotleft" horiz-adv-x="622" d="M261 65T252 73L45 274Q30 288 30 304V354Q30 371 45 384L252 585Q261 593 269 593Q278 593 284 587T291 571V472Q291 457 287 449T273 430L170 329L273 228Q283 218 287 210T291 186V87Q291
78 285 72T269 65Q261 65 252 73ZM537 65T528 73L321 274Q306 288 306 304V354Q306 371 321 384L528 585Q537 593 546 593Q555 593 561 587T567 571V472Q567 457 563 449T549 430L447 329L549 228Q559 218 563 210T567 186V87Q567 78 561 72T546 65Q537 65 528
73Z" />
<glyph unicode="&#xac;" glyph-name="logicalnot" horiz-adv-x="570" d="M390 92T383 99T375 117V217H79Q68 217 61 224T53 243V325Q53 336 60 343T79 350H484Q495 350 502 343T509 325V117Q509 107 502 100T484 92H400Q390 92 383 99Z" />
<glyph unicode="&#xad;" glyph-name="uni00AD" horiz-adv-x="250" />
<glyph unicode="&#xae;" glyph-name="registered" horiz-adv-x="806" d="M305 -10T223 38T92 169T43 350Q43 448 91 530T222 661T403 710Q501 710 583 662T714 531T763 350Q763 252 715 170T584 39T403 -10Q305 -10 223 38ZM478 72T540 109T639 211T676 350Q676
425 640 489T541 590T403 628Q328 628 266 591T167 489T130 350Q130 275 166 211T265 110T403 72Q478 72 540 109ZM268 168T262 174T256 190V512Q256 522 262 528T278 534H418Q482 534 526 505T570 412Q570 374 553 348T509 309L562 204Q566 196 566 190Q566 181
561 175T544 168H482Q462 168 453 187L407 289H364V190Q364 180 358 174T342 168H278Q268 168 262 174ZM417 374Q439 374 449 384T460 412Q460 429 450 439T417 450H364V374H417Z" />
<glyph unicode="&#xaf;" glyph-name="overscore" horiz-adv-x="443" d="M69 604T63 610T57 627V701Q57 711 63 717T79 723H364Q374 723 380 717T386 701V627Q386 617 380 611T364 604H79Q69 604 63 610Z" />
<glyph unicode="&#xb0;" glyph-name="degree" horiz-adv-x="413" d="M158 368T118 390T54 452T30 539Q30 587 53 626T117 687T206 710Q254 710 294 688T358 626T382 539Q382 491 359 452T295 391T206 368Q158 368 118 390ZM240 463T261 484T282 539Q282 573 261
594T206 615Q172 615 151 594T130 539Q130 505 151 484T206 463Q240 463 261 484Z" />
<glyph unicode="&#xb1;" glyph-name="plusminus" horiz-adv-x="569" d="M231 188T224 195T217 214V360H74Q63 360 56 367T49 386V463Q49 474 56 481T74 488H217V630Q217 641 224 648T242 656H329Q340 656 347 649T354 630V488H495Q506 488 513 481T520 463V386Q520
375 513 368T495 360H354V214Q354 203 347 196T329 188H242Q231 188 224 195ZM74 0T67 7T59 25V103Q59 114 66 121T84 128H485Q496 128 503 121T510 103V25Q510 15 503 8T485 0H84Q74 0 67 7Z" />
<glyph unicode="&#xb2;" glyph-name="uni00B2" horiz-adv-x="358" d="M38 350T32 356T26 372V407Q26 415 31 422T50 441Q89 469 99 477Q166 525 188 545T210 589Q210 603 202 612T176 621Q157 621 150 614T137 594Q131 583 126 580T113 576H51Q33 576 33 595Q36
642 77 673T176 705Q240 705 278 675T316 593Q316 550 287 517T189 437H309Q319 437 325 431T331 415V372Q331 362 325 356T309 350H48Q38 350 32 356Z" />
<glyph unicode="&#xb3;" glyph-name="uni00B3" horiz-adv-x="355" d="M121 345T88 359T40 394T22 436V438Q22 445 28 450T39 455H79Q93 455 113 451Q119 449 126 443T142 434T168 430Q190 430 202 438T215 461Q215 477 204 483T170 489H124Q115 489 110 495T104
510V535Q104 546 114 556L171 609H61Q51 609 45 615T39 631V678Q39 688 45 694T61 700H286Q296 700 302 694T308 678V637Q308 628 306 622T294 610L232 561Q327 545 327 458Q327 407 285 376T172 345Q121 345 88 359Z" />
<glyph unicode="&#xb4;" glyph-name="acute" horiz-adv-x="404" d="M57 595T57 611Q57 619 62 624L151 733Q161 745 168 748T188 752H326Q335 752 340 747T345 732Q345 725 340 720L206 610Q196 602 188 599T167 595H73Q57 595 57 611Z" />
<glyph unicode="&#xb5;" glyph-name="uni00B5" horiz-adv-x="661" d="M76 -199T69 -192T61 -174V495Q61 506 68 513T86 520H222Q233 520 240 513T248 495V222Q248 179 272 154T333 129Q369 129 393 154T418 222V495Q418 506 425 513T444 520H576Q587 520 594 513T601
495V25Q601 15 594 8T576 0H454Q443 0 436 7T428 25V63Q388 6 315 6Q282 6 248 23V-174Q248 -185 241 -192T222 -199H86Q76 -199 69 -192Z" />
<glyph unicode="&#xb6;" glyph-name="paragraph" horiz-adv-x="636" d="M231 -100T224 -93T216 -75V319Q164 319 121 344T52 414T26 510Q26 562 51 605T120 674T216 700H544Q555 700 562 693T569 675V-75Q569 -86 562 -93T544 -100H458Q447 -100 440 -93T432 -75V581H353V-75Q353
-86 346 -93T328 -100H242Q231 -100 224 -93Z" />
<glyph unicode="&#xb7;" glyph-name="middot" horiz-adv-x="330" d="M131 207T102 224T55 270T38 333Q38 367 55 396T101 443T165 460Q199 460 228 443T275 397T292 333Q292 299 275 270T229 224T165 207Q131 207 102 224Z" />
<glyph unicode="&#xb8;" glyph-name="cedilla" horiz-adv-x="295" d="M108 -220T83 -207T57 -179Q57 -173 62 -169L81 -153Q86 -148 92 -148Q96 -148 110 -154T141 -161Q156 -161 165 -153T174 -131Q174 -119 165 -111T141 -103Q132 -103 119 -106T99 -110Q91
-110 85 -104L65 -84Q59 -78 59 -72Q59 -66 66 -52L101 27H165L126 -49Q133 -46 142 -45T159 -43Q195 -43 216 -67T238 -131Q238 -170 212 -195T141 -220Q108 -220 83 -207Z" />
<glyph unicode="&#xb9;" glyph-name="uni00B9" horiz-adv-x="275" d="M137 350T131 356T125 372V577L74 539Q69 535 61 535Q51 535 43 544L15 580Q10 587 10 594Q10 604 19 611L126 693Q136 700 149 700H212Q222 700 228 694T234 678V372Q234 362 228 356T212
350H147Q137 350 131 356Z" />
<glyph unicode="&#xba;" glyph-name="ordmasculine" horiz-adv-x="354" d="M111 429T76 457T38 540L37 567L38 594Q41 648 77 676T177 705Q240 705 276 677T316 594Q317 589 317 567Q317 545 316 540Q313 486 278 458T177 429Q111 429 76 457ZM195 503T202 512T212
545Q213 550 213 567Q213 584 212 589Q211 610 203 620T177 631Q159 631 151 621T142 589L141 567L142 545Q144 522 151 513T177 503Q195 503 202 512Z" />
<glyph unicode="&#xbb;" glyph-name="guillemotright" horiz-adv-x="622" d="M68 65T62 71T55 87V186Q55 201 59 209T73 228L176 329L73 430Q63 440 59 448T55 472V571Q55 580 61 586T77 593Q85 593 94 585L301 384Q316 371 316 354V304Q316 288 301 274L94 73Q85
65 77 65Q68 65 62 71ZM344 65T338 71T332 87V186Q332 201 336 209T350 228L452 329L350 430Q340 440 336 448T332 472V571Q332 580 338 586T353 593Q362 593 370 585L578 384Q592 371 593 354V304Q592 288 578 274L370 73Q362 65 353 65Q344 65 338 71Z" />
<glyph unicode="&#xbc;" glyph-name="onequarter" horiz-adv-x="763" d="M137 350T131 356T125 372V577L74 539Q69 535 61 535Q51 535 43 544L15 580Q10 587 10 594Q10 604 19 611L126 693Q136 700 149 700H212Q222 700 228 694T234 678V372Q234 362 228 356T212
350H147Q137 350 131 356ZM62 0T56 5T50 20Q50 26 54 31L547 681Q554 691 561 695T582 700H637Q647 700 653 695T660 680Q660 674 656 669L162 19Q154 9 147 5T127 0H72Q62 0 56 5ZM579 -1T573 5T567 21V55H417Q407 55 401 61T395 77V126Q395 140 407 156L538 331Q551
349 568 349H651Q661 349 667 343T673 327V147H708Q718 147 724 141T730 125V77Q730 67 724 61T708 55H673V21Q673 11 667 5T651 -1H589Q579 -1 573 5ZM503 144H569V237L503 144Z" />
<glyph unicode="&#xbd;" glyph-name="onehalf" horiz-adv-x="767" d="M137 350T131 356T125 372V577L74 539Q69 535 61 535Q51 535 43 544L15 580Q10 587 10 594Q10 604 19 611L126 693Q136 700 149 700H212Q222 700 228 694T234 678V372Q234 362 228 356T212
350H147Q137 350 131 356ZM62 0T56 5T50 20Q50 26 54 31L547 681Q554 691 561 695T582 700H637Q647 700 653 695T660 680Q660 674 656 669L162 19Q154 9 147 5T127 0H72Q62 0 56 5ZM438 0T432 6T426 22V57Q426 65 431 72T450 91Q489 119 499 127Q566 175 588 195T610
239Q610 253 602 262T576 271Q557 271 550 264T537 244Q531 233 526 230T513 226H451Q433 226 433 245Q436 292 477 323T576 355Q640 355 678 325T716 243Q716 200 687 167T589 87H709Q719 87 725 81T731 65V22Q731 12 725 6T709 0H448Q438 0 432 6Z" />
<glyph unicode="&#xbe;" glyph-name="threequarters" horiz-adv-x="826" d="M121 345T88 359T40 394T22 436V438Q22 445 28 450T39 455H79Q93 455 113 451Q119 449 126 443T142 434T168 430Q190 430 202 438T215 461Q215 477 204 483T170 489H124Q115 489 110
495T104 510V535Q104 546 114 556L171 609H61Q51 609 45 615T39 631V678Q39 688 45 694T61 700H286Q296 700 302 694T308 678V637Q308 628 306 622T294 610L232 561Q327 545 327 458Q327 407 285 376T172 345Q121 345 88 359ZM142 0T136 5T130 20Q130 26 134 31L627
681Q634 691 641 695T662 700H717Q727 700 733 695T740 680Q740 674 736 669L242 19Q234 9 227 5T207 0H152Q142 0 136 5ZM662 -2T656 4T650 20V54H500Q490 54 484 60T478 76V125Q478 139 490 155L621 330Q634 348 651 348H734Q744 348 750 342T756 326V146H791Q801
146 807 140T813 124V76Q813 66 807 60T791 54H756V20Q756 10 750 4T734 -2H672Q662 -2 656 4ZM586 143H652V236L586 143Z" />
<glyph unicode="&#xbf;" glyph-name="questiondown" horiz-adv-x="598" d="M375 519T382 512T390 494V375Q390 364 383 357T364 349H230Q219 349 212 356T204 375V494Q204 505 211 512T230 519H364Q375 519 382 512ZM375 303T381 297T387 283Q387 269 386 262Q379
221 355 188T288 114Q257 84 241 64T224 23Q221 -6 242 -24T296 -42Q370 -42 387 29Q392 41 399 47T419 53H549Q559 53 565 46T572 26Q570 -28 537 -78T439 -159T284 -191Q192 -191 135 -163T52 -93T27 -10Q27 41 50 79T116 164Q143 194 157 212T180 251Q184 260
187 276Q195 291 201 297T219 303H367Q375 303 381 297Z" />
<glyph unicode="&#xc0;" glyph-name="Agrave" horiz-adv-x="720" d="M21 0T15 6T8 21Q8 27 9 30L242 671Q252 700 282 700H438Q468 700 478 671L711 30Q712 27 712 21Q712 13 706 7T691 0H561Q537 0 527 22L491 119H229L193 22Q183 0 159 0H29Q21 0 15 6ZM271
269H449L360 524L271 269ZM312 750T304 753T286 765L152 875Q147 880 147 887Q147 896 152 901T166 907H312Q325 907 332 904T349 888L439 779Q444 774 444 766Q444 750 428 750H325Q312 750 304 753Z" />
<glyph unicode="&#xc1;" glyph-name="Aacute" horiz-adv-x="720" d="M21 0T15 6T8 21Q8 27 9 30L242 671Q252 700 282 700H438Q468 700 478 671L711 30Q712 27 712 21Q712 13 706 7T691 0H561Q537 0 527 22L491 119H229L193 22Q183 0 159 0H29Q21 0 15 6ZM271
269H449L360 524L271 269ZM278 750T278 766Q278 774 283 779L372 888Q382 900 389 903T409 907H555Q564 907 569 902T574 887Q574 880 569 875L435 765Q425 757 417 754T397 750H294Q278 750 278 766Z" />
<glyph unicode="&#xc2;" glyph-name="Acircumflex" horiz-adv-x="720" d="M21 0T15 6T8 21Q8 27 9 30L242 671Q252 700 282 700H438Q468 700 478 671L711 30Q712 27 712 21Q712 13 706 7T691 0H561Q537 0 527 22L491 119H229L193 22Q183 0 159 0H29Q21 0 15 6ZM271
269H449L360 524L271 269ZM169 750T169 764Q169 773 176 780L280 889Q290 899 297 903T315 907H405Q415 907 422 903T440 889L544 780Q551 773 551 764Q551 750 536 750H483Q461 750 448 757L360 805L272 757Q259 750 237 750H184Q169 750 169 764Z" />
<glyph unicode="&#xc3;" glyph-name="Atilde" horiz-adv-x="720" d="M21 0T15 6T8 21Q8 27 9 30L242 671Q252 700 282 700H438Q468 700 478 671L711 30Q712 27 712 21Q712 13 706 7T691 0H561Q537 0 527 22L491 119H229L193 22Q183 0 159 0H29Q21 0 15 6ZM271
269H449L360 524L271 269ZM401 745T387 750T353 765Q340 773 331 776T310 780Q300 780 295 776T283 764Q278 757 274 754T263 750H201Q194 750 189 755T183 767Q183 793 194 823T232 876T298 898Q319 898 334 893T367 877Q377 872 388 868T409 863Q419 863 424
867T436 879Q441 886 445 889T456 893H519Q527 893 532 888T537 875Q537 850 525 820T487 767T421 745Q401 745 387 750Z" />
<glyph unicode="&#xc4;" glyph-name="Adieresis" horiz-adv-x="720" d="M21 0T15 6T8 21Q8 27 9 30L242 671Q252 700 282 700H438Q468 700 478 671L711 30Q712 27 712 21Q712 13 706 7T691 0H561Q537 0 527 22L491 119H229L193 22Q183 0 159 0H29Q21 0 15 6ZM271
269H449L360 524L271 269ZM181 750T175 756T169 773V868Q169 878 175 884T191 891H287Q297 891 303 885T310 868V773Q310 763 304 757T287 750H191Q181 750 175 756ZM422 750T416 756T409 773V868Q409 878 415 884T432 891H527Q537 891 543 885T550 868V773Q550
763 544 757T527 750H432Q422 750 416 756Z" />
<glyph unicode="&#xc5;" glyph-name="Aring" horiz-adv-x="720" d="M21 0T15 6T8 21Q8 27 9 30L242 671Q252 700 282 700H438Q468 700 478 671L711 30Q712 27 712 21Q712 13 706 7T691 0H561Q537 0 527 22L491 119H229L193 22Q183 0 159 0H29Q21 0 15 6ZM271 269H449L360
524L271 269ZM321 740T294 765T267 828Q267 866 294 891T360 917Q399 917 426 892T453 828Q453 790 426 765T360 740Q321 740 294 765ZM373 798T381 806T390 828Q390 841 382 849T360 858Q347 858 339 850T330 828Q330 815 338 807T360 798Q373 798 381 806Z" />
<glyph unicode="&#xc6;" glyph-name="AE" horiz-adv-x="977" d="M17 0T11 6T4 21Q4 23 6 31Q55 171 109 303T277 672Q281 684 291 692T316 700H900Q911 700 918 693T926 674V575Q926 564 919 557T900 550H604V423H878Q889 423 896 416T904 397V306Q904 295 897
288T878 280H604V150H908Q919 150 926 143T934 124V25Q934 14 927 7T908 0H448Q438 0 431 7T423 25V119H236Q200 50 190 22Q182 0 157 0H26Q17 0 11 6ZM281 269H423V548H401L281 269Z" />
<glyph unicode="&#xc7;" glyph-name="Ccedilla" horiz-adv-x="706" d="M321 -220T296 -207T270 -179Q270 -173 275 -169L293 -153Q298 -148 304 -148Q308 -148 322 -154T353 -161Q368 -161 377 -153T386 -131Q386 -119 377 -111T353 -103Q345 -103 332 -106T312
-110Q303 -110 297 -104L278 -84Q272 -78 272 -71Q272 -64 278 -52L298 -6Q181 8 116 75T47 261Q46 288 46 349Q46 411 47 439Q52 569 134 639T358 710Q447 710 517 681T629 597T672 467Q672 458 666 452T650 446H508Q494 446 488 451T476 472Q462 521 434 540T358
560Q245 560 241 434Q240 407 240 351Q240 295 241 266Q245 140 358 140Q404 140 433 160T476 228Q480 243 487 248T508 254H650Q659 254 665 248T672 233Q670 158 629 103T518 19T358 -10L339 -49Q346 -46 355 -45T371 -43Q407 -43 429 -67T451 -131Q451 -170
425 -195T353 -220Q321 -220 296 -207Z" />
<glyph unicode="&#xc8;" glyph-name="Egrave" horiz-adv-x="642" d="M83 0T76 7T68 25V674Q68 685 75 692T93 700H565Q576 700 583 693T591 674V575Q591 564 584 557T565 550H249V423H543Q554 423 561 416T569 397V306Q569 295 562 288T543 280H249V150H573Q584
150 591 143T599 124V25Q599 14 592 7T573 0H93Q83 0 76 7ZM273 750T265 753T247 765L113 875Q108 880 108 887Q108 896 113 901T127 907H273Q286 907 293 904T310 888L400 779Q405 774 405 766Q405 750 389 750H286Q273 750 265 753Z" />
<glyph unicode="&#xc9;" glyph-name="Eacute" horiz-adv-x="642" d="M83 0T76 7T68 25V674Q68 685 75 692T93 700H565Q576 700 583 693T591 674V575Q591 564 584 557T565 550H249V423H543Q554 423 561 416T569 397V306Q569 295 562 288T543 280H249V150H573Q584
150 591 143T599 124V25Q599 14 592 7T573 0H93Q83 0 76 7ZM239 750T239 766Q239 774 244 779L333 888Q343 900 350 903T370 907H516Q525 907 530 902T535 887Q535 880 530 875L396 765Q386 757 378 754T358 750H255Q239 750 239 766Z" />
<glyph unicode="&#xca;" glyph-name="Ecircumflex" horiz-adv-x="642" d="M83 0T76 7T68 25V674Q68 685 75 692T93 700H565Q576 700 583 693T591 674V575Q591 564 584 557T565 550H249V423H543Q554 423 561 416T569 397V306Q569 295 562 288T543 280H249V150H573Q584
150 591 143T599 124V25Q599 14 592 7T573 0H93Q83 0 76 7ZM130 750T130 764Q130 773 137 780L241 889Q251 899 258 903T276 907H366Q376 907 383 903T401 889L505 780Q512 773 512 764Q512 750 497 750H444Q422 750 409 757L321 805L233 757Q220 750 198 750H145Q130
750 130 764Z" />
<glyph unicode="&#xcb;" glyph-name="Edieresis" horiz-adv-x="642" d="M83 0T76 7T68 25V674Q68 685 75 692T93 700H565Q576 700 583 693T591 674V575Q591 564 584 557T565 550H249V423H543Q554 423 561 416T569 397V306Q569 295 562 288T543 280H249V150H573Q584
150 591 143T599 124V25Q599 14 592 7T573 0H93Q83 0 76 7ZM142 750T136 756T130 773V868Q130 878 136 884T152 891H248Q258 891 264 885T271 868V773Q271 763 265 757T248 750H152Q142 750 136 756ZM383 750T377 756T370 773V868Q370 878 376 884T393 891H488Q498
891 504 885T511 868V773Q511 763 505 757T488 750H393Q383 750 377 756Z" />
<glyph unicode="&#xcc;" glyph-name="Igrave" horiz-adv-x="329" d="M83 0T76 7T68 25V675Q68 686 75 693T93 700H236Q247 700 254 693T261 675V25Q261 15 254 8T236 0H93Q83 0 76 7ZM117 750T109 753T91 765L-43 875Q-48 880 -48 887Q-48 896 -43 901T-29 907H117Q130
907 137 904T154 888L244 779Q249 774 249 766Q249 750 233 750H130Q117 750 109 753Z" />
<glyph unicode="&#xcd;" glyph-name="Iacute" horiz-adv-x="329" d="M83 0T76 7T68 25V675Q68 686 75 693T93 700H236Q247 700 254 693T261 675V25Q261 15 254 8T236 0H93Q83 0 76 7ZM83 750T83 766Q83 774 88 779L177 888Q187 900 194 903T214 907H360Q369 907
374 902T379 887Q379 880 374 875L240 765Q230 757 222 754T202 750H99Q83 750 83 766Z" />
<glyph unicode="&#xce;" glyph-name="Icircumflex" horiz-adv-x="329" d="M83 0T76 7T68 25V675Q68 686 75 693T93 700H236Q247 700 254 693T261 675V25Q261 15 254 8T236 0H93Q83 0 76 7ZM-26 750T-26 764Q-26 773 -19 780L85 889Q95 899 102 903T120 907H210Q220
907 227 903T245 889L349 780Q356 773 356 764Q356 750 341 750H288Q266 750 253 757L165 805L77 757Q64 750 42 750H-11Q-26 750 -26 764Z" />
<glyph unicode="&#xcf;" glyph-name="Idieresis" horiz-adv-x="329" d="M83 0T76 7T68 25V675Q68 686 75 693T93 700H236Q247 700 254 693T261 675V25Q261 15 254 8T236 0H93Q83 0 76 7ZM-14 750T-20 756T-26 773V868Q-26 878 -20 884T-4 891H92Q102 891 108 885T115
868V773Q115 763 109 757T92 750H-4Q-14 750 -20 756ZM227 750T221 756T214 773V868Q214 878 220 884T237 891H332Q342 891 348 885T355 868V773Q355 763 349 757T332 750H237Q227 750 221 756Z" />
<glyph unicode="&#xd0;" glyph-name="Eth" horiz-adv-x="738" d="M101 0T94 7T86 25V290H40Q29 290 22 297T14 315V388Q14 399 21 406T40 413H86V674Q86 685 93 692T111 700H374Q522 700 605 630T690 427Q691 400 691 351Q691 301 690 274Q689 136 608 68T377
0H111Q101 0 94 7ZM374 150Q437 150 466 180T496 276V425Q495 489 465 519T373 550H274V413H361Q372 413 379 406T386 388V315Q386 305 379 298T361 290H274V150H374Z" />
<glyph unicode="&#xd1;" glyph-name="Ntilde" horiz-adv-x="721" d="M83 0T76 7T68 25V674Q68 685 75 692T93 700H206Q229 700 240 681L476 308V674Q476 685 483 692T501 700H628Q639 700 646 693T653 674V26Q653 15 646 8T628 0H515Q492 0 481 19L246 377V25Q246
14 239 7T220 0H93Q83 0 76 7ZM402 745T388 750T354 765Q341 773 332 776T311 780Q301 780 296 776T284 764Q279 757 275 754T264 750H202Q195 750 190 755T184 767Q184 793 195 823T233 876T299 898Q320 898 335 893T368 877Q378 872 389 868T410 863Q420 863
425 867T437 879Q442 886 446 889T457 893H520Q528 893 533 888T538 875Q538 850 526 820T488 767T422 745Q402 745 388 750Z" />
<glyph unicode="&#xd2;" glyph-name="Ograve" horiz-adv-x="715" d="M216 -10T134 59T47 262Q46 290 46 348Q46 406 47 435Q51 567 134 638T358 710Q497 710 580 639T668 435Q670 377 670 348Q670 318 668 262Q663 128 582 59T358 -10Q216 -10 134 59ZM410 140T441
171T474 268Q476 326 476 351Q476 376 474 432Q472 497 441 528T358 560Q305 560 274 529T241 432Q240 404 240 351Q240 297 241 268Q243 203 274 172T358 140Q410 140 441 171ZM310 750T302 753T284 765L150 875Q145 880 145 887Q145 896 150 901T164 907H310Q323
907 330 904T347 888L437 779Q442 774 442 766Q442 750 426 750H323Q310 750 302 753Z" />
<glyph unicode="&#xd3;" glyph-name="Oacute" horiz-adv-x="715" d="M216 -10T134 59T47 262Q46 290 46 348Q46 406 47 435Q51 567 134 638T358 710Q497 710 580 639T668 435Q670 377 670 348Q670 318 668 262Q663 128 582 59T358 -10Q216 -10 134 59ZM410 140T441
171T474 268Q476 326 476 351Q476 376 474 432Q472 497 441 528T358 560Q305 560 274 529T241 432Q240 404 240 351Q240 297 241 268Q243 203 274 172T358 140Q410 140 441 171ZM276 750T276 766Q276 774 281 779L370 888Q380 900 387 903T407 907H553Q562 907
567 902T572 887Q572 880 567 875L433 765Q423 757 415 754T395 750H292Q276 750 276 766Z" />
<glyph unicode="&#xd4;" glyph-name="Ocircumflex" horiz-adv-x="715" d="M216 -10T134 59T47 262Q46 290 46 348Q46 406 47 435Q51 567 134 638T358 710Q497 710 580 639T668 435Q670 377 670 348Q670 318 668 262Q663 128 582 59T358 -10Q216 -10 134 59ZM410
140T441 171T474 268Q476 326 476 351Q476 376 474 432Q472 497 441 528T358 560Q305 560 274 529T241 432Q240 404 240 351Q240 297 241 268Q243 203 274 172T358 140Q410 140 441 171ZM167 750T167 764Q167 773 174 780L278 889Q288 899 295 903T313 907H403Q413
907 420 903T438 889L542 780Q549 773 549 764Q549 750 534 750H481Q459 750 446 757L358 805L270 757Q257 750 235 750H182Q167 750 167 764Z" />
<glyph unicode="&#xd5;" glyph-name="Otilde" horiz-adv-x="715" d="M216 -10T134 59T47 262Q46 290 46 348Q46 406 47 435Q51 567 134 638T358 710Q497 710 580 639T668 435Q670 377 670 348Q670 318 668 262Q663 128 582 59T358 -10Q216 -10 134 59ZM410 140T441
171T474 268Q476 326 476 351Q476 376 474 432Q472 497 441 528T358 560Q305 560 274 529T241 432Q240 404 240 351Q240 297 241 268Q243 203 274 172T358 140Q410 140 441 171ZM399 745T385 750T351 765Q338 773 329 776T308 780Q298 780 293 776T281 764Q276
757 272 754T261 750H199Q192 750 187 755T181 767Q181 793 192 823T230 876T296 898Q317 898 332 893T365 877Q375 872 386 868T407 863Q417 863 422 867T434 879Q439 886 443 889T454 893H517Q525 893 530 888T535 875Q535 850 523 820T485 767T419 745Q399 745
385 750Z" />
<glyph unicode="&#xd6;" glyph-name="Odieresis" horiz-adv-x="715" d="M216 -10T134 59T47 262Q46 290 46 348Q46 406 47 435Q51 567 134 638T358 710Q497 710 580 639T668 435Q670 377 670 348Q670 318 668 262Q663 128 582 59T358 -10Q216 -10 134 59ZM410
140T441 171T474 268Q476 326 476 351Q476 376 474 432Q472 497 441 528T358 560Q305 560 274 529T241 432Q240 404 240 351Q240 297 241 268Q243 203 274 172T358 140Q410 140 441 171ZM179 750T173 756T167 773V868Q167 878 173 884T189 891H285Q295 891 301
885T308 868V773Q308 763 302 757T285 750H189Q179 750 173 756ZM420 750T414 756T407 773V868Q407 878 413 884T430 891H525Q535 891 541 885T548 868V773Q548 763 542 757T525 750H430Q420 750 414 756Z" />
<glyph unicode="&#xd7;" glyph-name="multiply" horiz-adv-x="606" d="M52 165Q45 173 45 183Q45 194 52 201L184 333L52 465Q45 472 45 483Q45 493 52 500L136 584Q144 592 154 592Q164 592 172 584L303 452L435 584Q442 591 453 591Q463 591 470 584L554 500Q562
492 562 482Q562 472 554 464L423 333L554 202Q562 194 562 184Q562 174 554 166L470 82Q463 75 453 75Q442 75 435 82L303 213L172 81Q163 74 154 74Q145 74 136 81L52 165Z" />
<glyph unicode="&#xd8;" glyph-name="Oslash" horiz-adv-x="747" d="M259 -10T184 37T81 177L44 163Q36 160 32 160Q23 160 18 165T12 180V259Q12 272 17 278T34 289L64 301L63 357Q63 383 65 435Q70 567 153 638T376 710Q484 710 559 665T664 535L705 551Q713
554 716 554Q725 554 731 549T737 534V456Q737 443 732 437T715 426L687 415Q688 393 688 349Q688 290 687 262Q682 128 600 59T376 -10Q259 -10 184 37ZM487 466Q478 514 449 537T376 560Q324 560 293 529T260 432Q258 412 258 377L487 466ZM428 140T459 171T492
268Q494 317 493 339L261 248Q268 193 297 167T376 140Q428 140 459 171Z" />
<glyph unicode="&#xd9;" glyph-name="Ugrave" horiz-adv-x="728" d="M223 -10T143 59T62 266V674Q62 685 69 692T87 700H224Q235 700 242 693T250 674V268Q250 206 279 175T364 144Q419 144 448 175T478 268V674Q478 685 485 692T504 700H640Q651 700 658 693T666
674V266Q666 128 586 59T365 -10Q223 -10 143 59ZM316 750T308 753T290 765L156 875Q151 880 151 887Q151 896 156 901T170 907H316Q329 907 336 904T353 888L443 779Q448 774 448 766Q448 750 432 750H329Q316 750 308 753Z" />
<glyph unicode="&#xda;" glyph-name="Uacute" horiz-adv-x="728" d="M223 -10T143 59T62 266V674Q62 685 69 692T87 700H224Q235 700 242 693T250 674V268Q250 206 279 175T364 144Q419 144 448 175T478 268V674Q478 685 485 692T504 700H640Q651 700 658 693T666
674V266Q666 128 586 59T365 -10Q223 -10 143 59ZM282 750T282 766Q282 774 287 779L376 888Q386 900 393 903T413 907H559Q568 907 573 902T578 887Q578 880 573 875L439 765Q429 757 421 754T401 750H298Q282 750 282 766Z" />
<glyph unicode="&#xdb;" glyph-name="Ucircumflex" horiz-adv-x="728" d="M223 -10T143 59T62 266V674Q62 685 69 692T87 700H224Q235 700 242 693T250 674V268Q250 206 279 175T364 144Q419 144 448 175T478 268V674Q478 685 485 692T504 700H640Q651 700 658
693T666 674V266Q666 128 586 59T365 -10Q223 -10 143 59ZM173 750T173 764Q173 773 180 780L284 889Q294 899 301 903T319 907H409Q419 907 426 903T444 889L548 780Q555 773 555 764Q555 750 540 750H487Q465 750 452 757L364 805L276 757Q263 750 241 750H188Q173
750 173 764Z" />
<glyph unicode="&#xdc;" glyph-name="Udieresis" horiz-adv-x="728" d="M223 -10T143 59T62 266V674Q62 685 69 692T87 700H224Q235 700 242 693T250 674V268Q250 206 279 175T364 144Q419 144 448 175T478 268V674Q478 685 485 692T504 700H640Q651 700 658 693T666
674V266Q666 128 586 59T365 -10Q223 -10 143 59ZM185 750T179 756T173 773V868Q173 878 179 884T195 891H291Q301 891 307 885T314 868V773Q314 763 308 757T291 750H195Q185 750 179 756ZM426 750T420 756T413 773V868Q413 878 419 884T436 891H531Q541 891 547
885T554 868V773Q554 763 548 757T531 750H436Q426 750 420 756Z" />
<glyph unicode="&#xdd;" glyph-name="Yacute" horiz-adv-x="684" d="M263 0T256 7T248 25V238L17 668Q14 673 14 679Q14 687 20 693T35 700H167Q181 700 190 693T203 678L342 427L481 678Q485 686 494 693T517 700H649Q657 700 663 694T670 679Q670 673 667 668L436
238V25Q436 14 429 7T410 0H273Q263 0 256 7ZM260 750T260 766Q260 774 265 779L354 888Q364 900 371 903T391 907H537Q546 907 551 902T556 887Q556 880 551 875L417 765Q407 757 399 754T379 750H276Q260 750 260 766Z" />
<glyph unicode="&#xde;" glyph-name="Thorn" horiz-adv-x="681" d="M83 0T76 7T68 25V675Q68 686 75 693T93 700H237Q248 700 255 693T262 675V586H373Q505 586 579 527T654 354Q654 240 580 184T373 127H262V25Q262 15 255 8T237 0H93Q83 0 76 7ZM371 270Q412
270 435 291T459 355Q459 394 438 418T371 442H259V270H371Z" />
<glyph unicode="&#xdf;" glyph-name="germandbls" horiz-adv-x="644" d="M72 0T65 7T57 25V469Q57 575 123 642T321 710Q409 710 467 682T552 609T579 511Q579 423 510 376Q609 335 609 211Q609 159 581 111T494 31T350 0H302Q288 0 280 7T272 25V106Q272 117
280 124T302 131H325Q370 131 397 155T424 219Q424 258 398 282T322 306H299Q286 306 279 313T272 332V402Q272 427 299 427H319Q362 428 386 447T411 502Q411 535 387 556T321 578Q279 578 256 552T232 472V25Q232 15 225 8T207 0H83Q72 0 65 7Z" />
<glyph unicode="&#xe0;" glyph-name="agrave" horiz-adv-x="593" d="M161 -10T118 10T50 67T25 146Q25 214 81 256T237 315L361 334V346Q361 383 346 400T295 417Q275 417 262 410T231 389Q218 378 208 373Q204 366 198 366H82Q72 366 66 372T60 388Q61 415 87
448T166 506T297 530Q421 530 481 476T541 328V25Q541 15 534 8T516 0H393Q383 0 376 7T368 25V60Q346 29 307 10T214 -10Q161 -10 118 10ZM308 108T335 137T363 221V233L280 219Q196 203 196 159Q196 136 215 122T264 108Q308 108 335 137ZM249 595T241 598T223
610L89 720Q84 725 84 732Q84 741 89 746T103 752H240Q253 752 260 749T277 733L367 624Q372 619 372 611Q372 595 356 595H261Q249 595 241 598Z" />
<glyph unicode="&#xe1;" glyph-name="aacute" horiz-adv-x="593" d="M161 -10T118 10T50 67T25 146Q25 214 81 256T237 315L361 334V346Q361 383 346 400T295 417Q275 417 262 410T231 389Q218 378 208 373Q204 366 198 366H82Q72 366 66 372T60 388Q61 415 87
448T166 506T297 530Q421 530 481 476T541 328V25Q541 15 534 8T516 0H393Q383 0 376 7T368 25V60Q346 29 307 10T214 -10Q161 -10 118 10ZM308 108T335 137T363 221V233L280 219Q196 203 196 159Q196 136 215 122T264 108Q308 108 335 137ZM214 595T214 611Q214
619 219 624L308 733Q318 745 325 748T345 752H483Q492 752 497 747T502 732Q502 725 497 720L363 610Q353 602 345 599T324 595H230Q214 595 214 611Z" />
<glyph unicode="&#xe2;" glyph-name="acircumflex" horiz-adv-x="593" d="M161 -10T118 10T50 67T25 146Q25 214 81 256T237 315L361 334V346Q361 383 346 400T295 417Q275 417 262 410T231 389Q218 378 208 373Q204 366 198 366H82Q72 366 66 372T60 388Q61 415
87 448T166 506T297 530Q421 530 481 476T541 328V25Q541 15 534 8T516 0H393Q383 0 376 7T368 25V60Q346 29 307 10T214 -10Q161 -10 118 10ZM308 108T335 137T363 221V233L280 219Q196 203 196 159Q196 136 215 122T264 108Q308 108 335 137ZM105 595T105 609Q105
618 112 625L216 734Q226 744 233 748T251 752H334Q345 752 352 749T370 734L473 625Q481 617 481 609Q481 595 465 595H416Q394 595 381 602L293 650L205 602Q192 595 170 595H120Q105 595 105 609Z" />
<glyph unicode="&#xe3;" glyph-name="atilde" horiz-adv-x="593" d="M161 -10T118 10T50 67T25 146Q25 214 81 256T237 315L361 334V346Q361 383 346 400T295 417Q275 417 262 410T231 389Q218 378 208 373Q204 366 198 366H82Q72 366 66 372T60 388Q61 415 87
448T166 506T297 530Q421 530 481 476T541 328V25Q541 15 534 8T516 0H393Q383 0 376 7T368 25V60Q346 29 307 10T214 -10Q161 -10 118 10ZM308 108T335 137T363 221V233L280 219Q196 203 196 159Q196 136 215 122T264 108Q308 108 335 137ZM334 590T321 595T287
610Q263 625 245 625Q235 625 230 621T218 609Q213 602 209 599T198 595H136Q129 595 124 600T118 612Q118 638 129 668T166 719T232 741Q252 741 266 736T299 721Q313 713 321 710T341 706Q351 706 356 710T368 723Q373 730 377 733T388 737H451Q459 737 464 732T469
719Q469 693 457 663T420 612T354 590Q334 590 321 595Z" />
<glyph unicode="&#xe4;" glyph-name="adieresis" horiz-adv-x="593" d="M161 -10T118 10T50 67T25 146Q25 214 81 256T237 315L361 334V346Q361 383 346 400T295 417Q275 417 262 410T231 389Q218 378 208 373Q204 366 198 366H82Q72 366 66 372T60 388Q61 415
87 448T166 506T297 530Q421 530 481 476T541 328V25Q541 15 534 8T516 0H393Q383 0 376 7T368 25V60Q346 29 307 10T214 -10Q161 -10 118 10ZM308 108T335 137T363 221V233L280 219Q196 203 196 159Q196 136 215 122T264 108Q308 108 335 137ZM131 606T125 612T119
628V724Q119 734 125 740T141 747H237Q247 747 253 741T260 724V628Q260 618 254 612T237 606H141Q131 606 125 612ZM342 606T336 612T329 628V724Q329 734 335 740T352 747H447Q457 747 463 741T470 724V628Q470 618 464 612T447 606H352Q342 606 336 612Z" />
<glyph unicode="&#xe5;" glyph-name="aring" horiz-adv-x="593" d="M161 -10T118 10T50 67T25 146Q25 214 81 256T237 315L361 334V346Q361 383 346 400T295 417Q275 417 262 410T231 389Q218 378 208 373Q204 366 198 366H82Q72 366 66 372T60 388Q61 415 87
448T166 506T297 530Q421 530 481 476T541 328V25Q541 15 534 8T516 0H393Q383 0 376 7T368 25V60Q346 29 307 10T214 -10Q161 -10 118 10ZM308 108T335 137T363 221V233L280 219Q196 203 196 159Q196 136 215 122T264 108Q308 108 335 137ZM254 590T227 615T200
678Q200 716 227 741T293 767Q332 767 359 742T386 678Q386 640 359 615T293 590Q254 590 227 615ZM306 648T314 656T323 678Q323 691 315 699T293 708Q280 708 272 700T263 678Q263 665 271 657T293 648Q306 648 314 656Z" />
<glyph unicode="&#xe6;" glyph-name="ae" horiz-adv-x="917" d="M167 -10T121 10T51 66T26 146Q26 214 82 257T238 316L361 335V347Q361 383 347 400T296 417Q275 417 262 410T231 389Q218 378 208 373Q204 366 198 366H82Q72 366 66 372T60 388Q60 415 86 448T165
506T297 530Q410 530 461 476Q526 530 621 530Q712 530 771 492T856 394T883 263V238Q883 227 876 220T857 212H543V206Q544 156 565 131T620 106Q659 106 686 140Q694 150 700 152T718 155H848Q857 155 863 149T869 134Q869 109 840 75T755 15T621 -10Q558 -10
509 10T428 67Q358 -10 228 -10Q167 -10 121 10ZM699 314V318Q699 365 679 391T621 417Q587 417 566 392T543 318V314H699ZM309 108T336 136T363 221V233L281 219Q196 203 196 159Q196 136 215 122T264 108Q309 108 336 136Z" />
<glyph unicode="&#xe7;" glyph-name="ccedilla" horiz-adv-x="593" d="M267 -220T241 -207T215 -179Q215 -174 220 -169L239 -153Q244 -148 250 -148Q254 -148 268 -154T299 -161Q314 -161 323 -153T332 -131Q332 -119 323 -111T299 -103Q290 -103 277 -106T258
-110Q249 -110 243 -104L224 -84Q218 -78 218 -72Q218 -64 224 -52L244 -6Q153 8 98 66T39 219L38 259L39 300Q43 408 114 469T299 530Q386 530 445 499T533 426T564 348Q565 337 557 330T538 322H404Q393 322 387 327T376 343Q365 371 348 384T303 397Q226 397
223 295L222 257L223 224Q224 172 244 148T303 123Q332 123 348 135T376 177Q381 188 387 193T404 198H538Q548 198 556 191T564 174Q564 143 537 100T451 24T304 -10L284 -49Q291 -46 300 -45T317 -43Q353 -43 374 -67T396 -131Q396 -170 370 -195T299 -220Q267
-220 241 -207Z" />
<glyph unicode="&#xe8;" glyph-name="egrave" horiz-adv-x="597" d="M179 -10T109 55T37 246V277Q41 396 111 463T300 530Q386 530 445 496T534 401T564 263V238Q564 227 557 220T538 212H221V206Q222 161 242 134T299 106Q323 106 337 115T365 140Q374 150 379
152T397 155H528Q537 155 543 150T550 136Q550 110 521 75T435 15T301 -10Q179 -10 109 55ZM380 314V316Q380 364 359 390T300 417Q262 417 242 391T221 316V314H380ZM256 595T248 598T230 610L96 720Q91 725 91 732Q91 741 96 746T110 752H247Q260 752 267 749T284
733L374 624Q379 619 379 611Q379 595 363 595H268Q256 595 248 598Z" />
<glyph unicode="&#xe9;" glyph-name="eacute" horiz-adv-x="597" d="M179 -10T109 55T37 246V277Q41 396 111 463T300 530Q386 530 445 496T534 401T564 263V238Q564 227 557 220T538 212H221V206Q222 161 242 134T299 106Q323 106 337 115T365 140Q374 150 379
152T397 155H528Q537 155 543 150T550 136Q550 110 521 75T435 15T301 -10Q179 -10 109 55ZM380 314V316Q380 364 359 390T300 417Q262 417 242 391T221 316V314H380ZM225 595T225 611Q225 619 230 624L319 733Q329 745 336 748T356 752H494Q503 752 508 747T513
732Q513 725 508 720L374 610Q364 602 356 599T335 595H241Q225 595 225 611Z" />
<glyph unicode="&#xea;" glyph-name="ecircumflex" horiz-adv-x="597" d="M179 -10T109 55T37 246V277Q41 396 111 463T300 530Q386 530 445 496T534 401T564 263V238Q564 227 557 220T538 212H221V206Q222 161 242 134T299 106Q323 106 337 115T365 140Q374 150
379 152T397 155H528Q537 155 543 150T550 136Q550 110 521 75T435 15T301 -10Q179 -10 109 55ZM380 314V316Q380 364 359 390T300 417Q262 417 242 391T221 316V314H380ZM112 595T112 609Q112 618 119 625L223 734Q233 744 240 748T258 752H341Q352 752 359 749T377
734L480 625Q488 617 488 609Q488 595 472 595H423Q401 595 388 602L300 650L212 602Q199 595 177 595H127Q112 595 112 609Z" />
<glyph unicode="&#xeb;" glyph-name="edieresis" horiz-adv-x="597" d="M179 -10T109 55T37 246V277Q41 396 111 463T300 530Q386 530 445 496T534 401T564 263V238Q564 227 557 220T538 212H221V206Q222 161 242 134T299 106Q323 106 337 115T365 140Q374 150
379 152T397 155H528Q537 155 543 150T550 136Q550 110 521 75T435 15T301 -10Q179 -10 109 55ZM380 314V316Q380 364 359 390T300 417Q262 417 242 391T221 316V314H380ZM137 606T131 612T125 628V724Q125 734 131 740T147 747H243Q253 747 259 741T266 724V628Q266
618 260 612T243 606H147Q137 606 131 612ZM348 606T342 612T335 628V724Q335 734 341 740T358 747H453Q463 747 469 741T476 724V628Q476 618 470 612T453 606H358Q348 606 342 612Z" />
<glyph unicode="&#xec;" glyph-name="igrave" horiz-adv-x="290" d="M72 0T65 7T57 25V495Q57 506 64 513T82 520H207Q218 520 225 513T233 495V25Q233 14 226 7T207 0H82Q72 0 65 7ZM354 595T346 598T328 610L194 720Q189 725 189 732Q189 741 194 746T208 752H345Q358
752 365 749T382 733L472 624Q477 619 477 611Q477 595 461 595H366Q354 595 346 598Z" />
<glyph unicode="&#xed;" glyph-name="iacute" horiz-adv-x="290" d="M72 0T65 7T57 25V495Q57 506 64 513T82 520H207Q218 520 225 513T233 495V25Q233 14 226 7T207 0H82Q72 0 65 7ZM69 595T69 611Q69 619 74 624L163 733Q173 745 180 748T200 752H338Q347 752
352 747T357 732Q357 725 352 720L218 610Q208 602 200 599T179 595H85Q69 595 69 611Z" />
<glyph unicode="&#xee;" glyph-name="icircumflex" horiz-adv-x="290" d="M72 0T65 7T57 25V495Q57 506 64 513T82 520H207Q218 520 225 513T233 495V25Q233 14 226 7T207 0H82Q72 0 65 7ZM213 595T213 609Q213 618 220 625L324 734Q334 744 341 748T359 752H442Q453
752 460 749T478 734L581 625Q589 617 589 609Q589 595 573 595H524Q502 595 489 602L401 650L313 602Q300 595 278 595H228Q213 595 213 609Z" />
<glyph unicode="&#xef;" glyph-name="idieresis" horiz-adv-x="290" d="M72 0T65 7T57 25V495Q57 506 64 513T82 520H207Q218 520 225 513T233 495V25Q233 14 226 7T207 0H82Q72 0 65 7ZM237 606T231 612T225 628V724Q225 734 231 740T247 747H343Q353 747 359
741T366 724V628Q366 618 360 612T343 606H247Q237 606 231 612ZM448 606T442 612T435 628V724Q435 734 441 740T458 747H553Q563 747 569 741T576 724V628Q576 618 570 612T553 606H458Q448 606 442 612Z" />
<glyph unicode="&#xf0;" glyph-name="eth" horiz-adv-x="609" d="M178 -10T107 53T35 230Q35 305 68 359T162 442T302 470Q331 470 355 457Q338 501 313 534L203 491Q195 488 191 488Q182 488 177 493T171 508V533Q171 546 176 552T193 563L263 590Q232 621 180
659Q166 669 166 679Q166 688 172 694T187 700H319Q348 700 367 687L382 674Q388 669 396 663T412 648L503 683Q511 686 514 686Q523 686 529 681T535 666V641Q535 628 530 622T513 611L465 592Q512 532 538 454T568 269Q569 263 569 248Q569 233 568 226Q564 114
494 52T302 -10Q178 -10 107 53ZM343 116T363 142T384 211Q385 218 385 230Q385 241 384 248Q383 292 364 318T302 344Q259 344 240 318T219 248L218 230L219 211Q220 167 240 142T302 116Q343 116 363 142Z" />
<glyph unicode="&#xf1;" glyph-name="ntilde" horiz-adv-x="646" d="M72 0T65 7T57 25V495Q57 506 64 513T82 520H205Q216 520 223 513T230 495V457Q257 490 299 510T397 530Q454 530 498 504T568 427T594 304V25Q594 15 587 8T569 0H436Q425 0 418 7T410 25V298Q410
343 389 367T326 391Q286 391 263 367T240 298V25Q240 15 233 8T215 0H82Q72 0 65 7ZM366 590T353 595T319 610Q295 625 277 625Q267 625 262 621T250 609Q245 602 241 599T230 595H168Q161 595 156 600T150 612Q150 638 161 668T198 719T264 741Q284 741 298 736T331
721Q345 713 353 710T373 706Q383 706 388 710T400 723Q405 730 409 733T420 737H483Q491 737 496 732T501 719Q501 693 489 663T452 612T386 590Q366 590 353 595Z" />
<glyph unicode="&#xf2;" glyph-name="ograve" horiz-adv-x="614" d="M181 -10T114 48T40 215Q39 228 39 260Q39 292 40 305Q46 411 115 470T307 530Q429 530 498 471T574 305Q576 279 576 260Q576 241 574 215Q568 107 501 49T307 -10Q181 -10 114 48ZM348 116T368
141T391 220Q392 230 392 260Q392 290 391 300Q388 352 368 378T307 404Q266 404 246 378T223 300L222 260L223 220Q226 167 246 142T307 116Q348 116 368 141ZM262 595T254 598T236 610L102 720Q97 725 97 732Q97 741 102 746T116 752H253Q266 752 273 749T290
733L380 624Q385 619 385 611Q385 595 369 595H274Q262 595 254 598Z" />
<glyph unicode="&#xf3;" glyph-name="oacute" horiz-adv-x="614" d="M181 -10T114 48T40 215Q39 228 39 260Q39 292 40 305Q46 411 115 470T307 530Q429 530 498 471T574 305Q576 279 576 260Q576 241 574 215Q568 107 501 49T307 -10Q181 -10 114 48ZM348 116T368
141T391 220Q392 230 392 260Q392 290 391 300Q388 352 368 378T307 404Q266 404 246 378T223 300L222 260L223 220Q226 167 246 142T307 116Q348 116 368 141ZM230 595T230 611Q230 619 235 624L324 733Q334 745 341 748T361 752H499Q508 752 513 747T518 732Q518
725 513 720L379 610Q369 602 361 599T340 595H246Q230 595 230 611Z" />
<glyph unicode="&#xf4;" glyph-name="ocircumflex" horiz-adv-x="614" d="M181 -10T114 48T40 215Q39 228 39 260Q39 292 40 305Q46 411 115 470T307 530Q429 530 498 471T574 305Q576 279 576 260Q576 241 574 215Q568 107 501 49T307 -10Q181 -10 114 48ZM348
116T368 141T391 220Q392 230 392 260Q392 290 391 300Q388 352 368 378T307 404Q266 404 246 378T223 300L222 260L223 220Q226 167 246 142T307 116Q348 116 368 141ZM119 595T119 609Q119 618 126 625L230 734Q240 744 247 748T265 752H348Q359 752 366 749T384
734L487 625Q495 617 495 609Q495 595 479 595H430Q408 595 395 602L307 650L219 602Q206 595 184 595H134Q119 595 119 609Z" />
<glyph unicode="&#xf5;" glyph-name="otilde" horiz-adv-x="614" d="M181 -10T114 48T40 215Q39 228 39 260Q39 292 40 305Q46 411 115 470T307 530Q429 530 498 471T574 305Q576 279 576 260Q576 241 574 215Q568 107 501 49T307 -10Q181 -10 114 48ZM348 116T368
141T391 220Q392 230 392 260Q392 290 391 300Q388 352 368 378T307 404Q266 404 246 378T223 300L222 260L223 220Q226 167 246 142T307 116Q348 116 368 141ZM348 590T335 595T301 610Q277 625 259 625Q249 625 244 621T232 609Q227 602 223 599T212 595H150Q143
595 138 600T132 612Q132 638 143 668T180 719T246 741Q266 741 280 736T313 721Q327 713 335 710T355 706Q365 706 370 710T382 723Q387 730 391 733T402 737H465Q473 737 478 732T483 719Q483 693 471 663T434 612T368 590Q348 590 335 595Z" />
<glyph unicode="&#xf6;" glyph-name="odieresis" horiz-adv-x="614" d="M181 -10T114 48T40 215Q39 228 39 260Q39 292 40 305Q46 411 115 470T307 530Q429 530 498 471T574 305Q576 279 576 260Q576 241 574 215Q568 107 501 49T307 -10Q181 -10 114 48ZM348
116T368 141T391 220Q392 230 392 260Q392 290 391 300Q388 352 368 378T307 404Q266 404 246 378T223 300L222 260L223 220Q226 167 246 142T307 116Q348 116 368 141ZM144 606T138 612T132 628V724Q132 734 138 740T154 747H250Q260 747 266 741T273 724V628Q273
618 267 612T250 606H154Q144 606 138 612ZM355 606T349 612T342 628V724Q342 734 348 740T365 747H460Q470 747 476 741T483 724V628Q483 618 477 612T460 606H365Q355 606 349 612Z" />
<glyph unicode="&#xf7;" glyph-name="divide" horiz-adv-x="533" d="M206 415T199 422T191 441V533Q191 544 198 551T217 558H315Q326 558 333 551T341 533V441Q341 430 334 423T315 415H217Q206 415 199 422ZM59 234T52 241T44 259V341Q44 352 51 359T69 367H464Q475
367 482 360T489 341V259Q489 249 482 242T464 234H69Q59 234 52 241ZM206 43T199 50T191 68V160Q191 171 198 178T217 186H315Q326 186 333 179T341 160V68Q341 57 334 50T315 43H217Q206 43 199 50Z" />
<glyph unicode="&#xf8;" glyph-name="oslash" horiz-adv-x="643" d="M228 -10T168 23T78 117L42 103Q34 100 31 100Q22 100 16 105T10 120V172Q10 185 15 191T32 202L55 210Q54 226 54 258Q54 290 55 305Q61 409 129 469T322 530Q413 530 473 498T562 407L600
422Q608 425 611 425Q620 425 626 420T632 405V353Q632 340 627 334T610 323L589 315Q591 281 591 255L590 215Q584 109 518 50T322 -10Q228 -10 168 23ZM400 344Q386 404 322 404Q245 404 239 311L238 296L239 281L400 344ZM363 116T383 140T406 218V244L243 181Q256
116 322 116Q363 116 383 140Z" />
<glyph unicode="&#xf9;" glyph-name="ugrave" horiz-adv-x="644" d="M160 -10T106 49T52 216V495Q52 506 59 513T77 520H210Q221 520 228 513T236 495V222Q236 129 319 129Q359 129 381 153T404 222V495Q404 506 411 513T430 520H562Q573 520 580 513T587 495V25Q587
15 580 8T562 0H440Q429 0 422 7T414 25V63Q362 -10 248 -10Q160 -10 106 49ZM272 595T264 598T246 610L112 720Q107 725 107 732Q107 741 112 746T126 752H263Q276 752 283 749T300 733L390 624Q395 619 395 611Q395 595 379 595H284Q272 595 264 598Z" />
<glyph unicode="&#xfa;" glyph-name="uacute" horiz-adv-x="644" d="M160 -10T106 49T52 216V495Q52 506 59 513T77 520H210Q221 520 228 513T236 495V222Q236 129 319 129Q359 129 381 153T404 222V495Q404 506 411 513T430 520H562Q573 520 580 513T587 495V25Q587
15 580 8T562 0H440Q429 0 422 7T414 25V63Q362 -10 248 -10Q160 -10 106 49ZM244 595T244 611Q244 619 249 624L338 733Q348 745 355 748T375 752H513Q522 752 527 747T532 732Q532 725 527 720L393 610Q383 602 375 599T354 595H260Q244 595 244 611Z" />
<glyph unicode="&#xfb;" glyph-name="ucircumflex" horiz-adv-x="644" d="M160 -10T106 49T52 216V495Q52 506 59 513T77 520H210Q221 520 228 513T236 495V222Q236 129 319 129Q359 129 381 153T404 222V495Q404 506 411 513T430 520H562Q573 520 580 513T587
495V25Q587 15 580 8T562 0H440Q429 0 422 7T414 25V63Q362 -10 248 -10Q160 -10 106 49ZM132 595T132 609Q132 618 139 625L243 734Q253 744 260 748T278 752H361Q372 752 379 749T397 734L500 625Q508 617 508 609Q508 595 492 595H443Q421 595 408 602L320 650L232
602Q219 595 197 595H147Q132 595 132 609Z" />
<glyph unicode="&#xfc;" glyph-name="udieresis" horiz-adv-x="644" d="M160 -10T106 49T52 216V495Q52 506 59 513T77 520H210Q221 520 228 513T236 495V222Q236 129 319 129Q359 129 381 153T404 222V495Q404 506 411 513T430 520H562Q573 520 580 513T587 495V25Q587
15 580 8T562 0H440Q429 0 422 7T414 25V63Q362 -10 248 -10Q160 -10 106 49ZM156 606T150 612T144 628V724Q144 734 150 740T166 747H262Q272 747 278 741T285 724V628Q285 618 279 612T262 606H166Q156 606 150 612ZM367 606T361 612T354 628V724Q354 734 360
740T377 747H472Q482 747 488 741T495 724V628Q495 618 489 612T472 606H377Q367 606 361 612Z" />
<glyph unicode="&#xfd;" glyph-name="yacute" horiz-adv-x="601" d="M146 -190T140 -184T134 -169Q134 -162 136 -156L215 32L23 486Q20 494 20 497Q22 507 28 513T44 520H163Q184 520 192 499L303 215L417 499Q427 520 447 520H565Q574 520 580 514T587 499Q587
492 585 486L302 -169Q292 -190 271 -190H155Q146 -190 140 -184ZM230 595T230 611Q230 619 235 624L324 733Q334 745 341 748T361 752H499Q508 752 513 747T518 732Q518 725 513 720L379 610Q369 602 361 599T340 595H246Q230 595 230 611Z" />
<glyph unicode="&#xfe;" glyph-name="thorn" horiz-adv-x="635" d="M73 -190T66 -183T58 -165V685Q58 696 65 703T83 710H212Q223 710 230 703T238 685V466Q262 498 295 514T382 530Q480 530 535 470T595 297Q596 284 596 260Q596 236 595 222Q591 114 535 52T382
-10Q286 -10 238 56V-165Q238 -176 231 -183T212 -190H83Q73 -190 66 -183ZM370 129T389 155T411 229Q413 249 413 260Q413 271 411 291Q408 338 389 364T325 391Q281 391 261 364T238 294Q237 281 237 256Q237 232 238 219Q240 180 261 155T325 129Q370 129 389
155Z" />
<glyph unicode="&#xff;" glyph-name="ydieresis" horiz-adv-x="601" d="M146 -190T140 -184T134 -169Q134 -162 136 -156L215 32L23 486Q20 494 20 497Q22 507 28 513T44 520H163Q184 520 192 499L303 215L417 499Q427 520 447 520H565Q574 520 580 514T587 499Q587
492 585 486L302 -169Q292 -190 271 -190H155Q146 -190 140 -184ZM141 606T135 612T129 628V724Q129 734 135 740T151 747H247Q257 747 263 741T270 724V628Q270 618 264 612T247 606H151Q141 606 135 612ZM352 606T346 612T339 628V724Q339 734 345 740T362 747H457Q467
747 473 741T480 724V628Q480 618 474 612T457 606H362Q352 606 346 612Z" />
<glyph unicode="&#x2013;" glyph-name="endash" horiz-adv-x="566" d="M70 225T63 232T55 250V350Q55 361 62 368T81 375H486Q497 375 504 368T511 350V250Q511 240 504 233T486 225H81Q70 225 63 232Z" />
<glyph unicode="&#x2014;" glyph-name="emdash" horiz-adv-x="756" d="M70 225T63 232T55 250V350Q55 361 62 368T81 375H676Q687 375 694 368T701 350V250Q701 240 694 233T676 225H81Q70 225 63 232Z" />
<glyph unicode="&#x2018;" glyph-name="quoteleft" horiz-adv-x="273" d="M41 452T36 458T30 472Q30 478 32 483L109 682Q115 695 123 702T147 710H220Q229 710 234 704T239 687L208 487Q205 472 196 462T171 452H49Q41 452 36 458Z" />
<glyph unicode="&#x2019;" glyph-name="quoteright" horiz-adv-x="268" d="M50 452T45 458T40 475L71 675Q74 690 83 700T108 710H230Q238 710 243 704T249 690Q249 684 247 679L170 480Q164 467 156 460T132 452H59Q50 452 45 458Z" />
<glyph unicode="&#x201a;" glyph-name="quotesinglbase" horiz-adv-x="280" d="M41 -75T36 -69T31 -52L62 148Q65 163 74 173T99 183H221Q229 183 234 177T240 163Q240 157 238 152L161 -47Q155 -60 147 -67T123 -75H50Q41 -75 36 -69Z" />
<glyph unicode="&#x201c;" glyph-name="quotedblleft" horiz-adv-x="499" d="M41 452T36 458T30 472Q30 478 32 483L109 682Q115 695 123 702T147 710H220Q229 710 234 703T239 687L208 487Q205 472 196 462T171 452H49Q41 452 36 458ZM267 452T262 458T256 472Q256
478 258 483L335 682Q341 695 349 702T373 710H446Q455 710 460 703T465 687L434 487Q431 472 422 462T397 452H275Q267 452 262 458Z" />
<glyph unicode="&#x201d;" glyph-name="quotedblright" horiz-adv-x="494" d="M50 452T45 459T40 475L71 675Q74 690 83 700T108 710H230Q238 710 243 704T249 690Q249 684 247 679L170 480Q164 467 156 460T132 452H59Q50 452 45 459ZM276 452T271 459T266 475L297
675Q300 690 309 700T334 710H456Q464 710 469 704T475 690Q475 684 473 679L396 480Q390 467 382 460T358 452H285Q276 452 271 459Z" />
<glyph unicode="&#x201e;" glyph-name="quotedblbase" horiz-adv-x="506" d="M41 -75T36 -68T31 -52L62 148Q65 163 74 173T99 183H221Q229 183 234 177T240 163Q240 157 238 152L161 -47Q155 -60 147 -67T123 -75H50Q41 -75 36 -68ZM268 -75T262 -69T257 -53L288
148Q291 163 300 173T325 183H447Q455 183 460 177T466 163Q466 157 464 152L387 -47Q381 -60 373 -67T349 -75H276Q268 -75 262 -69Z" />
<glyph unicode="&#x2022;" glyph-name="bullet" horiz-adv-x="385" d="M159 207T130 224T83 270T66 333Q66 367 83 396T129 443T193 460Q227 460 256 443T302 397T319 333Q319 299 302 270T256 224T193 207Q159 207 130 224Z" />
<glyph unicode="&#x2039;" glyph-name="guilsinglleft" horiz-adv-x="346" d="M261 65T252 73L45 274Q30 288 30 304V354Q30 371 45 384L252 585Q261 593 269 593Q278 593 284 587T291 571V472Q291 457 287 449T273 430L170 329L273 228Q283 218 287 210T291 186V87Q291
78 285 72T269 65Q261 65 252 73Z" />
<glyph unicode="&#x203a;" glyph-name="guilsinglright" horiz-adv-x="346" d="M68 65T62 71T55 87V186Q55 201 59 209T73 228L176 329L73 430Q63 440 59 448T55 472V571Q55 580 61 586T77 593Q85 593 94 585L301 384Q316 371 316 354V304Q316 288 301 274L94
73Q85 65 77 65Q68 65 62 71Z" />
</font>
</defs>
</svg>
