<?xml version="1.0" standalone="no"?>
<!DOCTYPE svg PUBLIC "-//W3C//DTD SVG 1.1//EN" "http://www.w3.org/Graphics/SVG/1.1/DTD/svg11.dtd">
<svg xmlns="http://www.w3.org/2000/svg">
<defs >
<font id="Rubik" horiz-adv-x="634" ><font-face
    font-family="Rubik Black"
    units-per-em="1000"
    panose-1="0 0 10 0 0 0 0 0 0 0"
    ascent="935"
    descent="-250"
    alphabetic="0" />
<glyph unicode=" " glyph-name="space" horiz-adv-x="188" />
<glyph unicode="!" glyph-name="exclam" horiz-adv-x="329" d="M60 268T54 276T50 295L131 673Q133 684 142 692T163 700H337Q348 700 354 692T359 673L278 295Q276 284 266 276T245 268H71Q60 268 54 276ZM4 0T-2 8T-7 27L30 201Q32 212 42 220T63 228H237Q248
228 254 220T258 201L221 27Q219 16 210 8T189 0H15Q4 0 -2 8Z" />
<glyph unicode="&quot;" glyph-name="quotedbl" horiz-adv-x="517" d="M80 408T84 440L107 674Q109 691 118 700T141 710H293Q304 710 310 704T316 688Q316 682 313 674L236 440Q226 408 194 408H112Q80 408 84 440ZM335 408T339 440L362 674Q364 691 373 700T396
710H548Q559 710 565 704T571 688Q571 682 568 674L491 440Q481 408 449 408H367Q335 408 339 440Z" />
<glyph unicode="#" glyph-name="numbersign" horiz-adv-x="677" d="M74 39T68 45T65 61L92 136H45Q34 136 29 143T25 161L51 279Q52 289 61 296T81 304H153L184 390H125Q114 390 109 397T105 415L131 533Q132 543 141 550T161 558H245L273 634Q276 643 284 649T301
655H417Q426 655 431 649T435 633L408 558H472L500 634Q503 643 511 649T528 655H644Q653 655 658 649T662 633L635 558H682Q692 558 698 551T702 533L676 415Q674 404 665 397T646 390H574L543 304H602Q612 304 618 297T622 279L596 161Q594 150 585 143T566 136H482L455
60Q451 51 444 45T426 39H310Q301 39 296 45T292 61L319 136H255L228 60Q224 51 217 45T199 39H83Q74 39 68 45ZM316 304H380L411 390H347L316 304Z" />
<glyph unicode="$" glyph-name="dollar" horiz-adv-x="714" d="M207 -100T201 -92T197 -73L211 -2Q111 14 57 62T3 175Q3 188 6 203Q7 212 15 218T32 225H222Q236 225 243 222T262 208Q287 185 331 185Q368 185 390 193T413 218Q413 233 387 242T293 260Q191 274
135 321T78 444Q78 467 84 494Q102 582 169 636T342 705L357 773Q359 784 369 792T390 800H511Q522 800 528 792T532 773L516 697Q572 681 615 652T682 588T706 518Q706 508 705 503Q704 494 696 488T680 481H480Q466 481 459 484T443 497Q425 515 394 515Q347
515 340 487Q337 472 358 462T442 444Q565 429 621 385T677 266Q677 241 671 212Q651 116 579 61T385 -6L372 -73Q370 -84 360 -92T339 -100H218Q207 -100 201 -92Z" />
<glyph unicode="%" glyph-name="percent" horiz-adv-x="885" d="M150 345T108 378T66 464Q66 474 67 480Q71 514 88 577Q105 641 146 673T266 705Q328 705 369 672T411 587Q411 575 410 569Q401 512 389 472Q371 410 328 378T209 345Q150 345 108 378ZM59 0T54
4T48 16Q48 24 55 31L687 681Q697 691 705 695T727 700H835Q845 700 850 696T856 684Q856 676 849 669L217 19Q207 9 199 5T177 0H69Q59 0 54 4ZM245 453T254 483Q267 534 271 566Q272 569 272 576Q272 596 253 596Q230 596 221 566Q208 520 204 483Q203 480 203
473Q203 453 222 453Q245 453 254 483ZM581 -5T539 28T497 114Q497 124 498 130Q502 164 519 227Q536 291 577 323T697 355Q759 355 800 322T842 237Q842 225 841 219Q832 162 820 122Q802 60 759 28T640 -5Q581 -5 539 28ZM676 103T685 133Q698 184 702 216Q703
219 703 226Q703 246 684 246Q661 246 652 216Q639 170 635 133Q634 130 634 123Q634 103 653 103Q676 103 685 133Z" />
<glyph unicode="&amp;" glyph-name="ampersand" horiz-adv-x="783" d="M147 -10T85 32T23 153Q23 180 28 201Q41 261 83 308T198 391Q164 438 164 490Q164 502 168 524Q178 575 213 617T309 684T451 710Q546 710 595 668T645 563Q645 551 641 529Q629 474 589
432T475 352L533 274Q536 276 545 285T569 313T600 356Q606 366 622 366H773Q780 366 784 361T787 348Q781 319 727 257T627 155L720 31Q723 27 723 21Q723 13 716 7T701 0H497Q488 0 484 2T474 10L452 34Q407 8 362 -1T260 -10Q147 -10 85 32ZM440 493T447 521Q448
524 448 529Q448 542 440 549T418 557Q401 557 387 545T372 513Q372 492 390 472Q440 493 447 521ZM335 157T358 169L289 260Q273 253 260 236T247 202Q247 182 261 170T296 157Q335 157 358 169Z" />
<glyph unicode="&apos;" glyph-name="quotesingle" horiz-adv-x="262" d="M80 408T84 440L107 674Q109 691 118 700T141 710H293Q304 710 310 704T316 688Q316 682 313 674L236 440Q226 408 194 408H112Q80 408 84 440Z" />
<glyph unicode="(" glyph-name="parenleft" horiz-adv-x="423" d="M214 -159T154 -125T54 -19T15 162Q15 226 32 309Q68 479 125 581T268 729T476 776Q487 776 493 768T498 749L471 622Q469 611 460 604T438 595Q362 588 316 511T243 309Q225 224 225 163Q225
30 316 22Q328 21 334 14T337 -5L310 -132Q308 -143 299 -151T278 -159Q214 -159 154 -125Z" />
<glyph unicode=")" glyph-name="parenright" horiz-adv-x="422" d="M-59 -159T-65 -151T-70 -132L-43 -5Q-40 6 -31 13T-10 22Q128 35 185 309Q204 399 204 454Q204 587 112 595Q101 596 95 603T91 622L118 749Q120 760 129 768T150 776Q214 776 274 742T374 636T413
456Q413 392 396 309Q359 135 306 34T168 -113T-48 -159Q-59 -159 -65 -151Z" />
<glyph unicode="*" glyph-name="asterisk" horiz-adv-x="444" d="M421 672Q426 676 436 676Q453 676 454 661L468 547Q469 535 460 526T439 517L366 515L415 471Q421 467 421 458Q421 444 407 435L296 363Q291 359 281 359Q263 359 262 375L253 444L214 375Q211
369 204 364T188 359Q181 359 176 363L95 435Q89 441 89 448Q89 462 103 471L170 515L97 517Q89 517 84 522T79 536Q79 541 82 547L144 661Q148 668 154 672T169 676Q177 676 181 672L232 631L226 700Q225 711 233 720T254 730H374Q382 730 386 725T391 712Q391
706 388 700L353 631L421 672Z" />
<glyph unicode="+" glyph-name="plus" horiz-adv-x="591" d="M169 33T163 41T158 60L192 221H37Q26 221 20 229T16 248L39 357Q42 368 51 376T72 384H227L260 540Q262 551 272 559T293 567H415Q426 567 432 559T436 540L403 384H556Q567 384 573 376T577 357L554
248Q552 237 542 229T521 221H368L334 60Q332 49 323 41T302 33H180Q169 33 163 41Z" />
<glyph unicode="," glyph-name="comma" horiz-adv-x="315" d="M40 205T53 216T85 228H255Q264 228 268 223T273 210Q273 204 270 199L123 -43Q103 -75 74 -75H-37Q-45 -75 -51 -68T-54 -51L34 189Q40 205 53 216Z" />
<glyph unicode="-" glyph-name="hyphen" horiz-adv-x="469" d="M40 202T34 210T30 229L60 371Q63 382 72 390T93 398H418Q429 398 435 390T439 371L409 229Q407 218 397 210T376 202H51Q40 202 34 210Z" />
<glyph unicode="." glyph-name="period" horiz-adv-x="310" d="M-4 0T-10 8T-15 27L22 201Q24 212 34 220T55 228H229Q240 228 246 220T250 201L213 27Q211 16 202 8T181 0H7Q-4 0 -10 8Z" />
<glyph unicode="/" glyph-name="slash" horiz-adv-x="584" d="M-44 -84T-49 -79T-54 -66Q-54 -58 -50 -53L457 756Q476 786 508 786H645Q663 786 663 771Q663 763 658 755L148 -54Q130 -84 98 -84H-36Q-44 -84 -49 -79Z" />
<glyph unicode="0" glyph-name="zero" horiz-adv-x="717" d="M227 -10T164 18T66 97T32 212Q32 234 34 246Q39 285 53 349T79 458Q112 575 197 642T426 710Q509 710 573 682T673 604T709 490Q709 469 707 458Q701 417 688 353T662 246Q628 126 546 59T313 -10Q227
-10 164 18ZM385 186T403 251Q414 294 426 352T446 452Q448 464 448 471Q448 516 405 517Q355 516 338 452Q327 411 315 353T295 251Q293 237 293 231Q293 186 335 186Q385 186 403 251Z" />
<glyph unicode="1" glyph-name="one" horiz-adv-x="554" d="M202 0T196 8T191 27L275 417L152 336Q146 331 136 331Q123 331 116 344L47 467Q46 470 46 475Q46 485 50 493T64 506L345 693Q356 700 368 700H557Q568 700 574 692T579 673L441 27Q439 16 430 8T409
0H213Q202 0 196 8Z" />
<glyph unicode="2" glyph-name="two" horiz-adv-x="704" d="M2 0T-4 8T-8 27L14 131Q23 168 51 185L63 193L109 222Q239 303 300 343T398 417T441 477Q443 489 443 494Q443 517 413 517Q389 517 376 505T356 481T347 466Q339 453 328 448T302 443H114Q105 443
100 449T97 465Q114 539 166 595T293 683T454 714Q575 714 643 668T711 539Q711 516 705 490Q689 413 622 350T430 211L422 206H633Q644 206 650 198T654 179L622 27Q620 16 610 8T589 0H13Q2 0 -4 8Z" />
<glyph unicode="3" glyph-name="three" horiz-adv-x="709" d="M195 -10T132 18T41 89T14 175Q14 184 16 198Q18 207 26 213T43 220H244Q256 220 261 217T275 204Q282 194 296 189T339 184Q372 184 391 198T417 237Q418 241 418 247Q418 281 360 281H235Q224 281
218 289T214 308L231 389Q234 403 242 413T259 429L415 505H152Q141 505 135 513T130 532L160 673Q162 684 172 692T193 700H705Q716 700 722 692T726 673L699 546Q694 520 671 506L537 428V425Q679 390 679 271Q679 248 673 219Q658 151 605 99T472 19T297 -10Q195
-10 132 18Z" />
<glyph unicode="4" glyph-name="four" horiz-adv-x="754" d="M326 0T320 8T315 27L333 112H14Q3 112 -3 120T-7 139L23 282Q27 299 41 313L403 683Q420 700 443 700H671Q682 700 688 692T693 673L616 315H703Q715 315 721 307T726 288L694 139Q692 128 682 120T661
112H573L555 27Q553 16 544 8T523 0H337Q326 0 320 8ZM276 304H381L412 448L276 304Z" />
<glyph unicode="5" glyph-name="five" horiz-adv-x="690" d="M205 -12T138 14T35 84T-1 182Q-1 197 2 212Q3 221 11 227T28 234H230Q253 234 263 218Q274 198 284 191T317 183Q343 183 364 199T392 245Q393 249 393 258Q393 279 381 292T344 306Q327 306 316 302T293
290Q291 289 286 286T274 282H75Q67 282 63 287T58 300Q58 306 59 309L175 666Q181 683 193 691T221 700H668Q679 700 685 692T690 673L660 532Q657 521 648 513T627 505H335L312 434Q344 453 374 460T453 468Q507 468 552 442T625 371T652 271Q652 251 647 226Q624
118 538 53T295 -12Q205 -12 138 14Z" />
<glyph unicode="6" glyph-name="six" horiz-adv-x="692" d="M172 -10T95 44T18 195Q18 221 24 249Q43 339 167 467L376 680Q393 700 419 700H620Q629 700 634 694T637 678Q636 673 631 665L469 498H476Q522 494 569 470T649 403T681 300Q681 281 676 254Q660 179
606 119T472 25T299 -10Q172 -10 95 44ZM368 185T390 202T420 250Q422 262 422 266Q422 290 407 302T365 315Q335 315 312 298T282 250Q280 238 280 234Q280 211 296 198T338 185Q368 185 390 202Z" />
<glyph unicode="7" glyph-name="seven" horiz-adv-x="625" d="M76 0T71 6T68 22Q70 29 72 31L386 495H111Q100 495 94 503T90 522L122 673Q124 684 134 692T155 700H672Q684 700 689 692T693 673L665 541Q660 517 641 490L324 23Q318 15 306 8T278 0H85Q76 0 71 6Z" />
<glyph unicode="8" glyph-name="eight" horiz-adv-x="710" d="M217 -10T151 18T50 91T16 190Q16 202 20 224Q30 271 62 309T138 370Q101 412 101 470Q101 490 105 506Q123 594 202 652T422 710Q507 710 567 685T659 617T690 525Q690 510 687 493Q679 452 659 423T602
370Q631 348 646 317T661 249Q661 230 656 207Q636 113 551 52T309 -10Q217 -10 151 18ZM417 433T438 452T460 498Q460 517 446 529T406 541Q373 541 352 522T331 476Q331 457 344 445T384 433Q417 433 438 452ZM356 158T379 174T408 217Q409 221 409 229Q409 251
393 263T350 276Q316 276 292 257T267 204Q267 182 282 170T325 158Q356 158 379 174Z" />
<glyph unicode="9" glyph-name="nine" horiz-adv-x="683" d="M100 0T95 6T92 22Q93 29 99 35L267 210Q262 210 259 211Q213 217 168 239T92 302T62 400Q62 424 68 449Q83 519 132 578T260 674T439 710Q573 710 645 657T717 512Q717 486 711 459Q699 403 664 355T562
237L523 196L353 20Q336 0 310 0H109Q100 0 95 6ZM403 385T423 402T451 450Q453 464 453 468Q453 491 439 503T401 515Q372 515 351 498T323 450Q321 436 321 431Q321 409 334 397T373 385Q403 385 423 402Z" />
<glyph unicode=":" glyph-name="colon" horiz-adv-x="322" d="M75 350T69 358T65 377L99 541Q102 552 111 560T132 568H306Q317 568 323 560T327 541L293 377Q290 366 281 358T260 350H86Q75 350 69 358ZM1 0T-5 8T-10 27L25 191Q27 202 37 210T58 218H232Q243
218 249 210T253 191L218 27Q216 16 207 8T186 0H12Q1 0 -5 8Z" />
<glyph unicode=";" glyph-name="semicolon" horiz-adv-x="325" d="M103 350T97 358T92 377L127 541Q129 552 139 560T160 568H334Q345 568 351 560T355 541L320 377Q318 366 309 358T288 350H114Q103 350 97 358ZM-33 -75T-38 -69T-41 -53L47 189Q53 205 66 216T99
228H259Q268 228 273 222T276 206Q276 205 274 199L127 -43Q107 -75 77 -75H-24Q-33 -75 -38 -69Z" />
<glyph unicode="&lt;" glyph-name="less" horiz-adv-x="538" d="M412 14T408 17L65 287Q54 295 49 302T44 320Q44 326 45 329L54 371Q57 386 65 394T92 413L549 683Q555 686 561 686Q570 686 575 680T578 665L543 503Q540 486 530 477T502 459L304 350L455 240Q467
232 473 226T479 207Q479 201 478 197L444 35Q442 26 435 20T418 14Q412 14 408 17Z" />
<glyph unicode="=" glyph-name="equal" horiz-adv-x="564" d="M78 340T72 348T68 367L92 483Q94 494 104 502T125 510H530Q541 510 547 502T551 483L527 367Q524 356 515 348T494 340H89Q78 340 72 348ZM25 90T19 98T14 117L39 233Q41 244 51 252T72 260H477Q488
260 494 252T498 233L473 117Q471 106 462 98T441 90H36Q25 90 19 98Z" />
<glyph unicode="&gt;" glyph-name="greater" horiz-adv-x="538" d="M19 14T15 20T12 35L46 197Q50 214 60 222T87 240L286 350L134 459Q123 465 117 473T110 494Q110 500 111 503L146 665Q147 674 154 680T171 686Q177 686 181 683L524 413Q535 404 540 397T545
381Q545 375 544 371L535 329Q532 314 524 306T497 287L40 17Q34 14 28 14Q19 14 15 20Z" />
<glyph unicode="?" glyph-name="question" horiz-adv-x="653" d="M224 253T219 258T216 271Q216 275 219 279Q236 312 266 340T342 406Q379 435 396 451T417 483Q420 498 413 506T390 515Q364 515 351 506T324 478Q314 466 306 460T282 453H96Q77 453 77 475Q77
481 78 484Q91 538 138 590T264 676T449 710Q583 710 638 663T693 553Q693 537 690 523Q679 469 645 429T551 340Q524 318 501 296Q487 282 487 282Q471 264 464 259T445 253H231Q224 253 219 258ZM176 0T170 8T166 27L200 186Q202 197 211 205T232 213H415Q426
213 432 205T437 186L403 27Q401 16 391 8T370 0H187Q176 0 170 8Z" />
<glyph unicode="@" glyph-name="at" horiz-adv-x="856" d="M193 -141T111 -67T28 130Q28 160 32 185Q35 213 47 271T68 356Q92 439 152 514T307 636T521 684Q705 684 781 615T857 424Q857 394 852 356Q846 307 826 234Q813 186 781 151T707 97T626 79Q579 79 548
92T504 125Q484 100 453 85T360 69Q301 69 269 105T237 206Q237 235 245 273Q265 366 317 422T442 478Q478 478 498 468T531 434L533 443Q536 454 545 462T566 470H638Q649 470 655 462T659 443L618 250Q616 238 616 234Q616 200 652 200Q695 200 705 249L710 271Q722
327 726 351Q732 384 732 412Q732 492 678 527T495 563Q372 563 299 506T193 351Q184 325 173 272T159 190Q157 166 157 156Q157 70 213 25T391 -20Q470 -20 509 -11T587 23Q601 32 608 35T625 38H723Q732 38 738 33T745 18Q745 13 744 10Q743 4 734 -5Q672 -65
580 -103T365 -141Q193 -141 111 -67ZM448 190T467 208T497 273Q501 292 501 308Q501 335 489 346T451 357Q388 357 370 273Q366 256 366 240Q366 190 416 190Q448 190 467 208Z" />
<glyph unicode="A" glyph-name="A" horiz-adv-x="761" d="M-48 0T-53 5T-58 18Q-58 23 -55 29L303 667Q311 680 324 690T355 700H577Q595 700 604 691T615 667L703 29Q704 16 696 8T676 0H496Q464 0 462 25L452 91H237L199 25Q192 14 182 7T155 0H-40Q-48 0 -53
5ZM329 286H442L425 472L329 286Z" />
<glyph unicode="B" glyph-name="B" horiz-adv-x="733" d="M8 0T2 8T-3 27L135 673Q137 684 146 692T167 700H479Q601 700 669 658T737 535Q737 517 732 490Q723 447 691 414T625 365Q655 351 673 321T692 252Q692 237 689 220Q665 107 591 54T381 0H19Q8 0 2 8ZM418
437Q438 437 451 450T469 482Q470 486 470 494Q470 508 463 518T438 528H354L334 437H418ZM371 172Q394 172 409 187T427 221Q429 229 429 234Q429 249 420 259T392 270H299L278 172H371Z" />
<glyph unicode="C" glyph-name="C" horiz-adv-x="731" d="M194 -10T110 45T25 210Q25 231 30 261Q42 333 68 439Q136 710 440 710Q518 710 588 688T703 618T748 500Q748 481 743 454Q741 445 733 439T716 432H512Q496 432 490 438T481 461Q477 491 462 503T418
515Q383 515 361 497T327 434Q306 351 291 266Q288 251 288 239Q288 210 303 198T348 185Q406 185 434 239Q443 256 451 262T477 268H681Q690 268 695 262T699 246Q669 116 570 53T327 -10Q194 -10 110 45Z" />
<glyph unicode="D" glyph-name="D" horiz-adv-x="739" d="M8 0T2 8T-3 27L135 673Q137 684 146 692T167 700H435Q514 700 582 673T693 594T735 469Q735 445 731 425Q717 346 699 276Q663 133 576 67T332 0H19Q8 0 2 8ZM348 195Q383 195 408 215T445 276Q465 353
477 425Q479 437 479 443Q479 474 460 489T409 505H349L283 195H348Z" />
<glyph unicode="E" glyph-name="E" horiz-adv-x="666" d="M8 0T2 8T-3 27L135 673Q137 684 146 692T167 700H680Q691 700 697 692T702 673L672 532Q669 521 660 513T639 505H339L325 442H603Q614 442 620 434T625 415L597 285Q595 274 585 266T564 258H286L273
195H581Q592 195 598 187T602 168L572 27Q570 16 561 8T540 0H19Q8 0 2 8Z" />
<glyph unicode="F" glyph-name="F" horiz-adv-x="646" d="M8 0T2 8T-3 27L135 673Q137 684 146 692T167 700H671Q682 700 688 692T693 673L660 521Q658 510 649 502T628 494H342L326 420H592Q603 420 609 412T613 393L581 242Q579 231 569 223T548 215H282L242
27Q240 16 231 8T210 0H19Q8 0 2 8Z" />
<glyph unicode="G" glyph-name="G" horiz-adv-x="753" d="M187 -10T113 43T39 204Q39 232 45 265Q58 344 83 445Q115 575 219 642T476 710Q570 710 637 685T740 616T776 518Q776 502 773 487Q771 478 763 472T746 465H525Q506 465 498 476Q497 477 492 488T472
507T435 515Q360 515 342 440Q322 362 306 270Q303 257 303 244Q303 185 369 185Q409 185 435 202T469 256V257H422Q411 257 405 265T401 284L424 395Q426 406 436 414T457 422H732Q743 422 749 414T753 395L726 265Q697 133 588 62T323 -10Q187 -10 113 43Z" />
<glyph unicode="H" glyph-name="H" horiz-adv-x="771" d="M8 0T2 7T-3 27L135 673Q137 684 146 692T167 700H363Q374 700 380 692T385 673L340 463H502L547 673Q549 684 558 692T579 700H775Q786 700 792 692T797 673L659 27Q657 16 648 8T627 0H431Q420 0 414
8T409 27L455 243H293L247 27Q245 16 236 8T215 0H19Q8 0 2 7Z" />
<glyph unicode="I" glyph-name="I" horiz-adv-x="367" d="M8 0T2 8T-3 27L135 673Q137 684 146 692T167 700H371Q382 700 388 692T393 673L255 27Q253 16 244 8T223 0H19Q8 0 2 8Z" />
<glyph unicode="J" glyph-name="J" horiz-adv-x="698" d="M218 -10T149 15T35 89T-10 201Q-10 217 -7 235Q-5 244 3 250T20 257H224Q240 257 247 250T258 225Q264 203 274 194T308 185Q337 185 356 203T384 266L433 497H136Q125 497 119 505T115 524L147 673Q149
684 158 692T179 700H708Q719 700 725 692T730 673L641 258Q612 120 526 55T288 -10Q218 -10 149 15Z" />
<glyph unicode="K" glyph-name="K" horiz-adv-x="712" d="M8 0T2 8T-3 27L135 673Q137 684 146 692T167 700H358Q369 700 375 692T380 673L337 475L494 678Q510 700 538 700H764Q773 700 777 695T782 682Q782 675 776 667L517 344L649 33Q651 27 651 24Q651 14
642 7T623 0H410Q382 0 373 23L288 241L242 27Q240 16 231 8T210 0H19Q8 0 2 8Z" />
<glyph unicode="L" glyph-name="L" horiz-adv-x="623" d="M8 0T2 8T-3 27L135 673Q137 684 146 692T167 700H367Q378 700 384 692T389 673L289 205H566Q577 205 583 197T587 178L555 27Q553 16 544 8T523 0H19Q8 0 2 8Z" />
<glyph unicode="M" glyph-name="M" horiz-adv-x="855" d="M8 0T2 8T-3 27L135 673Q137 684 146 692T167 700H325Q351 700 363 673L457 433L653 673Q672 700 701 700H859Q870 700 876 692T881 673L743 27Q741 16 732 8T711 0H530Q519 0 513 8T508 27L566 301L478
193Q467 181 458 175T435 168H365Q343 168 334 193L290 301L232 27Q230 16 221 8T200 0H19Q8 0 2 8Z" />
<glyph unicode="N" glyph-name="N" horiz-adv-x="739" d="M8 0T2 8T-3 27L135 673Q137 684 146 692T167 700H325Q354 700 361 677L472 400L530 673Q532 684 541 692T562 700H743Q754 700 760 692T765 673L627 27Q625 16 616 8T595 0H437Q420 0 413 7T400 23L286
278L232 27Q230 16 221 8T200 0H19Q8 0 2 8Z" />
<glyph unicode="O" glyph-name="O" horiz-adv-x="742" d="M243 -10T175 16T67 93T26 216Q26 240 30 260Q43 339 67 436Q101 571 191 640T439 710Q521 710 589 683T698 603T739 480Q739 456 735 436Q721 354 698 260Q663 123 574 57T326 -10Q243 -10 175 16ZM419
185T439 266Q460 352 475 434Q477 443 477 457Q477 486 462 500T418 515Q385 515 361 495T327 434Q306 351 291 266Q289 257 289 242Q289 185 348 185Q419 185 439 266Z" />
<glyph unicode="P" glyph-name="P" horiz-adv-x="705" d="M8 0T2 8T-3 27L135 673Q137 684 146 692T167 700H450Q570 700 647 650T725 506Q725 482 719 455Q693 331 613 275T388 218H298L257 27Q255 16 246 8T225 0H19Q8 0 2 8ZM402 403Q420 403 437 416T460 457Q462
469 462 475Q462 514 426 514H356L332 403H402Z" />
<glyph unicode="Q" glyph-name="Q" horiz-adv-x="742" d="M419 -65T412 -59T398 -42L378 -7Q350 -10 319 -10Q185 -10 111 44T37 205Q37 228 42 260Q58 347 80 436Q113 566 218 638T472 710Q604 710 678 653T753 491Q753 468 748 436Q732 345 710 260Q680 147
600 79L655 -34Q657 -39 656 -43Q656 -52 648 -58T631 -65H435Q419 -65 412 -59ZM432 185T452 266Q474 358 487 434Q489 443 489 458Q489 487 474 501T431 515Q397 515 373 495T339 434Q318 343 304 266Q302 257 302 242Q302 185 361 185Q432 185 452 266Z" />
<glyph unicode="R" glyph-name="R" horiz-adv-x="722" d="M22 0T16 8T12 27L149 673Q151 684 161 692T182 700H478Q603 700 670 651T738 512Q738 486 732 457Q718 392 679 343T583 261L657 33Q659 26 658 22Q656 13 648 7T631 0H426Q408 0 400 8T389 27L344 218H303L262
27Q260 16 250 8T229 0H33Q22 0 16 8ZM416 408Q442 408 458 428T474 474Q474 492 466 503T438 514H365L343 408H416Z" />
<glyph unicode="S" glyph-name="S" horiz-adv-x="698" d="M203 -10T134 15T30 82T-5 175Q-5 190 -2 203Q-1 212 7 218T24 225H214Q228 225 235 222T254 208Q279 185 323 185Q360 185 382 193T405 218Q405 233 379 242T285 260Q183 274 127 321T70 444Q70 467 76
494Q97 596 184 653T407 710Q488 710 555 681T660 606T698 518Q698 508 697 503Q696 494 688 488T672 481H472Q458 481 451 484T435 497Q417 515 386 515Q339 515 332 487Q329 472 350 462T434 444Q557 429 613 385T669 266Q669 241 663 212Q640 102 549 46T301
-10Q203 -10 134 15Z" />
<glyph unicode="T" glyph-name="T" horiz-adv-x="673" d="M163 0T157 8T152 27L250 485H84Q73 485 67 493T62 512L97 673Q99 684 108 692T129 700H715Q726 700 732 692T737 673L702 512Q700 501 691 493T670 485H504L406 27Q404 16 395 8T374 0H174Q163 0 157 8Z" />
<glyph unicode="U" glyph-name="U" horiz-adv-x="745" d="M247 -10T181 13T74 85T34 205Q34 235 41 264L128 673Q130 684 139 692T160 700H356Q367 700 373 692T378 673L291 268Q288 255 288 244Q288 191 349 191Q386 191 408 210T439 268L526 673Q528 684 537
692T558 700H754Q765 700 771 692T776 673L689 264Q658 122 571 56T327 -10Q247 -10 181 13Z" />
<glyph unicode="V" glyph-name="V" horiz-adv-x="726" d="M166 0T157 10T147 33L94 671Q93 684 101 692T121 700H300Q319 700 328 690T338 667L354 295L528 667Q534 680 547 690T580 700H776Q785 700 789 695T794 683Q794 677 791 671L468 33Q461 20 448 10T416
0H185Q166 0 157 10Z" />
<glyph unicode="W" glyph-name="W" horiz-adv-x="855" d="M85 0T75 11T66 38L99 675Q100 685 108 692T127 700H308Q325 700 332 694T338 673L312 391L379 516Q395 545 419 545H521Q546 545 549 516L564 392L658 673Q662 688 672 694T700 700H891Q901 700 905 692T907
675L690 38Q685 23 670 12T636 0H493Q464 0 457 27L404 232L293 27Q288 18 277 9T247 0H104Q85 0 75 11Z" />
<glyph unicode="X" glyph-name="X" horiz-adv-x="738" d="M-47 0T-52 5T-57 18Q-57 27 -51 33L246 361L94 667Q92 673 92 676Q92 686 99 693T120 700H317Q343 700 354 675L419 543L530 675Q551 700 577 700H794Q803 700 807 695T812 682Q812 673 806 667L525 331L673
33Q675 27 675 23Q675 13 668 7T647 0H451Q434 0 426 7T414 23L353 144L244 23Q226 0 199 0H-39Q-47 0 -52 5Z" />
<glyph unicode="Y" glyph-name="Y" horiz-adv-x="709" d="M183 0T177 8T172 27L214 224L84 669Q80 681 88 690T110 700H288Q305 700 313 692T325 675L382 474L525 675Q530 683 542 691T572 700H770Q779 700 783 695T788 682Q788 674 784 669L464 224L422 27Q420
16 411 8T390 0H194Q183 0 177 8Z" />
<glyph unicode="Z" glyph-name="Z" horiz-adv-x="692" d="M-12 0T-18 8T-23 27L8 171Q12 191 30 206L362 497H114Q103 497 97 505T93 524L125 673Q127 684 136 692T157 700H705Q716 700 722 692T727 673L696 531Q692 514 676 498L359 205H613Q624 205 630 197T634
178L602 27Q600 16 591 8T570 0H-1Q-12 0 -18 8Z" />
<glyph unicode="[" glyph-name="bracketleft" horiz-adv-x="431" d="M-30 -159T-36 -151T-41 -132L147 749Q149 760 158 768T179 776H482Q493 776 499 768T504 749L476 620Q474 609 465 601T444 593H325L207 42H326Q337 42 343 34T348 15L316 -132Q314 -143 305
-151T284 -159H-19Q-30 -159 -36 -151Z" />
<glyph unicode="\" glyph-name="backslash" horiz-adv-x="563" d="M306 -84T297 -75T286 -54L120 755Q118 767 125 776T147 786H266Q297 786 303 756L466 -53Q468 -65 461 -74T440 -84H324Q306 -84 297 -75Z" />
<glyph unicode="]" glyph-name="bracketright" horiz-adv-x="431" d="M466 776T472 768T477 749L289 -132Q287 -143 278 -151T257 -159H-46Q-57 -159 -63 -151T-68 -132L-36 15Q-34 26 -25 34T-4 42H115L233 593H114Q103 593 97 601T92 620L120 749Q122 760 131
768T152 776H455Q466 776 472 768Z" />
<glyph unicode="^" glyph-name="asciicircum" horiz-adv-x="492" d="M113 595T113 607Q113 618 121 624L259 746Q271 757 280 761T300 765H420Q431 765 438 761T453 746L539 624Q541 620 541 615Q541 606 536 601T522 595H456Q430 595 417 602L334 644L233 602Q218
595 192 595H126Q113 595 113 607Z" />
<glyph unicode="_" glyph-name="underscore" horiz-adv-x="724" d="M-33 -98T-39 -90T-44 -71L-13 71Q-11 82 -2 90T19 98H624Q635 98 641 90T646 71L615 -71Q613 -82 604 -90T583 -98H-22Q-33 -98 -39 -90Z" />
<glyph unicode="`" glyph-name="grave" horiz-adv-x="360" d="M179 595T172 599T155 612L33 733Q31 737 31 741Q31 751 37 758T54 765H250Q262 765 268 762T283 746L357 624Q359 620 359 615Q359 606 354 601T340 595H193Q179 595 172 599Z" />
<glyph unicode="a" glyph-name="a" horiz-adv-x="660" d="M107 -10T59 31T10 161Q10 194 15 221Q24 264 32 300Q61 415 128 472T293 530Q346 530 377 517T431 480L434 493Q436 504 445 512T466 520H635Q646 520 652 512T657 493L558 27Q556 16 547 8T526 0H356Q345
0 339 8T334 27L339 50Q306 20 271 5T188 -10Q107 -10 59 31ZM325 169T339 183T362 227Q372 266 377 301Q378 306 378 315Q378 351 338 351Q312 351 299 337T276 293Q265 256 262 227Q261 220 261 208Q261 188 269 179T299 169Q325 169 339 183Z" />
<glyph unicode="b" glyph-name="b" horiz-adv-x="660" d="M311 -10T273 6T217 50L212 27Q210 16 201 8T180 0H10Q-1 0 -7 8T-12 27L128 683Q130 694 139 702T160 710H345Q356 710 362 702T367 683L324 483Q355 506 386 518T457 530Q537 530 586 486T635 357Q635
325 630 300Q623 259 613 221Q555 -10 362 -10Q311 -10 273 6ZM333 169T346 183T370 227Q381 264 384 293L385 310Q385 331 377 341T346 351Q299 351 285 301Q275 263 270 227Q268 211 268 206Q268 169 307 169Q333 169 346 183Z" />
<glyph unicode="c" glyph-name="c" horiz-adv-x="621" d="M186 -10T131 12T42 79T9 184Q9 201 12 219Q23 278 29 300Q58 410 141 470T348 530Q436 530 495 498T583 423T611 345L610 336Q609 325 599 317T577 309H382Q371 309 366 314T357 329Q353 345 347 352T327
359Q305 359 293 344T273 295Q262 250 258 224Q255 206 255 193Q255 176 262 169T285 161Q301 161 309 167T328 191Q341 211 361 211H556Q567 211 574 203T578 184Q568 152 533 107T428 26T253 -10Q186 -10 131 12Z" />
<glyph unicode="d" glyph-name="d" horiz-adv-x="661" d="M107 -10T59 31T10 161Q10 194 15 221Q24 264 32 300Q61 414 127 472T283 530Q325 530 361 518T417 483L459 683Q461 694 470 702T491 710H676Q687 710 693 702T698 683L558 27Q556 16 547 8T526 0H356Q345
0 339 8T334 27L339 50Q306 20 271 5T188 -10Q107 -10 59 31ZM325 169T339 183T362 227Q372 266 377 301Q378 306 378 315Q378 351 338 351Q312 351 299 337T276 293Q265 256 262 227Q261 220 261 208Q261 188 269 179T299 169Q325 169 339 183Z" />
<glyph unicode="e" glyph-name="e" horiz-adv-x="621" d="M149 -10T87 37T25 181Q25 217 34 259L36 266Q65 393 155 461T377 530Q495 530 553 474T612 327Q612 296 604 258L598 228Q595 217 586 209T565 201H267L266 196Q262 181 262 167Q262 135 292 135Q299
135 306 139T317 147T325 153Q335 162 342 164T361 167H550Q560 167 565 161T567 145Q559 116 520 80T415 17T263 -10Q149 -10 87 37ZM374 326V327Q377 344 377 355Q377 390 347 390Q307 390 294 327V326H374Z" />
<glyph unicode="f" glyph-name="f" horiz-adv-x="491" d="M65 0T59 8T54 27L122 345H53Q42 345 36 353T32 372L57 493Q59 504 69 512T90 520H159L163 537Q188 653 257 696T446 740H559Q570 740 576 732T580 713L554 592Q552 581 543 573T522 565H441Q397 565 391
532L388 520H502Q513 520 519 512T523 493L498 372Q495 361 486 353T465 345H351L283 27Q281 16 272 8T251 0H76Q65 0 59 8Z" />
<glyph unicode="g" glyph-name="g" horiz-adv-x="665" d="M140 -220T78 -187T-9 -111T-31 -41Q-30 -30 -20 -22T2 -14H197Q208 -14 213 -19T220 -34Q225 -48 232 -53T257 -59Q300 -59 313 0L327 66Q297 44 266 34T194 23Q108 23 62 62T15 187Q15 212 20 249Q27
284 31 300Q62 417 124 473T282 530Q330 530 368 512T425 462L432 493Q434 504 444 512T465 520H640Q651 520 657 512T661 493L561 17Q510 -220 238 -220Q140 -220 78 -187ZM329 197T343 209T365 247Q368 258 371 274T376 301Q377 306 377 314Q377 333 368 342T337
351Q311 351 297 337T275 293Q269 272 267 255Q265 241 265 235Q265 216 274 207T304 197Q329 197 343 209Z" />
<glyph unicode="h" glyph-name="h" horiz-adv-x="685" d="M-1 0T-7 8T-12 27L128 683Q130 694 139 702T160 710H355Q366 710 372 702T377 683L331 468Q401 530 486 530Q561 530 607 490T654 369Q654 337 647 303L588 27Q586 16 577 8T556 0H360Q349 0 343 8T338
27L395 296Q397 310 397 314Q397 351 357 351Q333 351 317 337T294 296L237 27Q235 16 226 8T205 0H10Q-1 0 -7 8Z" />
<glyph unicode="i" glyph-name="i" horiz-adv-x="323" d="M126 575T120 583T115 602L141 723Q143 734 153 742T174 750H343Q354 750 360 742T364 723L338 602Q336 591 327 583T306 575H137Q126 575 120 583ZM-1 0T-7 8T-12 27L87 493Q89 504 99 512T120 520H299Q310
520 316 512T320 493L221 27Q219 16 210 8T189 0H10Q-1 0 -7 8Z" />
<glyph unicode="j" glyph-name="j" horiz-adv-x="345" d="M138 575T132 583T127 602L153 723Q155 734 165 742T186 750H364Q375 750 381 742T385 723L359 602Q357 591 348 583T327 575H149Q138 575 132 583ZM-157 -190T-163 -182T-167 -163L-141 -42Q-139 -31
-130 -23T-109 -15H-52Q-9 -15 2 35L99 493Q101 504 111 512T132 520H320Q331 520 337 512T341 493L243 29Q219 -81 145 -135T-49 -190H-146Q-157 -190 -163 -182Z" />
<glyph unicode="k" glyph-name="k" horiz-adv-x="650" d="M-1 0T-7 8T-12 27L128 683Q130 694 139 702T160 710H335Q346 710 352 702T357 683L288 359L406 503Q420 520 439 520H651Q661 520 666 515T672 503Q672 493 662 481L484 268L582 37Q585 31 585 25Q585
15 577 8T555 0H355Q334 0 327 17L253 203L217 27Q215 16 206 8T185 0H10Q-1 0 -7 8Z" />
<glyph unicode="l" glyph-name="l" horiz-adv-x="324" d="M-1 0T-7 8T-12 27L128 683Q130 694 139 702T160 710H339Q350 710 356 702T361 683L221 27Q219 16 210 8T189 0H10Q-1 0 -7 8Z" />
<glyph unicode="m" glyph-name="m" horiz-adv-x="938" d="M-1 0T-7 8T-12 27L87 493Q89 504 99 512T120 520H285Q296 520 302 512T306 493L299 460Q331 492 365 511T453 530Q562 530 594 448Q629 487 667 508T754 530Q826 530 867 493T909 380Q909 343 901 307L841
27Q839 16 830 8T809 0H633Q622 0 616 8T611 27L670 302Q672 314 672 318Q672 351 640 351Q621 351 608 339T591 302L532 27Q530 16 521 8T500 0H324Q313 0 307 8T302 27L361 302Q363 314 363 318Q363 351 331 351Q312 351 299 338T281 302L222 27Q220 16 211 8T190
0H10Q-1 0 -7 8Z" />
<glyph unicode="n" glyph-name="n" horiz-adv-x="674" d="M-1 0T-7 8T-12 27L87 493Q89 504 99 512T120 520H295Q306 520 312 512T316 493L309 460Q343 492 386 511T480 530Q554 530 599 490T644 371Q644 343 636 303L577 27Q575 16 566 8T545 0H354Q343 0 337
8T332 27L389 296Q391 310 391 314Q391 351 351 351Q327 351 311 337T289 296L232 27Q230 16 221 8T200 0H10Q-1 0 -7 8Z" />
<glyph unicode="o" glyph-name="o" horiz-adv-x="641" d="M144 -10T77 37T10 175Q10 194 13 213Q20 262 33 307Q64 419 144 474T360 530Q476 530 546 482T616 342Q616 325 613 307Q605 256 593 213Q561 100 484 45T265 -10Q144 -10 77 37ZM316 150T327 164T349
218Q363 272 367 302Q371 328 371 336Q371 353 363 361T336 370Q310 370 299 355T277 302Q272 283 267 260T259 218Q255 188 255 181Q255 165 262 158T289 150Q316 150 327 164Z" />
<glyph unicode="p" glyph-name="p" horiz-adv-x="661" d="M-42 -190T-48 -182T-52 -163L87 493Q89 504 99 512T120 520H290Q301 520 307 512T311 493L305 463Q336 495 372 512T457 530Q538 530 587 489T636 360Q636 332 630 299Q623 258 613 220Q585 106 519 48T362
-10Q317 -10 282 4T232 50L187 -163Q185 -174 175 -182T154 -190H-31Q-42 -190 -48 -182ZM333 169T346 183T370 227Q381 264 384 293L385 310Q385 331 377 341T346 351Q320 351 306 337T284 293Q273 256 268 219Q267 214 267 205Q267 169 307 169Q333 169 346 183Z"
/>
<glyph unicode="q" glyph-name="q" horiz-adv-x="661" d="M290 -190T284 -182T280 -163L325 50Q296 18 264 4T189 -10Q110 -10 61 34T11 164Q11 187 16 220Q25 263 33 299Q92 530 284 530Q334 530 372 512T428 463L434 493Q436 504 446 512T467 520H637Q648 520
654 512T658 493L519 -163Q517 -174 507 -182T486 -190H301Q290 -190 284 -182ZM347 169T361 219Q371 256 377 293Q379 307 379 312Q379 332 370 341T339 351Q313 351 300 337T277 293Q266 256 263 227Q262 220 262 208Q262 188 270 179T300 169Q347 169 361 219Z"
/>
<glyph unicode="r" glyph-name="r" horiz-adv-x="519" d="M-1 0T-7 8T-12 27L87 493Q89 504 99 512T120 520H295Q306 520 312 512T316 493L309 458Q337 488 371 504T458 520H526Q537 520 543 512T547 493L514 337Q512 326 502 318T481 310H352Q292 310 280 250L232
27Q230 16 221 8T200 0H10Q-1 0 -7 8Z" />
<glyph unicode="s" glyph-name="s" horiz-adv-x="590" d="M154 -10T101 11T24 62T0 123Q0 130 1 133Q3 144 12 152T31 160H205H209Q219 159 227 153T238 146Q248 138 256 134T275 130Q284 130 292 134T301 145Q303 155 299 162T273 176T207 192Q140 205 98 237T56
325Q56 343 60 359Q69 403 107 442T207 506T349 530Q422 530 474 510T554 458T581 397Q581 390 580 387Q579 376 571 368T553 360H395H385Q376 360 369 364T352 375Q342 383 335 386T318 390Q310 390 303 386T295 374Q293 364 298 358T325 344T395 330Q480 317
519 279T558 190Q558 176 555 162Q538 81 455 36T238 -10Q154 -10 101 11Z" />
<glyph unicode="t" glyph-name="t" horiz-adv-x="529" d="M209 0T150 36T90 156Q90 184 97 215L125 345H46Q35 345 29 353T25 372L50 493Q52 504 62 512T83 520H162L197 683Q199 694 208 702T229 710H404Q415 710 421 702T426 683L391 520H517Q528 520 534 512T538
493L513 372Q510 361 501 353T480 345H354L330 235Q328 223 328 218Q328 185 363 185H454Q465 185 471 177T475 158L447 27Q445 16 436 8T415 0H312Q209 0 150 36Z" />
<glyph unicode="u" glyph-name="u" horiz-adv-x="673" d="M109 -10T63 31T16 152Q16 183 23 217L81 493Q83 504 93 512T114 520H305Q316 520 322 512T326 493L269 224Q267 210 267 206Q267 169 307 169Q331 169 347 183T369 224L426 493Q428 504 438 512T459 520H649Q660
520 666 512T670 493L571 27Q569 16 560 8T539 0H364Q353 0 347 8T342 27L349 60Q316 23 277 7T178 -10Q109 -10 63 31Z" />
<glyph unicode="v" glyph-name="v" horiz-adv-x="632" d="M161 0T155 6T146 25L52 489Q50 502 57 511T82 520H241Q265 520 269 496L299 263L429 496Q442 520 467 520H646Q656 520 661 515T666 503Q666 494 662 489L372 25Q363 12 355 6T334 0H174Q161 0 155 6Z" />
<glyph unicode="w" glyph-name="w" horiz-adv-x="872" d="M118 0T112 7T104 25L56 488Q55 500 64 510T86 520H235Q249 520 256 513T264 496L281 288L390 496Q394 505 404 512T429 520H522Q536 520 543 513T551 496L572 288L677 496Q681 505 691 512T716 520H880Q889
520 894 515T899 501Q899 494 896 488L652 25Q637 0 614 0H480Q466 0 460 7T452 25L414 227L299 25Q284 0 261 0H132Q118 0 112 7Z" />
<glyph unicode="x" glyph-name="x" horiz-adv-x="631" d="M-46 0T-51 5T-56 19Q-56 30 -50 37L165 275L69 483Q65 496 74 508T97 520H274Q287 520 292 515T302 501L340 419L414 501Q430 520 450 520H642Q651 520 656 515T661 501Q661 490 654 483L457 262L560
37Q563 31 563 26Q563 15 555 8T533 0H351Q339 0 334 4T324 17L280 113L193 17Q179 0 160 0H-37Q-46 0 -51 5Z" />
<glyph unicode="y" glyph-name="y" horiz-adv-x="646" d="M37 -190T32 -185T27 -172Q27 -164 31 -159L152 33L55 489Q53 501 61 510T86 520H245Q268 520 272 496L311 268L449 496Q463 520 488 520H665Q683 520 683 502Q683 495 680 489L259 -166Q245 -190 219
-190H45Q37 -190 32 -185Z" />
<glyph unicode="z" glyph-name="z" horiz-adv-x="591" d="M-10 0T-16 8T-21 27L4 142Q8 163 27 177L252 348H81Q70 348 64 356T60 375L85 493Q87 504 97 512T118 520H560Q571 520 577 512T581 493L555 367Q551 350 534 338L319 172H507Q518 172 524 164T528 145L503
27Q501 16 492 8T471 0H1Q-10 0 -16 8Z" />
<glyph unicode="{" glyph-name="braceleft" horiz-adv-x="474" d="M269 -157T207 -133T105 -58T66 66Q66 99 73 131Q77 155 77 166Q77 217 41 234L25 241Q4 252 4 272Q4 279 5 283L16 335Q20 351 28 360T54 377L73 384Q103 395 122 423T149 487Q169 582 230 646T373
742T538 776H545Q554 776 559 770T562 754L533 617Q532 608 525 602T510 595H507Q446 587 407 560T356 476Q343 413 312 366T248 309Q267 302 279 272T291 200Q291 172 285 142Q282 126 282 113Q282 72 308 52T383 24L388 23Q395 22 399 16T402 1L373 -136Q372
-145 364 -151T347 -158H342Q269 -157 207 -133Z" />
<glyph unicode="|" glyph-name="bar" horiz-adv-x="291" d="M-40 -208T-46 -200T-50 -181L173 869Q175 880 185 888T206 896H340Q351 896 357 888T361 869L138 -181Q136 -192 126 -200T105 -208H-29Q-40 -208 -46 -200Z" />
<glyph unicode="}" glyph-name="braceright" horiz-adv-x="474" d="M239 775T301 750T403 675T442 551Q442 519 435 487Q431 463 431 452Q431 401 467 384L482 377Q504 366 504 347Q504 343 502 335L491 283Q488 268 479 258T453 241L435 234Q405 223 386 195T359
131Q339 36 278 -28T135 -124T-30 -158H-37Q-46 -158 -51 -152T-55 -136L-26 1Q-24 10 -17 16T-2 23H1Q62 31 100 58T151 142Q165 205 196 252T260 309Q240 317 228 347T216 420Q216 448 222 476Q226 498 226 507Q226 580 124 594L120 595Q113 596 109 602T105
617L134 754Q136 763 144 769T161 776H166Q239 775 301 750Z" />
<glyph unicode="~" glyph-name="asciitilde" horiz-adv-x="549" d="M55 191T51 195T47 207Q47 216 50 228L73 336Q80 370 115 393T200 416Q233 416 257 411T315 395Q344 385 367 380T422 374Q443 374 462 382T494 400Q506 408 516 409Q526 409 529 406T533 393Q533
384 530 372L507 264Q500 230 465 207T380 184Q347 184 323 189T265 205Q236 215 213 220T158 226Q137 226 118 218T86 200Q74 192 64 191Q55 191 51 195Z" />
<glyph unicode="&#xa0;" glyph-name="uni00A0" horiz-adv-x="188" />
<glyph unicode="&#xa1;" glyph-name="exclamdown" horiz-adv-x="324" d="M485 517T491 509T496 490L459 316Q457 305 447 297T426 289H252Q241 289 235 297T231 316L268 490Q270 501 279 509T300 517H474Q485 517 491 509ZM429 249T435 241T439 222L358 -156Q356
-167 347 -175T326 -183H152Q141 -183 135 -175T130 -156L211 222Q213 233 223 241T244 249H418Q429 249 435 241Z" />
<glyph unicode="&#xa2;" glyph-name="cent" horiz-adv-x="633" d="M142 -100T136 -92T132 -73L147 8Q85 29 49 74T13 183Q13 200 16 219Q27 278 33 300Q56 388 114 444T258 520L271 583Q274 594 283 602T304 610H453Q464 610 470 602T474 583L460 514Q515 496
550 463T601 395T614 336Q613 325 603 317T581 309H386Q375 309 370 314T361 329Q357 345 351 352T331 359Q309 359 297 344T277 295Q266 250 262 224Q259 206 259 193Q259 176 266 169T289 161Q305 161 313 167T332 191Q345 211 365 211H560Q571 211 578 203T582
184Q574 158 548 121T472 49T348 -1L335 -73Q333 -84 323 -92T302 -100H153Q142 -100 136 -92Z" />
<glyph unicode="&#xa3;" glyph-name="sterling" horiz-adv-x="758" d="M434 -10T404 -4T331 16Q300 26 280 30T239 35Q200 35 178 9Q171 0 161 0H7Q-1 0 -5 5T-8 18Q7 78 45 127T138 202Q142 219 144 250H69Q58 250 52 258T48 277L72 389Q74 400 84 408T105 416H140L145
446Q202 711 505 711Q629 711 702 661T776 515Q776 495 771 465Q769 456 761 450T744 443H540Q524 443 517 449T506 472Q501 496 492 506T464 516Q439 516 426 499T405 445Q401 425 400 416H513Q524 416 530 408T534 389L510 277Q508 266 498 258T477 250H369Q365
226 357 199Q401 189 421 186T470 182Q517 182 554 219Q563 228 574 228H705Q714 228 718 223T720 209Q704 142 664 93T572 17T471 -10Q434 -10 404 -4Z" />
<glyph unicode="&#xa4;" glyph-name="currency" d="M19 104Q15 112 15 117Q15 133 27 142L84 189Q76 218 76 246Q76 273 82 300Q94 359 132 411L95 458Q91 463 91 471Q91 486 103 496L194 571Q205 579 215 579Q226 579 232 571L269 524Q328 550 385 550Q441 550
491 524L548 571Q558 579 568 579Q580 579 586 571L645 496Q649 488 649 483Q649 467 637 458L580 411Q587 378 587 351Q587 323 582 300Q569 242 532 189L569 142Q573 137 573 129Q573 115 561 104L470 29Q462 22 449 22Q438 22 432 29L395 76Q338 50 279 50Q219
50 173 76L116 29Q108 22 96 22Q85 22 78 29L19 104ZM341 210T366 225T408 265T424 319Q424 350 404 370T351 390Q323 390 298 375T256 335T240 281Q240 250 260 230T313 210Q341 210 366 225Z" />
<glyph unicode="&#xa5;" glyph-name="yen" horiz-adv-x="750" d="M788 700T793 694T797 678L793 669L532 303H608Q619 303 625 295T629 276L605 160Q602 149 593 141T572 133H454L431 27Q429 16 420 8T399 0H203Q192 0 186 8T181 27L204 133H87Q76 133 70 141T66
160L90 276Q92 287 102 295T123 303H198L93 669Q91 673 93 678Q94 687 102 693T119 700H298Q315 700 323 692T335 675L392 474L535 675Q540 683 552 691T582 700H779Q788 700 793 694Z" />
<glyph unicode="&#xa6;" glyph-name="brokenbar" horiz-adv-x="294" d="M107 475T101 483T97 502L161 802Q163 813 173 821T194 829H328Q339 829 345 821T349 802L285 502Q283 491 273 483T252 475H118Q107 475 101 483ZM7 0T1 8T-4 27L60 327Q62 338 72 346T93
354H227Q238 354 244 346T248 327L184 27Q182 16 173 8T152 0H18Q7 0 1 8Z" />
<glyph unicode="&#xa7;" glyph-name="section" horiz-adv-x="636" d="M156 -140T105 -118T28 -62T2 5Q2 13 3 17Q4 28 12 34T30 40H196Q205 40 209 37T221 27Q233 11 258 11Q271 11 279 21T288 47Q288 61 268 73T191 96Q108 118 71 153T34 244Q34 268 40 295Q58
380 137 433Q133 446 133 466Q133 486 137 505Q149 563 188 609T289 683T431 710Q503 710 554 688T632 633T658 566Q658 559 657 555Q656 544 648 538T630 532H464Q456 532 452 534T443 540T437 546Q424 559 402 559Q389 559 380 549T371 523Q371 509 391 497T469
474Q553 452 589 417T626 325Q626 302 620 275Q611 233 586 198T522 137Q527 119 527 101Q527 82 523 65Q511 7 472 -39T370 -113T228 -140Q156 -140 105 -118ZM392 239T401 248T410 271Q410 283 401 290T371 302Q329 315 283 327Q270 330 262 324T251 308Q248
294 256 285T291 267Q317 257 377 242Q392 239 401 248Z" />
<glyph unicode="&#xa8;" glyph-name="dieresis" horiz-adv-x="467" d="M39 595T34 601T31 618L57 742Q59 752 67 758T85 765H209Q219 765 224 759T227 742L201 618Q199 608 191 602T173 595H49Q39 595 34 601ZM278 595T273 601T270 618L296 742Q298 752 306 758T324
765H448Q458 765 463 759T466 742L440 618Q438 608 430 602T412 595H288Q278 595 273 601Z" />
<glyph unicode="&#xa9;" glyph-name="copyright" horiz-adv-x="795" d="M260 -10T191 30T82 139T42 292Q42 328 49 360Q70 459 131 539T282 664T475 710Q557 710 626 670T735 560T776 408Q776 372 769 340Q748 241 687 161T535 36T342 -10Q260 -10 191 30ZM425
85T492 120T606 217T669 350Q675 380 675 407Q675 466 649 513T575 588T465 615Q393 615 326 580T212 483T149 350Q143 320 143 293Q143 234 169 187T243 112T353 85Q425 85 492 120ZM309 158T266 193T222 287Q222 296 224 312Q226 327 231 351T240 390Q260 464
307 504T438 544Q489 544 526 527T584 482T604 427Q604 419 603 415Q602 405 594 399T576 393H480Q470 393 466 398T458 414Q454 429 448 434T426 439Q405 439 395 425T377 385Q373 372 369 351T363 317Q361 301 361 293Q361 279 367 271T388 263Q403 263 412 268T432
288Q445 309 462 309H558Q568 309 573 303T576 287Q561 234 514 196T376 158Q309 158 266 193Z" />
<glyph unicode="&#xaa;" glyph-name="ordfeminine" horiz-adv-x="349" d="M110 429T87 447T64 494Q64 500 66 510Q81 579 198 598L254 607L256 622Q256 628 253 630T243 633Q234 633 224 625Q214 617 205 617H118Q113 617 111 620T110 629Q119 658 149 681T250
705Q308 705 342 683T377 618Q377 608 374 594L343 448Q341 442 337 438T326 434H237Q231 434 228 438T225 448L228 462Q214 446 193 438T149 429Q110 429 87 447ZM232 505T240 544L211 537Q185 530 183 518V515Q183 505 200 505Q232 505 240 544Z" />
<glyph unicode="&#xab;" glyph-name="guillemotleft" horiz-adv-x="632" d="M220 52T215 57L43 268Q32 280 35 296L49 362Q53 377 69 390L331 601Q338 606 346 606Q355 606 360 600T363 584L333 443Q329 426 324 417T306 398L222 329L276 260Q287 248 287 233Q287
222 285 215L255 74Q253 65 245 59T228 52Q220 52 215 57ZM510 52T505 57L333 268Q322 280 325 296L339 362Q343 377 359 390L621 601Q628 606 636 606Q645 606 650 600T653 584L623 443Q619 426 614 417T596 398L512 329L566 260Q577 248 577 233Q577 222 575
215L545 74Q543 65 535 59T518 52Q510 52 505 57Z" />
<glyph unicode="&#xac;" glyph-name="logicalnot" horiz-adv-x="563" d="M305 53T299 61T295 80L316 180H44Q33 180 27 188T22 207L47 323Q49 334 59 342T80 350H495Q506 350 512 342T516 323L465 80Q462 69 453 61T432 53H316Q305 53 299 61Z" />
<glyph unicode="&#xad;" glyph-name="uni00AD" horiz-adv-x="188" />
<glyph unicode="&#xae;" glyph-name="registered" horiz-adv-x="795" d="M260 -10T191 30T82 139T42 292Q42 328 49 360Q70 459 131 539T282 664T475 710Q557 710 626 670T735 560T776 408Q776 372 769 340Q748 241 687 161T535 36T342 -10Q260 -10 191 30ZM425
85T492 120T606 217T669 350Q675 380 675 407Q675 466 649 513T575 588T465 615Q393 615 326 580T212 483T149 350Q143 320 143 293Q143 234 169 187T243 112T353 85Q425 85 492 120ZM229 168T225 174T222 190L290 512Q292 522 299 528T317 534H453Q512 534 555
510T599 435Q599 423 596 409Q588 372 567 346T519 307L542 204Q543 201 543 195Q543 185 536 177T516 168H431Q409 168 406 187L393 282H372L353 190Q351 180 344 174T326 168H239Q229 168 225 174ZM430 381Q442 381 450 389T461 409Q462 412 462 417Q462 426
457 431T442 437H405L393 381H430Z" />
<glyph unicode="&#xaf;" glyph-name="overscore" horiz-adv-x="427" d="M39 595T34 601T31 618L53 722Q55 732 63 738T81 745H408Q418 745 423 739T426 722L404 618Q402 608 394 602T376 595H49Q39 595 34 601Z" />
<glyph unicode="&#xb0;" glyph-name="degree" horiz-adv-x="429" d="M150 328T106 370T61 479Q61 500 65 519Q76 572 111 616T197 685T301 710Q371 710 416 668T461 559Q461 538 457 519Q446 466 410 422T324 353T220 328Q150 328 106 370ZM279 443T304 464T337
519Q339 531 339 537Q339 564 323 579T277 595Q238 595 211 568T183 500Q183 474 200 459T245 443Q279 443 304 464Z" />
<glyph unicode="&#xb1;" glyph-name="plusminus" horiz-adv-x="575" d="M194 186T188 194T184 213L214 354H79Q68 354 62 362T57 381L81 490Q83 501 92 509T113 517H248L277 653Q279 664 289 672T310 680H432Q443 680 449 672T453 653L424 517H557Q568 517 574
509T579 490L555 381Q553 370 544 362T523 354H390L360 213Q358 202 348 194T327 186H205Q194 186 188 194ZM3 0T-3 8T-8 27L15 136Q18 147 27 155T48 163H472Q483 163 489 155T493 136L470 27Q468 16 459 8T438 0H14Q3 0 -3 8Z" />
<glyph unicode="&#xb2;" glyph-name="uni00B2" horiz-adv-x="369" d="M61 350T57 356T54 372L63 416Q65 424 71 431T95 450Q114 462 128 471T153 487Q223 532 247 550T275 586Q276 589 276 595Q276 606 261 606Q250 606 244 601T233 588Q224 577 219 573T205 569H120Q101
569 106 588Q120 640 170 672T283 705Q343 705 377 682T411 617Q411 568 377 533T267 453H370Q380 453 384 447T387 431L375 372Q373 362 366 356T348 350H71Q61 350 57 356Z" />
<glyph unicode="&#xb3;" glyph-name="uni00B3" horiz-adv-x="365" d="M146 345T115 361T73 399T64 442Q65 451 72 456T85 461H136H176Q184 461 188 457T198 449T217 445Q234 445 243 452T253 470Q253 478 247 480T225 483H176Q167 483 163 489T161 503L167 532Q168
539 171 543T181 553L230 592H136Q126 592 121 598T118 614L132 678Q134 688 141 694T158 700H397Q407 700 412 694T415 678L403 623Q401 615 398 611T385 601L322 563Q356 554 375 537T394 487Q394 447 369 415T299 364T202 345Q146 345 115 361Z" />
<glyph unicode="&#xb4;" glyph-name="acute" horiz-adv-x="408" d="M31 595T31 607Q31 618 39 624L165 746Q179 758 186 761T206 765H392Q401 765 405 760T407 745Q406 738 399 733L227 612Q215 603 205 599T181 595H44Q31 595 31 607Z" />
<glyph unicode="&#xb5;" glyph-name="uni00B5" horiz-adv-x="697" d="M678 520T684 512T688 493L589 27Q587 16 578 8T557 0H382Q371 0 365 8T360 27L367 60Q322 10 240 0L203 -172Q201 -183 191 -191T170 -199H-26Q-37 -199 -43 -191T-47 -172L94 493Q96 504
106 512T127 520H323Q334 520 340 512T344 493L287 224Q285 210 285 206Q285 169 325 169Q349 169 365 183T387 224L444 493Q446 504 456 512T477 520H667Q678 520 684 512Z" />
<glyph unicode="&#xb6;" glyph-name="paragraph" horiz-adv-x="712" d="M80 557T116 602T202 673T307 700H709Q720 700 726 692T731 673L572 -73Q570 -84 560 -92T539 -100H418Q407 -100 401 -92T397 -73L529 550H450L318 -73Q316 -84 306 -92T285 -100H164Q153
-100 147 -92T143 -73L224 306Q177 306 141 326T84 382T64 462Q64 484 68 503Q80 557 116 602Z" />
<glyph unicode="&#xb7;" glyph-name="middot" horiz-adv-x="328" d="M32 365T57 404T122 466T205 490Q255 490 286 459T318 379Q318 335 293 296T228 234T145 210Q95 210 64 241T32 321Q32 365 57 404Z" />
<glyph unicode="&#xb8;" glyph-name="cedilla" horiz-adv-x="254" d="M82 -220T56 -208T30 -182Q30 -175 38 -169L62 -151Q71 -145 77 -145Q80 -145 91 -149T118 -154Q131 -154 140 -147T151 -130Q153 -120 148 -113T128 -106Q122 -106 117 -107T108 -109Q98 -112
88 -112Q79 -112 74 -106L53 -78Q48 -71 48 -66Q48 -59 59 -42L105 27H181L129 -45Q137 -43 146 -42T160 -40Q191 -40 207 -59T224 -109Q224 -122 221 -135Q213 -176 186 -198T114 -220Q82 -220 56 -208Z" />
<glyph unicode="&#xb9;" glyph-name="uni00B9" horiz-adv-x="297" d="M163 350T159 356T156 372L194 554L143 520Q138 516 129 516Q119 516 113 525L85 575Q82 580 82 584Q82 596 95 606L226 693Q237 700 250 700H338Q348 700 353 694T356 678L291 372Q289 362
282 356T264 350H173Q163 350 159 356Z" />
<glyph unicode="&#xba;" glyph-name="ordmasculine" horiz-adv-x="348" d="M149 429T112 454T74 523Q74 534 75 540Q77 551 80 567T87 594Q102 650 138 677T249 705Q309 705 347 680T386 609Q386 599 385 594Q383 583 380 567T373 540Q357 483 323 456T211 429Q149
429 112 454ZM231 511T236 517T248 545Q256 573 258 589Q259 595 259 604Q259 615 256 619T242 623Q230 623 224 616T212 589Q204 561 202 545Q201 538 201 528Q201 518 204 515T218 511Q231 511 236 517Z" />
<glyph unicode="&#xbb;" glyph-name="guillemotright" horiz-adv-x="632" d="M29 52T24 58T21 74L51 215Q55 231 60 240T78 260L162 329L108 398Q97 412 97 426Q97 429 99 443L129 584Q131 593 139 599T156 606Q164 606 169 601L341 390Q353 378 349 362L335 296Q332
280 315 268L53 57Q46 52 38 52Q29 52 24 58ZM319 52T314 58T311 74L341 215Q345 231 350 240T368 260L452 329L398 398Q387 412 387 426Q387 429 389 443L419 584Q421 593 429 599T446 606Q454 606 459 601L631 390Q643 378 639 362L625 296Q622 280 605 268L343
57Q336 52 328 52Q319 52 314 58Z" />
<glyph unicode="&#xbc;" glyph-name="onequarter" horiz-adv-x="856" d="M182 350T178 356T175 372L213 554L162 520Q157 516 148 516Q138 516 132 525L104 575Q101 580 101 584Q101 596 114 606L245 693Q256 700 269 700H357Q367 700 372 694T375 678L310 372Q308
362 301 356T283 350H192Q182 350 178 356ZM593 0T589 6T586 22L591 46H440Q430 46 426 52T423 68L437 136Q443 153 455 166L619 332Q636 350 652 350H763Q773 350 778 344T781 328L744 157H779Q789 157 794 151T797 135L783 68Q781 58 774 52T756 46H721L716 22Q714
12 707 6T689 0H603Q593 0 589 6ZM564 152H616L632 224L564 152ZM53 0T48 4T42 16Q42 24 49 31L681 681Q691 691 699 695T721 700H799Q809 700 814 696T820 684Q820 676 813 669L181 19Q171 9 163 5T141 0H63Q53 0 48 4Z" />
<glyph unicode="&#xbd;" glyph-name="onehalf" horiz-adv-x="844" d="M182 350T178 356T175 372L213 554L162 520Q157 516 148 516Q138 516 132 525L104 575Q101 580 101 584Q101 596 114 606L245 693Q256 700 269 700H357Q367 700 372 694T375 678L310 372Q308
362 301 356T283 350H192Q182 350 178 356ZM454 0T450 6T447 22L456 66Q458 74 464 81T488 100Q507 112 521 121T546 137Q616 182 640 200T668 236Q669 239 669 245Q669 256 654 256Q643 256 637 251T626 238Q617 227 612 223T598 219H513Q494 219 499 238Q513
290 563 322T676 355Q736 355 770 332T804 267Q804 218 770 183T660 103H763Q773 103 777 97T780 81L768 22Q766 12 759 6T741 0H464Q454 0 450 6ZM53 0T48 4T42 16Q42 24 49 31L681 681Q691 691 699 695T721 700H799Q809 700 814 696T820 684Q820 676 813 669L181
19Q171 9 163 5T141 0H63Q53 0 48 4Z" />
<glyph unicode="&#xbe;" glyph-name="threequarters" horiz-adv-x="864" d="M155 345T124 361T82 399T73 442Q74 451 81 456T94 461H145H185Q193 461 197 457T207 449T226 445Q243 445 252 452T262 470Q262 478 256 480T234 483H185Q176 483 172 489T170 503L176
532Q177 539 180 543T190 553L239 592H145Q135 592 130 598T127 614L141 678Q143 688 150 694T167 700H406Q416 700 421 694T424 678L412 623Q410 615 407 611T394 601L331 563Q365 554 384 537T403 487Q403 447 378 415T308 364T211 345Q155 345 124 361ZM605
0T601 6T598 22L603 46H452Q442 46 438 52T435 68L449 136Q455 153 467 166L631 332Q648 350 664 350H775Q785 350 790 344T793 328L756 157H791Q801 157 806 151T809 135L795 68Q793 58 786 52T768 46H733L728 22Q726 12 719 6T701 0H615Q605 0 601 6ZM576 152H628L644
224L576 152ZM64 0T59 4T53 16Q53 24 60 31L692 681Q702 691 710 695T732 700H810Q820 700 825 696T831 684Q831 676 824 669L192 19Q182 9 174 5T152 0H74Q64 0 59 4Z" />
<glyph unicode="&#xbf;" glyph-name="questiondown" horiz-adv-x="649" d="M635 518T641 510T645 491L611 332Q609 321 600 313T579 305H396Q385 305 379 313T374 332L408 491Q410 502 420 510T441 518H624Q635 518 641 510ZM587 265T592 260T595 247Q595 244
592 239Q575 206 545 178T469 112Q432 83 415 67T394 35Q391 20 398 12T421 3Q447 3 460 12T487 40Q497 52 505 58T529 65H715Q734 65 734 43Q734 37 733 34Q720 -20 673 -72T547 -158T362 -192Q228 -192 173 -145T118 -35Q118 -19 121 -5Q132 49 166 89T260 178Q287
200 310 222Q324 236 324 236Q340 254 347 259T366 265H580Q587 265 592 260Z" />
<glyph unicode="&#xc0;" glyph-name="Agrave" horiz-adv-x="761" d="M-48 0T-53 5T-58 18Q-58 23 -55 29L303 667Q311 680 324 690T355 700H577Q595 700 604 691T615 667L703 29Q704 16 696 8T676 0H496Q464 0 462 25L452 91H237L199 25Q192 14 182 7T155 0H-40Q-48
0 -53 5ZM329 286H442L425 472L329 286ZM405 750T398 754T381 767L259 888Q257 892 257 896Q257 906 263 913T280 920H466Q478 920 484 917T499 901L573 779Q575 775 575 770Q575 761 570 756T556 750H419Q405 750 398 754Z" />
<glyph unicode="&#xc1;" glyph-name="Aacute" horiz-adv-x="761" d="M-48 0T-53 5T-58 18Q-58 23 -55 29L303 667Q311 680 324 690T355 700H577Q595 700 604 691T615 667L703 29Q704 16 696 8T676 0H496Q464 0 462 25L452 91H237L199 25Q192 14 182 7T155 0H-40Q-48
0 -53 5ZM329 286H442L425 472L329 286ZM368 750T368 762Q368 773 376 779L502 901Q516 913 523 916T543 920H739Q748 920 752 915T754 900Q753 893 746 888L574 767Q562 758 552 754T528 750H381Q368 750 368 762Z" />
<glyph unicode="&#xc2;" glyph-name="Acircumflex" horiz-adv-x="761" d="M-48 0T-53 5T-58 18Q-58 23 -55 29L303 667Q311 680 324 690T355 700H577Q595 700 604 691T615 667L703 29Q704 16 696 8T676 0H496Q464 0 462 25L452 91H237L199 25Q192 14 182 7T155
0H-40Q-48 0 -53 5ZM329 286H442L425 472L329 286ZM250 750T250 762Q250 773 258 779L396 901Q408 912 417 916T437 920H567Q578 920 585 916T600 901L686 779Q688 775 688 770Q688 761 683 756T669 750H606Q580 750 567 757L484 799L383 757Q368 750 342 750H263Q250
750 250 762Z" />
<glyph unicode="&#xc3;" glyph-name="Atilde" horiz-adv-x="761" d="M-48 0T-53 5T-58 18Q-58 23 -55 29L303 667Q311 680 324 690T355 700H577Q595 700 604 691T615 667L703 29Q704 16 696 8T676 0H496Q464 0 462 25L452 91H237L199 25Q192 14 182 7T155 0H-40Q-48
0 -53 5ZM329 286H442L425 472L329 286ZM529 745T513 750T478 766Q463 774 453 777T431 781Q420 781 413 777T397 764Q391 757 386 754T374 750H290Q282 750 278 755T275 768Q287 823 324 874T434 925Q456 925 472 920T507 904Q522 896 532 893T554 889Q565 889
572 893T587 906Q594 913 599 916T611 920H695Q704 920 708 915T710 901Q698 847 660 796T551 745Q529 745 513 750Z" />
<glyph unicode="&#xc4;" glyph-name="Adieresis" horiz-adv-x="761" d="M-48 0T-53 5T-58 18Q-58 23 -55 29L303 667Q311 680 324 690T355 700H577Q595 700 604 691T615 667L703 29Q704 16 696 8T676 0H496Q464 0 462 25L452 91H237L199 25Q192 14 182 7T155 0H-40Q-48
0 -53 5ZM329 286H442L425 472L329 286ZM268 750T263 756T260 773L286 897Q288 907 296 913T314 920H438Q448 920 453 914T456 897L430 773Q428 763 420 757T402 750H278Q268 750 263 756ZM537 750T532 756T529 773L555 897Q557 907 565 913T583 920H707Q717 920
722 914T725 897L699 773Q697 763 689 757T671 750H547Q537 750 532 756Z" />
<glyph unicode="&#xc5;" glyph-name="Aring" horiz-adv-x="761" d="M-48 0T-53 5T-58 18Q-58 23 -55 29L303 667Q311 680 324 690T355 700H577Q595 700 604 691T615 667L703 29Q704 16 696 8T676 0H496Q464 0 462 25L452 91H237L199 25Q192 14 182 7T155 0H-40Q-48
0 -53 5ZM329 286H442L425 472L329 286ZM436 740T413 760T390 815Q390 846 407 872T453 914T512 930Q548 930 571 910T594 855Q594 824 577 798T531 756T472 740Q436 740 413 760ZM500 805T511 816T523 842Q523 852 516 858T498 865Q484 865 473 854T461 828Q461
818 468 812T486 805Q500 805 511 816Z" />
<glyph unicode="&#xc6;" glyph-name="AE" horiz-adv-x="1016" d="M-43 0T-48 5T-54 18Q-54 21 -50 29L308 667Q314 680 327 690T360 700H1030Q1041 700 1047 692T1052 673L1022 532Q1019 521 1010 513T989 505H719L705 442H953Q964 442 970 434T975 415L947 285Q945
274 935 266T914 258H666L653 195H931Q942 195 948 187T952 168L922 27Q920 16 911 8T890 0H399Q388 0 382 8T377 27L391 91H242L204 25Q197 14 187 7T160 0H-35Q-43 0 -48 5ZM334 286H432L479 505H447L334 286Z" />
<glyph unicode="&#xc7;" glyph-name="Ccedilla" horiz-adv-x="733" d="M240 -220T218 -209T195 -183Q195 -175 204 -169L229 -151Q238 -145 243 -145Q246 -145 257 -149T284 -154Q297 -154 306 -147T318 -130Q320 -120 315 -113T295 -106Q289 -106 284 -107T275
-109Q264 -112 255 -112Q246 -112 241 -106L224 -85Q219 -78 219 -74Q219 -66 229 -52L259 -6Q154 5 97 56T39 201Q39 235 44 261Q59 353 82 439Q116 573 221 641T474 710Q599 710 680 659T762 505Q762 477 757 454Q755 445 747 439T730 432H526Q510 432 504 438T495
461Q491 491 476 503T432 515Q397 515 374 497T340 434Q319 343 305 266Q302 251 302 239Q302 210 317 198T362 185Q420 185 448 239Q457 256 465 262T491 268H695Q704 268 709 262T712 246Q692 159 633 102T493 17T321 -10L296 -45Q301 -43 311 -42T327 -40Q358
-40 375 -57T392 -105Q392 -154 357 -187T270 -220Q240 -220 218 -209Z" />
<glyph unicode="&#xc8;" glyph-name="Egrave" horiz-adv-x="666" d="M8 0T2 8T-3 27L135 673Q137 684 146 692T167 700H680Q691 700 697 692T702 673L672 532Q669 521 660 513T639 505H339L325 442H603Q614 442 620 434T625 415L597 285Q595 274 585 266T564 258H286L273
195H581Q592 195 598 187T602 168L572 27Q570 16 561 8T540 0H19Q8 0 2 8ZM365 750T358 754T341 767L219 888Q217 892 217 896Q217 906 223 913T240 920H426Q438 920 444 917T459 901L533 779Q535 775 535 770Q535 761 530 756T516 750H379Q365 750 358 754Z" />
<glyph unicode="&#xc9;" glyph-name="Eacute" horiz-adv-x="666" d="M8 0T2 8T-3 27L135 673Q137 684 146 692T167 700H680Q691 700 697 692T702 673L672 532Q669 521 660 513T639 505H339L325 442H603Q614 442 620 434T625 415L597 285Q595 274 585 266T564 258H286L273
195H581Q592 195 598 187T602 168L572 27Q570 16 561 8T540 0H19Q8 0 2 8ZM323 750T323 762Q323 773 331 779L457 901Q471 913 478 916T498 920H694Q703 920 707 915T709 900Q708 893 701 888L529 767Q517 758 507 754T483 750H336Q323 750 323 762Z" />
<glyph unicode="&#xca;" glyph-name="Ecircumflex" horiz-adv-x="666" d="M8 0T2 8T-3 27L135 673Q137 684 146 692T167 700H680Q691 700 697 692T702 673L672 532Q669 521 660 513T639 505H339L325 442H603Q614 442 620 434T625 415L597 285Q595 274 585 266T564
258H286L273 195H581Q592 195 598 187T602 168L572 27Q570 16 561 8T540 0H19Q8 0 2 8ZM202 750T202 762Q202 773 210 779L348 901Q360 912 369 916T389 920H519Q530 920 537 916T552 901L638 779Q640 775 640 770Q640 761 635 756T621 750H558Q532 750 519 757L436
799L335 757Q320 750 294 750H215Q202 750 202 762Z" />
<glyph unicode="&#xcb;" glyph-name="Edieresis" horiz-adv-x="666" d="M8 0T2 8T-3 27L135 673Q137 684 146 692T167 700H680Q691 700 697 692T702 673L672 532Q669 521 660 513T639 505H339L325 442H603Q614 442 620 434T625 415L597 285Q595 274 585 266T564
258H286L273 195H581Q592 195 598 187T602 168L572 27Q570 16 561 8T540 0H19Q8 0 2 8ZM227 750T222 756T219 773L245 897Q247 907 255 913T273 920H397Q407 920 412 914T415 897L389 773Q387 763 379 757T361 750H237Q227 750 222 756ZM496 750T491 756T488 773L514
897Q516 907 524 913T542 920H666Q676 920 681 914T684 897L658 773Q656 763 648 757T630 750H506Q496 750 491 756Z" />
<glyph unicode="&#xcc;" glyph-name="Igrave" horiz-adv-x="367" d="M8 0T2 8T-3 27L135 673Q137 684 146 692T167 700H371Q382 700 388 692T393 673L255 27Q253 16 244 8T223 0H19Q8 0 2 8ZM206 750T199 754T182 767L60 888Q58 892 58 896Q58 906 64 913T81 920H267Q279
920 285 917T300 901L374 779Q376 775 376 770Q376 761 371 756T357 750H220Q206 750 199 754Z" />
<glyph unicode="&#xcd;" glyph-name="Iacute" horiz-adv-x="367" d="M8 0T2 8T-3 27L135 673Q137 684 146 692T167 700H371Q382 700 388 692T393 673L255 27Q253 16 244 8T223 0H19Q8 0 2 8ZM185 750T185 762Q185 773 193 779L319 901Q333 913 340 916T360 920H556Q565
920 569 915T571 900Q570 893 563 888L391 767Q379 758 369 754T345 750H198Q185 750 185 762Z" />
<glyph unicode="&#xce;" glyph-name="Icircumflex" horiz-adv-x="367" d="M8 0T2 8T-3 27L135 673Q137 684 146 692T167 700H371Q382 700 388 692T393 673L255 27Q253 16 244 8T223 0H19Q8 0 2 8ZM56 750T56 762Q56 773 64 779L202 901Q214 912 223 916T243 920H373Q384
920 391 916T406 901L492 779Q494 775 494 770Q494 761 489 756T475 750H412Q386 750 373 757L290 799L189 757Q174 750 148 750H69Q56 750 56 762Z" />
<glyph unicode="&#xcf;" glyph-name="Idieresis" horiz-adv-x="367" d="M8 0T2 8T-3 27L135 673Q137 684 146 692T167 700H371Q382 700 388 692T393 673L255 27Q253 16 244 8T223 0H19Q8 0 2 8ZM74 750T69 756T66 773L92 897Q94 907 102 913T120 920H244Q254 920
259 914T262 897L236 773Q234 763 226 757T208 750H84Q74 750 69 756ZM343 750T338 756T335 773L361 897Q363 907 371 913T389 920H513Q523 920 528 914T531 897L505 773Q503 763 495 757T477 750H353Q343 750 338 756Z" />
<glyph unicode="&#xd0;" glyph-name="Eth" horiz-adv-x="761" d="M30 0T24 8T19 27L72 275H34Q23 275 17 283T13 302L34 403Q36 414 46 422T67 430H105L157 673Q159 684 168 692T189 700H457Q536 700 604 673T715 594T757 469Q757 445 753 425Q739 346 721 276Q685
133 598 67T354 0H41Q30 0 24 8ZM370 195Q405 195 430 215T467 276Q487 353 499 425Q501 437 501 443Q501 474 482 489T431 505H371L355 430H411Q422 430 428 422T432 403L411 302Q409 291 399 283T378 275H322L305 195H370Z" />
<glyph unicode="&#xd1;" glyph-name="Ntilde" horiz-adv-x="739" d="M8 0T2 8T-3 27L135 673Q137 684 146 692T167 700H325Q354 700 361 677L472 400L530 673Q532 684 541 692T562 700H743Q754 700 760 692T765 673L627 27Q625 16 616 8T595 0H437Q420 0 413 7T400
23L286 278L232 27Q230 16 221 8T200 0H19Q8 0 2 8ZM516 745T500 750T465 766Q450 774 440 777T418 781Q407 781 400 777T384 764Q378 757 373 754T361 750H277Q269 750 265 755T262 768Q274 823 311 874T421 925Q443 925 459 920T494 904Q509 896 519 893T541
889Q552 889 559 893T574 906Q581 913 586 916T598 920H682Q691 920 695 915T697 901Q685 847 647 796T538 745Q516 745 500 750Z" />
<glyph unicode="&#xd2;" glyph-name="Ograve" horiz-adv-x="742" d="M243 -10T175 16T67 93T26 216Q26 240 30 260Q43 339 67 436Q101 571 191 640T439 710Q521 710 589 683T698 603T739 480Q739 456 735 436Q721 354 698 260Q663 123 574 57T326 -10Q243 -10
175 16ZM419 185T439 266Q460 352 475 434Q477 443 477 457Q477 486 462 500T418 515Q385 515 361 495T327 434Q306 351 291 266Q289 257 289 242Q289 185 348 185Q419 185 439 266ZM390 750T383 754T366 767L244 888Q242 892 242 896Q242 906 248 913T265 920H451Q463
920 469 917T484 901L558 779Q560 775 560 770Q560 761 555 756T541 750H404Q390 750 383 754Z" />
<glyph unicode="&#xd3;" glyph-name="Oacute" horiz-adv-x="742" d="M243 -10T175 16T67 93T26 216Q26 240 30 260Q43 339 67 436Q101 571 191 640T439 710Q521 710 589 683T698 603T739 480Q739 456 735 436Q721 354 698 260Q663 123 574 57T326 -10Q243 -10
175 16ZM419 185T439 266Q460 352 475 434Q477 443 477 457Q477 486 462 500T418 515Q385 515 361 495T327 434Q306 351 291 266Q289 257 289 242Q289 185 348 185Q419 185 439 266ZM361 750T361 762Q361 773 369 779L495 901Q509 913 516 916T536 920H732Q741
920 745 915T747 900Q746 893 739 888L567 767Q555 758 545 754T521 750H374Q361 750 361 762Z" />
<glyph unicode="&#xd4;" glyph-name="Ocircumflex" horiz-adv-x="742" d="M243 -10T175 16T67 93T26 216Q26 240 30 260Q43 339 67 436Q101 571 191 640T439 710Q521 710 589 683T698 603T739 480Q739 456 735 436Q721 354 698 260Q663 123 574 57T326 -10Q243
-10 175 16ZM419 185T439 266Q460 352 475 434Q477 443 477 457Q477 486 462 500T418 515Q385 515 361 495T327 434Q306 351 291 266Q289 257 289 242Q289 185 348 185Q419 185 439 266ZM234 750T234 762Q234 773 242 779L380 901Q392 912 401 916T421 920H551Q562
920 569 916T584 901L670 779Q672 775 672 770Q672 761 667 756T653 750H590Q564 750 551 757L468 799L367 757Q352 750 326 750H247Q234 750 234 762Z" />
<glyph unicode="&#xd5;" glyph-name="Otilde" horiz-adv-x="742" d="M243 -10T175 16T67 93T26 216Q26 240 30 260Q43 339 67 436Q101 571 191 640T439 710Q521 710 589 683T698 603T739 480Q739 456 735 436Q721 354 698 260Q663 123 574 57T326 -10Q243 -10
175 16ZM419 185T439 266Q460 352 475 434Q477 443 477 457Q477 486 462 500T418 515Q385 515 361 495T327 434Q306 351 291 266Q289 257 289 242Q289 185 348 185Q419 185 439 266ZM523 745T507 750T472 766Q457 774 447 777T425 781Q414 781 407 777T391 764Q385
757 380 754T368 750H284Q276 750 272 755T269 768Q281 823 318 874T428 925Q450 925 466 920T501 904Q516 896 526 893T548 889Q559 889 566 893T581 906Q588 913 593 916T605 920H689Q698 920 702 915T704 901Q692 847 654 796T545 745Q523 745 507 750Z" />
<glyph unicode="&#xd6;" glyph-name="Odieresis" horiz-adv-x="742" d="M243 -10T175 16T67 93T26 216Q26 240 30 260Q43 339 67 436Q101 571 191 640T439 710Q521 710 589 683T698 603T739 480Q739 456 735 436Q721 354 698 260Q663 123 574 57T326 -10Q243 -10
175 16ZM419 185T439 266Q460 352 475 434Q477 443 477 457Q477 486 462 500T418 515Q385 515 361 495T327 434Q306 351 291 266Q289 257 289 242Q289 185 348 185Q419 185 439 266ZM257 750T252 756T249 773L275 897Q277 907 285 913T303 920H427Q437 920 442
914T445 897L419 773Q417 763 409 757T391 750H267Q257 750 252 756ZM526 750T521 756T518 773L544 897Q546 907 554 913T572 920H696Q706 920 711 914T714 897L688 773Q686 763 678 757T660 750H536Q526 750 521 756Z" />
<glyph unicode="&#xd7;" glyph-name="multiply" d="M20 190Q16 198 16 203Q16 217 29 228L168 342L77 459Q73 464 73 472Q73 487 85 497L219 606Q229 614 239 614Q251 614 257 606L348 490L491 607Q502 615 512 615Q523 615 529 607L631 478Q635 473 635 465Q635
451 623 440L480 323L571 207Q575 199 575 194Q575 178 563 169L429 60Q421 53 409 53Q398 53 391 60L300 175L160 61Q152 54 139 54Q128 54 122 61L20 190Z" />
<glyph unicode="&#xd8;" glyph-name="Oslash" horiz-adv-x="780" d="M225 -10T153 32T65 155L25 141Q18 138 14 138Q5 138 0 144T-3 159L20 267Q23 280 29 287T49 300L74 309Q94 403 103 436Q136 566 241 638T495 710Q602 710 673 671T766 559L812 576Q820 579
823 579Q832 579 837 573T840 558L817 450Q814 437 808 430T788 417L766 409Q756 356 733 260Q699 128 596 59T342 -10Q225 -10 153 32ZM511 467Q507 515 454 515Q420 515 396 495T362 434Q358 418 357 411L511 467ZM455 185T475 266L484 307L324 249Q321 185 384
185Q455 185 475 266Z" />
<glyph unicode="&#xd9;" glyph-name="Ugrave" horiz-adv-x="745" d="M247 -10T181 13T74 85T34 205Q34 235 41 264L128 673Q130 684 139 692T160 700H356Q367 700 373 692T378 673L291 268Q288 255 288 244Q288 191 349 191Q386 191 408 210T439 268L526 673Q528
684 537 692T558 700H754Q765 700 771 692T776 673L689 264Q658 122 571 56T327 -10Q247 -10 181 13ZM391 750T384 754T367 767L245 888Q243 892 243 896Q243 906 249 913T266 920H452Q464 920 470 917T485 901L559 779Q561 775 561 770Q561 761 556 756T542 750H405Q391
750 384 754Z" />
<glyph unicode="&#xda;" glyph-name="Uacute" horiz-adv-x="745" d="M247 -10T181 13T74 85T34 205Q34 235 41 264L128 673Q130 684 139 692T160 700H356Q367 700 373 692T378 673L291 268Q288 255 288 244Q288 191 349 191Q386 191 408 210T439 268L526 673Q528
684 537 692T558 700H754Q765 700 771 692T776 673L689 264Q658 122 571 56T327 -10Q247 -10 181 13ZM362 750T362 762Q362 773 370 779L496 901Q510 913 517 916T537 920H733Q742 920 746 915T748 900Q747 893 740 888L568 767Q556 758 546 754T522 750H375Q362
750 362 762Z" />
<glyph unicode="&#xdb;" glyph-name="Ucircumflex" horiz-adv-x="745" d="M247 -10T181 13T74 85T34 205Q34 235 41 264L128 673Q130 684 139 692T160 700H356Q367 700 373 692T378 673L291 268Q288 255 288 244Q288 191 349 191Q386 191 408 210T439 268L526
673Q528 684 537 692T558 700H754Q765 700 771 692T776 673L689 264Q658 122 571 56T327 -10Q247 -10 181 13ZM240 750T240 762Q240 773 248 779L386 901Q398 912 407 916T427 920H557Q568 920 575 916T590 901L676 779Q678 775 678 770Q678 761 673 756T659 750H596Q570
750 557 757L474 799L373 757Q358 750 332 750H253Q240 750 240 762Z" />
<glyph unicode="&#xdc;" glyph-name="Udieresis" horiz-adv-x="745" d="M247 -10T181 13T74 85T34 205Q34 235 41 264L128 673Q130 684 139 692T160 700H356Q367 700 373 692T378 673L291 268Q288 255 288 244Q288 191 349 191Q386 191 408 210T439 268L526 673Q528
684 537 692T558 700H754Q765 700 771 692T776 673L689 264Q658 122 571 56T327 -10Q247 -10 181 13ZM262 750T257 756T254 773L280 897Q282 907 290 913T308 920H432Q442 920 447 914T450 897L424 773Q422 763 414 757T396 750H272Q262 750 257 756ZM531 750T526
756T523 773L549 897Q551 907 559 913T577 920H701Q711 920 716 914T719 897L693 773Q691 763 683 757T665 750H541Q531 750 526 756Z" />
<glyph unicode="&#xdd;" glyph-name="Yacute" horiz-adv-x="709" d="M183 0T177 8T172 27L214 224L84 669Q80 681 88 690T110 700H288Q305 700 313 692T325 675L382 474L525 675Q530 683 542 691T572 700H770Q779 700 783 695T788 682Q788 674 784 669L464 224L422
27Q420 16 411 8T390 0H194Q183 0 177 8ZM346 750T346 762Q346 773 354 779L480 901Q494 913 501 916T521 920H717Q726 920 730 915T732 900Q731 893 724 888L552 767Q540 758 530 754T506 750H359Q346 750 346 762Z" />
<glyph unicode="&#xde;" glyph-name="Thorn" horiz-adv-x="704" d="M8 0T2 8T-3 27L135 673Q137 684 146 692T167 700H373Q384 700 390 692T395 673L379 601H429Q549 601 626 551T704 407Q704 383 698 356Q672 232 592 176T367 119H277L257 27Q255 16 246 8T225
0H19Q8 0 2 8ZM381 304Q399 304 416 317T439 358Q441 370 441 376Q441 415 405 415H335L311 304H381Z" />
<glyph unicode="&#xdf;" glyph-name="germandbls" horiz-adv-x="682" d="M12 0T6 8T2 27L92 452Q117 568 205 638T442 710Q568 709 627 663T687 543Q687 521 683 502Q674 460 654 430T597 375Q658 340 658 268Q658 245 652 216Q640 162 599 113T488 32T326 0H291Q276
0 269 7T264 27L288 141Q290 153 301 161T327 168H329Q362 168 386 188T410 241Q410 262 395 274T350 286H348Q320 286 325 313L346 411Q349 424 356 431T380 438H383Q415 439 437 456T459 499Q459 518 445 529T406 541Q343 541 326 459L234 27Q232 16 222 8T201
0H23Q12 0 6 8Z" />
<glyph unicode="&#xe0;" glyph-name="agrave" horiz-adv-x="660" d="M107 -10T59 31T10 161Q10 194 15 221Q24 264 32 300Q61 415 128 472T293 530Q346 530 377 517T431 480L434 493Q436 504 445 512T466 520H635Q646 520 652 512T657 493L558 27Q556 16 547 8T526
0H356Q345 0 339 8T334 27L339 50Q306 20 271 5T188 -10Q107 -10 59 31ZM325 169T339 183T362 227Q372 266 377 301Q378 306 378 315Q378 351 338 351Q312 351 299 337T276 293Q265 256 262 227Q261 220 261 208Q261 188 269 179T299 169Q325 169 339 183ZM303
595T296 599T279 612L157 733Q155 737 155 741Q155 751 161 758T178 765H374Q386 765 392 762T407 746L481 624Q483 620 483 615Q483 606 478 601T464 595H317Q303 595 296 599Z" />
<glyph unicode="&#xe1;" glyph-name="aacute" horiz-adv-x="660" d="M107 -10T59 31T10 161Q10 194 15 221Q24 264 32 300Q61 415 128 472T293 530Q346 530 377 517T431 480L434 493Q436 504 445 512T466 520H635Q646 520 652 512T657 493L558 27Q556 16 547 8T526
0H356Q345 0 339 8T334 27L339 50Q306 20 271 5T188 -10Q107 -10 59 31ZM325 169T339 183T362 227Q372 266 377 301Q378 306 378 315Q378 351 338 351Q312 351 299 337T276 293Q265 256 262 227Q261 220 261 208Q261 188 269 179T299 169Q325 169 339 183ZM298
595T298 607Q298 618 306 624L432 746Q446 758 453 761T473 765H659Q668 765 672 760T674 745Q673 738 666 733L494 612Q482 603 472 599T448 595H311Q298 595 298 607Z" />
<glyph unicode="&#xe2;" glyph-name="acircumflex" horiz-adv-x="660" d="M107 -10T59 31T10 161Q10 194 15 221Q24 264 32 300Q61 415 128 472T293 530Q346 530 377 517T431 480L434 493Q436 504 445 512T466 520H635Q646 520 652 512T657 493L558 27Q556 16
547 8T526 0H356Q345 0 339 8T334 27L339 50Q306 20 271 5T188 -10Q107 -10 59 31ZM325 169T339 183T362 227Q372 266 377 301Q378 306 378 315Q378 351 338 351Q312 351 299 337T276 293Q265 256 262 227Q261 220 261 208Q261 188 269 179T299 169Q325 169 339
183ZM175 595T175 607Q175 618 183 624L321 746Q333 757 342 761T362 765H482Q493 765 500 761T515 746L601 624Q603 620 603 615Q603 606 598 601T584 595H526Q500 595 487 602L404 644L303 602Q288 595 262 595H188Q175 595 175 607Z" />
<glyph unicode="&#xe3;" glyph-name="atilde" horiz-adv-x="660" d="M107 -10T59 31T10 161Q10 194 15 221Q24 264 32 300Q61 415 128 472T293 530Q346 530 377 517T431 480L434 493Q436 504 445 512T466 520H635Q646 520 652 512T657 493L558 27Q556 16 547 8T526
0H356Q345 0 339 8T334 27L339 50Q306 20 271 5T188 -10Q107 -10 59 31ZM325 169T339 183T362 227Q372 266 377 301Q378 306 378 315Q378 351 338 351Q312 351 299 337T276 293Q265 256 262 227Q261 220 261 208Q261 188 269 179T299 169Q325 169 339 183ZM448
590T432 595T397 611Q381 619 371 622T350 626Q339 626 332 622T316 609Q310 602 305 599T293 595H209Q201 595 197 600T194 613Q206 668 243 719T353 770Q375 770 391 765T427 749Q442 741 452 738T474 734Q485 734 492 738T507 751Q512 756 517 760T530 765H614Q623
765 627 760T629 746Q617 692 579 641T470 590Q448 590 432 595Z" />
<glyph unicode="&#xe4;" glyph-name="adieresis" horiz-adv-x="660" d="M107 -10T59 31T10 161Q10 194 15 221Q24 264 32 300Q61 415 128 472T293 530Q346 530 377 517T431 480L434 493Q436 504 445 512T466 520H635Q646 520 652 512T657 493L558 27Q556 16 547
8T526 0H356Q345 0 339 8T334 27L339 50Q306 20 271 5T188 -10Q107 -10 59 31ZM325 169T339 183T362 227Q372 266 377 301Q378 306 378 315Q378 351 338 351Q312 351 299 337T276 293Q265 256 262 227Q261 220 261 208Q261 188 269 179T299 169Q325 169 339 183ZM198
595T193 601T190 618L216 742Q218 752 226 758T244 765H368Q378 765 383 759T386 742L360 618Q358 608 350 602T332 595H208Q198 595 193 601ZM437 595T432 601T429 618L455 742Q457 752 465 758T483 765H607Q617 765 622 759T625 742L599 618Q597 608 589 602T571
595H447Q437 595 432 601Z" />
<glyph unicode="&#xe5;" glyph-name="aring" horiz-adv-x="660" d="M107 -10T59 31T10 161Q10 194 15 221Q24 264 32 300Q61 415 128 472T293 530Q346 530 377 517T431 480L434 493Q436 504 445 512T466 520H635Q646 520 652 512T657 493L558 27Q556 16 547 8T526
0H356Q345 0 339 8T334 27L339 50Q306 20 271 5T188 -10Q107 -10 59 31ZM325 169T339 183T362 227Q372 266 377 301Q378 306 378 315Q378 351 338 351Q312 351 299 337T276 293Q265 256 262 227Q261 220 261 208Q261 188 269 179T299 169Q325 169 339 183ZM349
590T326 610T303 665Q303 696 320 722T366 764T425 780Q461 780 484 760T507 705Q507 674 490 648T444 606T385 590Q349 590 326 610ZM413 655T424 666T436 692Q436 702 429 708T411 715Q397 715 386 704T374 678Q374 668 381 662T399 655Q413 655 424 666Z" />
<glyph unicode="&#xe6;" glyph-name="ae" horiz-adv-x="935" d="M92 -10T45 25T-3 118Q-3 134 0 149Q28 284 256 322L365 339L366 342Q370 364 370 370Q370 381 365 385T346 390Q335 390 327 386T307 374Q295 366 288 362T270 358H267H100Q90 358 86 364T83 380Q89
409 125 444T227 504T378 530Q484 530 527 493Q604 530 688 530Q806 530 864 474T923 327Q923 296 915 258L909 228Q906 217 897 209T876 201H578L577 196Q573 181 573 167Q573 135 603 135Q610 135 617 139T628 147T636 153Q646 162 653 164T672 167H861Q871 167
875 161T878 145Q872 116 833 80T727 17T574 -10Q451 -10 390 51Q306 -10 180 -10Q92 -10 45 25ZM685 326V330Q688 345 688 355Q688 390 658 390Q618 390 605 330V326H685ZM291 138T312 157T342 215V216L280 203Q228 191 228 161Q228 151 236 145T261 138Q291 138
312 157Z" />
<glyph unicode="&#xe7;" glyph-name="ccedilla" horiz-adv-x="621" d="M262 250T258 224Q255 206 255 193Q255 176 262 169T285 161Q301 161 309 167T328 191Q341 211 361 211H556Q567 211 574 203T578 184Q568 152 534 108T430 27T256 -10L231 -45Q239 -43 248
-42T262 -40Q293 -40 309 -59T326 -109Q326 -122 323 -135Q315 -176 288 -198T216 -220Q184 -220 158 -208T132 -182Q132 -175 140 -169L164 -151Q173 -145 179 -145Q182 -145 193 -149T220 -154Q233 -154 242 -147T253 -130Q255 -120 250 -113T230 -106Q224 -106
219 -107T210 -109Q200 -112 190 -112Q181 -112 176 -106L155 -78Q150 -71 150 -66Q150 -59 161 -42L186 -3Q107 12 58 60T9 183Q9 200 12 219Q23 278 29 300Q58 410 141 470T348 530Q436 530 495 498T583 423T611 345L610 336Q609 325 599 317T577 309H382Q371
309 366 314T357 329Q353 345 347 352T327 359Q305 359 293 344T273 295Q262 250 258 224Z" />
<glyph unicode="&#xe8;" glyph-name="egrave" horiz-adv-x="621" d="M149 -10T87 37T25 181Q25 217 34 259L36 266Q65 393 155 461T377 530Q495 530 553 474T612 327Q612 296 604 258L598 228Q595 217 586 209T565 201H267L266 196Q262 181 262 167Q262 135 292
135Q299 135 306 139T317 147T325 153Q335 162 342 164T361 167H550Q560 167 565 161T567 145Q559 116 520 80T415 17T263 -10Q149 -10 87 37ZM374 326V327Q377 344 377 355Q377 390 347 390Q307 390 294 327V326H374ZM294 595T287 599T270 612L148 733Q146 737
146 741Q146 751 152 758T169 765H365Q377 765 383 762T398 746L472 624Q474 620 474 615Q474 606 469 601T455 595H308Q294 595 287 599Z" />
<glyph unicode="&#xe9;" glyph-name="eacute" horiz-adv-x="621" d="M149 -10T87 37T25 181Q25 217 34 259L36 266Q65 393 155 461T377 530Q495 530 553 474T612 327Q612 296 604 258L598 228Q595 217 586 209T565 201H267L266 196Q262 181 262 167Q262 135 292
135Q299 135 306 139T317 147T325 153Q335 162 342 164T361 167H550Q560 167 565 161T567 145Q559 116 520 80T415 17T263 -10Q149 -10 87 37ZM374 326V327Q377 344 377 355Q377 390 347 390Q307 390 294 327V326H374ZM271 595T271 607Q271 618 279 624L405 746Q419
758 426 761T446 765H632Q641 765 645 760T647 745Q646 738 639 733L467 612Q455 603 445 599T421 595H284Q271 595 271 607Z" />
<glyph unicode="&#xea;" glyph-name="ecircumflex" horiz-adv-x="621" d="M149 -10T87 37T25 181Q25 217 34 259L36 266Q65 393 155 461T377 530Q495 530 553 474T612 327Q612 296 604 258L598 228Q595 217 586 209T565 201H267L266 196Q262 181 262 167Q262 135
292 135Q299 135 306 139T317 147T325 153Q335 162 342 164T361 167H550Q560 167 565 161T567 145Q559 116 520 80T415 17T263 -10Q149 -10 87 37ZM374 326V327Q377 344 377 355Q377 390 347 390Q307 390 294 327V326H374ZM149 595T149 607Q149 618 157 624L295
746Q307 757 316 761T336 765H456Q467 765 474 761T489 746L575 624Q577 620 577 615Q577 606 572 601T558 595H500Q474 595 461 602L378 644L277 602Q262 595 236 595H162Q149 595 149 607Z" />
<glyph unicode="&#xeb;" glyph-name="edieresis" horiz-adv-x="621" d="M149 -10T87 37T25 181Q25 217 34 259L36 266Q65 393 155 461T377 530Q495 530 553 474T612 327Q612 296 604 258L598 228Q595 217 586 209T565 201H267L266 196Q262 181 262 167Q262 135
292 135Q299 135 306 139T317 147T325 153Q335 162 342 164T361 167H550Q560 167 565 161T567 145Q559 116 520 80T415 17T263 -10Q149 -10 87 37ZM374 326V327Q377 344 377 355Q377 390 347 390Q307 390 294 327V326H374ZM179 595T174 601T171 618L197 742Q199
752 207 758T225 765H349Q359 765 364 759T367 742L341 618Q339 608 331 602T313 595H189Q179 595 174 601ZM418 595T413 601T410 618L436 742Q438 752 446 758T464 765H588Q598 765 603 759T606 742L580 618Q578 608 570 602T552 595H428Q418 595 413 601Z" />
<glyph unicode="&#xec;" glyph-name="igrave" horiz-adv-x="323" d="M-1 0T-7 8T-12 27L87 493Q89 504 99 512T120 520H299Q310 520 316 512T320 493L221 27Q219 16 210 8T189 0H10Q-1 0 -7 8ZM157 595T150 599T133 612L11 733Q9 737 9 741Q9 751 15 758T32 765H228Q240
765 246 762T261 746L335 624Q337 620 337 615Q337 606 332 601T318 595H171Q157 595 150 599Z" />
<glyph unicode="&#xed;" glyph-name="iacute" horiz-adv-x="323" d="M-1 0T-7 8T-12 27L87 493Q89 504 99 512T120 520H299Q310 520 316 512T320 493L221 27Q219 16 210 8T189 0H10Q-1 0 -7 8ZM131 595T131 607Q131 618 139 624L265 746Q279 758 286 761T306 765H492Q501
765 505 760T507 745Q506 738 499 733L327 612Q315 603 305 599T281 595H144Q131 595 131 607Z" />
<glyph unicode="&#xee;" glyph-name="icircumflex" horiz-adv-x="323" d="M-1 0T-7 8T-12 27L87 493Q89 504 99 512T120 520H299Q310 520 316 512T320 493L221 27Q219 16 210 8T189 0H10Q-1 0 -7 8ZM263 595T263 607Q263 618 271 624L409 746Q421 757 430 761T450
765H570Q581 765 588 761T603 746L689 624Q691 620 691 615Q691 606 686 601T672 595H614Q588 595 575 602L492 644L391 602Q376 595 350 595H276Q263 595 263 607Z" />
<glyph unicode="&#xef;" glyph-name="idieresis" horiz-adv-x="323" d="M-1 0T-7 8T-12 27L87 493Q89 504 99 512T120 520H299Q310 520 316 512T320 493L221 27Q219 16 210 8T189 0H10Q-1 0 -7 8ZM34 595T29 601T26 618L52 742Q54 752 62 758T80 765H204Q214 765
219 759T222 742L196 618Q194 608 186 602T168 595H44Q34 595 29 601ZM273 595T268 601T265 618L291 742Q293 752 301 758T319 765H443Q453 765 458 759T461 742L435 618Q433 608 425 602T407 595H283Q273 595 268 601Z" />
<glyph unicode="&#xf0;" glyph-name="eth" horiz-adv-x="638" d="M149 -10T84 35T19 170Q19 193 26 230Q51 347 145 408T367 470H381Q375 497 363 524L235 478L223 475Q214 475 210 481T207 496L213 524Q215 537 221 544T242 557L322 586Q294 622 247 659Q242
663 240 668T238 678Q240 687 248 693T265 700H453Q488 700 503 687Q509 681 517 674T531 661L628 696L640 699Q649 699 653 693T656 678L650 650Q648 637 642 630T621 617L577 601Q628 518 628 399Q628 355 618 288Q614 260 605 225Q574 109 486 50T265 -10Q149
-10 84 35ZM323 150T336 163T355 203Q359 217 367 256Q369 270 369 277Q369 293 361 301T333 310Q307 310 296 297T277 256Q271 235 266 204Q263 191 263 181Q263 165 271 158T299 150Q323 150 336 163Z" />
<glyph unicode="&#xf1;" glyph-name="ntilde" horiz-adv-x="674" d="M-1 0T-7 8T-12 27L87 493Q89 504 99 512T120 520H295Q306 520 312 512T316 493L309 460Q343 492 386 511T480 530Q554 530 599 490T644 371Q644 343 636 303L577 27Q575 16 566 8T545 0H354Q343
0 337 8T332 27L389 296Q391 310 391 314Q391 351 351 351Q327 351 311 337T289 296L232 27Q230 16 221 8T200 0H10Q-1 0 -7 8ZM458 590T442 595T407 611Q391 619 381 622T360 626Q349 626 342 622T326 609Q320 602 315 599T303 595H219Q211 595 207 600T204 613Q216
668 253 719T363 770Q385 770 401 765T437 749Q452 741 462 738T484 734Q495 734 502 738T517 751Q522 756 527 760T540 765H624Q633 765 637 760T639 746Q627 692 589 641T480 590Q458 590 442 595Z" />
<glyph unicode="&#xf2;" glyph-name="ograve" horiz-adv-x="641" d="M144 -10T77 37T10 175Q10 194 13 213Q20 262 33 307Q64 419 144 474T360 530Q476 530 546 482T616 342Q616 325 613 307Q605 256 593 213Q561 100 484 45T265 -10Q144 -10 77 37ZM316 150T327
164T349 218Q363 272 367 302Q371 328 371 336Q371 353 363 361T336 370Q310 370 299 355T277 302Q272 283 267 260T259 218Q255 188 255 181Q255 165 262 158T289 150Q316 150 327 164ZM301 595T294 599T277 612L155 733Q153 737 153 741Q153 751 159 758T176
765H372Q384 765 390 762T405 746L479 624Q481 620 481 615Q481 606 476 601T462 595H315Q301 595 294 599Z" />
<glyph unicode="&#xf3;" glyph-name="oacute" horiz-adv-x="641" d="M144 -10T77 37T10 175Q10 194 13 213Q20 262 33 307Q64 419 144 474T360 530Q476 530 546 482T616 342Q616 325 613 307Q605 256 593 213Q561 100 484 45T265 -10Q144 -10 77 37ZM316 150T327
164T349 218Q363 272 367 302Q371 328 371 336Q371 353 363 361T336 370Q310 370 299 355T277 302Q272 283 267 260T259 218Q255 188 255 181Q255 165 262 158T289 150Q316 150 327 164ZM277 595T277 607Q277 618 285 624L411 746Q425 758 432 761T452 765H638Q647
765 651 760T653 745Q652 738 645 733L473 612Q461 603 451 599T427 595H290Q277 595 277 607Z" />
<glyph unicode="&#xf4;" glyph-name="ocircumflex" horiz-adv-x="641" d="M144 -10T77 37T10 175Q10 194 13 213Q20 262 33 307Q64 419 144 474T360 530Q476 530 546 482T616 342Q616 325 613 307Q605 256 593 213Q561 100 484 45T265 -10Q144 -10 77 37ZM316
150T327 164T349 218Q363 272 367 302Q371 328 371 336Q371 353 363 361T336 370Q310 370 299 355T277 302Q272 283 267 260T259 218Q255 188 255 181Q255 165 262 158T289 150Q316 150 327 164ZM163 595T163 607Q163 618 171 624L309 746Q321 757 330 761T350
765H470Q481 765 488 761T503 746L589 624Q591 620 591 615Q591 606 586 601T572 595H514Q488 595 475 602L392 644L291 602Q276 595 250 595H176Q163 595 163 607Z" />
<glyph unicode="&#xf5;" glyph-name="otilde" horiz-adv-x="641" d="M144 -10T77 37T10 175Q10 194 13 213Q20 262 33 307Q64 419 144 474T360 530Q476 530 546 482T616 342Q616 325 613 307Q605 256 593 213Q561 100 484 45T265 -10Q144 -10 77 37ZM316 150T327
164T349 218Q363 272 367 302Q371 328 371 336Q371 353 363 361T336 370Q310 370 299 355T277 302Q272 283 267 260T259 218Q255 188 255 181Q255 165 262 158T289 150Q316 150 327 164ZM439 590T423 595T388 611Q372 619 362 622T341 626Q330 626 323 622T307
609Q301 602 296 599T284 595H200Q192 595 188 600T185 613Q197 668 234 719T344 770Q366 770 382 765T418 749Q433 741 443 738T465 734Q476 734 483 738T498 751Q503 756 508 760T521 765H605Q614 765 618 760T620 746Q608 692 570 641T461 590Q439 590 423 595Z"
/>
<glyph unicode="&#xf6;" glyph-name="odieresis" horiz-adv-x="641" d="M144 -10T77 37T10 175Q10 194 13 213Q20 262 33 307Q64 419 144 474T360 530Q476 530 546 482T616 342Q616 325 613 307Q605 256 593 213Q561 100 484 45T265 -10Q144 -10 77 37ZM316 150T327
164T349 218Q363 272 367 302Q371 328 371 336Q371 353 363 361T336 370Q310 370 299 355T277 302Q272 283 267 260T259 218Q255 188 255 181Q255 165 262 158T289 150Q316 150 327 164ZM193 595T188 601T185 618L211 742Q213 752 221 758T239 765H363Q373 765
378 759T381 742L355 618Q353 608 345 602T327 595H203Q193 595 188 601ZM432 595T427 601T424 618L450 742Q452 752 460 758T478 765H602Q612 765 617 759T620 742L594 618Q592 608 584 602T566 595H442Q432 595 427 601Z" />
<glyph unicode="&#xf7;" glyph-name="divide" horiz-adv-x="514" d="M207 408T201 416T197 435L221 549Q223 560 233 568T254 576H378Q389 576 395 568T399 549L375 435Q373 424 363 416T342 408H218Q207 408 201 416ZM26 215T20 223T16 242L41 358Q43 369 52
377T73 385H478Q489 385 495 377T500 358L475 242Q473 231 463 223T442 215H37Q26 215 20 223ZM126 24T120 32T115 51L140 165Q142 176 151 184T172 192H296Q307 192 313 184T318 165L293 51Q291 40 282 32T261 24H137Q126 24 120 32Z" />
<glyph unicode="&#xf8;" glyph-name="oslash" horiz-adv-x="667" d="M89 -10T48 103L10 90Q3 87 -1 87Q-10 87 -15 93T-18 108L-3 176Q-1 189 5 196T26 209L42 214Q48 258 61 307Q92 416 180 473T399 530Q585 530 631 425L671 440Q679 443 682 443Q691 443 696
437T699 422L684 354Q682 341 676 334T655 321L642 316Q637 267 621 213Q559 -10 284 -10Q89 -10 48 103ZM398 342Q397 356 390 363T365 370Q341 370 330 357T308 315L307 309L398 342ZM345 150T356 164T378 218V222L284 188Q283 167 290 159T318 150Q345 150 356
164Z" />
<glyph unicode="&#xf9;" glyph-name="ugrave" horiz-adv-x="673" d="M109 -10T63 31T16 152Q16 183 23 217L81 493Q83 504 93 512T114 520H305Q316 520 322 512T326 493L269 224Q267 210 267 206Q267 169 307 169Q331 169 347 183T369 224L426 493Q428 504 438
512T459 520H649Q660 520 666 512T670 493L571 27Q569 16 560 8T539 0H364Q353 0 347 8T342 27L349 60Q316 23 277 7T178 -10Q109 -10 63 31ZM301 595T294 599T277 612L155 733Q153 737 153 741Q153 751 159 758T176 765H372Q384 765 390 762T405 746L479 624Q481
620 481 615Q481 606 476 601T462 595H315Q301 595 294 599Z" />
<glyph unicode="&#xfa;" glyph-name="uacute" horiz-adv-x="673" d="M109 -10T63 31T16 152Q16 183 23 217L81 493Q83 504 93 512T114 520H305Q316 520 322 512T326 493L269 224Q267 210 267 206Q267 169 307 169Q331 169 347 183T369 224L426 493Q428 504 438
512T459 520H649Q660 520 666 512T670 493L571 27Q569 16 560 8T539 0H364Q353 0 347 8T342 27L349 60Q316 23 277 7T178 -10Q109 -10 63 31ZM294 595T294 607Q294 618 302 624L428 746Q442 758 449 761T469 765H655Q664 765 668 760T670 745Q669 738 662 733L490
612Q478 603 468 599T444 595H307Q294 595 294 607Z" />
<glyph unicode="&#xfb;" glyph-name="ucircumflex" horiz-adv-x="673" d="M109 -10T63 31T16 152Q16 183 23 217L81 493Q83 504 93 512T114 520H305Q316 520 322 512T326 493L269 224Q267 210 267 206Q267 169 307 169Q331 169 347 183T369 224L426 493Q428 504
438 512T459 520H649Q660 520 666 512T670 493L571 27Q569 16 560 8T539 0H364Q353 0 347 8T342 27L349 60Q316 23 277 7T178 -10Q109 -10 63 31ZM169 595T169 607Q169 618 177 624L315 746Q327 757 336 761T356 765H476Q487 765 494 761T509 746L595 624Q597 620
597 615Q597 606 592 601T578 595H520Q494 595 481 602L398 644L297 602Q282 595 256 595H182Q169 595 169 607Z" />
<glyph unicode="&#xfc;" glyph-name="udieresis" horiz-adv-x="673" d="M109 -10T63 31T16 152Q16 183 23 217L81 493Q83 504 93 512T114 520H305Q316 520 322 512T326 493L269 224Q267 210 267 206Q267 169 307 169Q331 169 347 183T369 224L426 493Q428 504
438 512T459 520H649Q660 520 666 512T670 493L571 27Q569 16 560 8T539 0H364Q353 0 347 8T342 27L349 60Q316 23 277 7T178 -10Q109 -10 63 31ZM201 595T196 601T193 618L219 742Q221 752 229 758T247 765H371Q381 765 386 759T389 742L363 618Q361 608 353 602T335
595H211Q201 595 196 601ZM440 595T435 601T432 618L458 742Q460 752 468 758T486 765H610Q620 765 625 759T628 742L602 618Q600 608 592 602T574 595H450Q440 595 435 601Z" />
<glyph unicode="&#xfd;" glyph-name="yacute" horiz-adv-x="646" d="M37 -190T32 -185T27 -172Q27 -164 31 -159L152 33L55 489Q53 501 61 510T86 520H245Q268 520 272 496L311 268L449 496Q463 520 488 520H665Q683 520 683 502Q683 495 680 489L259 -166Q245
-190 219 -190H45Q37 -190 32 -185ZM280 595T280 607Q280 618 288 624L414 746Q428 758 435 761T455 765H641Q650 765 654 760T656 745Q655 738 648 733L476 612Q464 603 454 599T430 595H293Q280 595 280 607Z" />
<glyph unicode="&#xfe;" glyph-name="thorn" horiz-adv-x="661" d="M-42 -190T-48 -182T-52 -163L128 683Q130 694 139 702T160 710H345Q356 710 362 702T367 683L322 473Q347 500 378 515T457 530Q538 530 587 489T636 360Q636 332 630 299Q623 258 613 220Q585
106 519 48T362 -10Q318 -10 283 5T232 50L187 -163Q185 -174 175 -182T154 -190H-31Q-42 -190 -48 -182ZM333 169T346 183T370 227Q381 264 384 293L385 310Q385 331 377 341T346 351Q320 351 306 337T284 293Q273 256 268 219Q267 214 267 205Q267 169 307 169Q333
169 346 183Z" />
<glyph unicode="&#xff;" glyph-name="ydieresis" horiz-adv-x="646" d="M37 -190T32 -185T27 -172Q27 -164 31 -159L152 33L55 489Q53 501 61 510T86 520H245Q268 520 272 496L311 268L449 496Q463 520 488 520H665Q683 520 683 502Q683 495 680 489L259 -166Q245
-190 219 -190H45Q37 -190 32 -185ZM180 595T175 601T172 618L198 742Q200 752 208 758T226 765H350Q360 765 365 759T368 742L342 618Q340 608 332 602T314 595H190Q180 595 175 601ZM419 595T414 601T411 618L437 742Q439 752 447 758T465 765H589Q599 765 604
759T607 742L581 618Q579 608 571 602T553 595H429Q419 595 414 601Z" />
<glyph unicode="&#x2013;" glyph-name="endash" horiz-adv-x="559" d="M40 202T34 210T30 229L60 371Q63 382 72 390T93 398H508Q519 398 525 390T529 371L499 229Q497 218 487 210T466 202H51Q40 202 34 210Z" />
<glyph unicode="&#x2014;" glyph-name="emdash" horiz-adv-x="749" d="M40 202T34 210T30 229L60 371Q63 382 72 390T93 398H698Q709 398 715 390T719 371L689 229Q687 218 677 210T656 202H51Q40 202 34 210Z" />
<glyph unicode="&#x2018;" glyph-name="quoteleft" horiz-adv-x="311" d="M276 430T263 419T231 407H61Q53 407 48 412T43 425Q43 432 46 436L193 678Q213 710 242 710H353Q362 710 367 703T370 686L282 446Q276 430 263 419Z" />
<glyph unicode="&#x2019;" glyph-name="quoteright" horiz-adv-x="306" d="M150 687T163 698T195 710H365Q374 710 378 705T383 692Q383 686 380 681L233 439Q213 407 184 407H73Q65 407 59 414T56 431L144 671Q150 687 163 698Z" />
<glyph unicode="&#x201a;" glyph-name="quotesinglbase" horiz-adv-x="314" d="M40 205T53 216T85 228H255Q264 228 268 223T273 210Q273 204 270 199L123 -43Q103 -75 74 -75H-37Q-45 -75 -51 -68T-54 -51L34 189Q40 205 53 216Z" />
<glyph unicode="&#x201c;" glyph-name="quotedblleft" horiz-adv-x="595" d="M53 407T48 412T43 425Q43 432 46 436L193 678Q213 710 242 710H353Q362 710 367 703T370 686L282 446Q276 430 263 419T231 407H61Q53 407 48 412ZM337 407T332 412T327 425Q327 432
330 436L477 678Q497 710 526 710H637Q645 710 651 703T654 686L566 446Q560 430 547 419T515 407H345Q337 407 332 412Z" />
<glyph unicode="&#x201d;" glyph-name="quotedblright" horiz-adv-x="588" d="M150 687T163 698T195 710H365Q374 710 378 705T383 692Q383 686 380 681L233 439Q213 407 184 407H73Q65 407 59 414T56 431L144 671Q150 687 163 698ZM432 687T445 698T477 710H647Q656
710 660 705T665 692Q665 686 662 681L515 439Q495 407 466 407H355Q347 407 341 414T338 431L426 671Q432 687 445 698Z" />
<glyph unicode="&#x201e;" glyph-name="quotedblbase" horiz-adv-x="596" d="M40 205T53 216T85 228H255Q264 228 268 223T273 210Q273 204 270 199L123 -43Q103 -75 74 -75H-37Q-45 -75 -51 -68T-54 -51L34 189Q40 205 53 216ZM322 205T335 216T367 228H537Q546
228 550 223T555 210Q555 204 552 199L405 -43Q385 -75 356 -75H245Q237 -75 231 -68T228 -51L316 189Q322 205 335 216Z" />
<glyph unicode="&#x2022;" glyph-name="bullet" horiz-adv-x="387" d="M62 365T87 404T152 466T235 490Q285 490 316 459T348 379Q348 335 323 296T258 234T175 210Q125 210 94 241T62 321Q62 365 87 404Z" />
<glyph unicode="&#x2039;" glyph-name="guilsinglleft" horiz-adv-x="342" d="M220 52T215 57L43 268Q32 280 35 296L49 362Q53 377 69 390L331 601Q338 606 346 606Q355 606 360 600T363 584L333 443Q329 426 324 417T306 398L222 329L276 260Q287 248 287 233Q287
222 285 215L255 74Q253 65 245 59T228 52Q220 52 215 57Z" />
<glyph unicode="&#x203a;" glyph-name="guilsinglright" horiz-adv-x="342" d="M29 52T24 58T21 74L51 215Q55 231 60 240T78 260L162 329L108 398Q97 412 97 426Q97 429 99 443L129 584Q131 593 139 599T156 606Q164 606 169 601L341 390Q353 378 349 362L335
296Q332 280 315 268L53 57Q46 52 38 52Q29 52 24 58Z" />
</font>
</defs>
</svg>
